<?xml version="1.0" standalone="no"?>
<!DOCTYPE svg PUBLIC "-//W3C//DTD SVG 1.1//EN" "http://www.w3.org/Graphics/SVG/1.1/DTD/svg11.dtd" >
<svg>
<metadata>
Created by FontForge 20090622 at Tue Aug 21 06:10:56 2018
 By deploy user
Copyright (c) 2009 by Hannes von Doehren. All rights reserved.
</metadata>
<defs>
<font id="BrandonGrotesque-Bold" horiz-adv-x="500" >
  <font-face 
    font-family="Brandon Grotesque Bold"
    font-weight="450"
    font-stretch="normal"
    units-per-em="1000"
    panose-1="2 11 8 3 2 2 3 6 2 2"
    ascent="700"
    descent="-300"
    x-height="400"
    cap-height="700"
    bbox="-157 -383.762 1111.12 1042.84"
    underline-thickness="50"
    underline-position="-50"
    unicode-range="U+0020-U+FB02"
  />
<missing-glyph horiz-adv-x="599" 
d="M50 30v640q0 30 30 30h439q30 0 30 -30v-640q0 -30 -30 -30h-439q-30 0 -30 30zM262 314q0 -12 14 -12h36q15 0 15 13v26q0 16 16.5 32t36 28.5t36 36.5t16.5 53q0 48 -35.5 79.5t-89.5 31.5q-24 0 -46.5 -6.5t-37 -15t-25.5 -17.5t-16 -15l-5 -7q-8 -12 0 -18l22 -22
q9 -6 17 0q1 1 7.5 7t9.5 9t11.5 8.5t15.5 8.5t18 5.5t22 2.5q29 0 45 -15t16 -37q0 -21 -15.5 -39t-34 -30t-34 -32.5t-15.5 -45.5v-29zM245 156q0 -20 14.5 -34t33.5 -14q20 0 34.5 14t14.5 34t-14.5 34t-34.5 14q-19 0 -33.5 -14t-14.5 -34z" />
    <glyph glyph-name="fi" unicode="fi" horiz-adv-x="557" 
d="M84 19v276h-34q-8 0 -13.5 5.5t-5.5 13.5v67q0 19 19 19h34v109q0 90 56 145.5t141 55.5q76 0 153 -43q16 -9 6 -26l-34 -63q-9 -18 -27 -9q-56 28 -97 28q-30 0 -51.5 -23t-21.5 -66v-108h269q8 0 13.5 -5.5t5.5 -13.5v-362q0 -7 -5.5 -13t-13.5 -6h-83q-8 0 -13.5 5.5
t-5.5 13.5v276h-167v-276q0 -19 -38 -19h-68q-7 0 -13 6t-6 13z" />
    <glyph glyph-name="fl" unicode="fl" horiz-adv-x="570" 
d="M84 19v277h-36q-8 0 -13.5 5t-5.5 13v66q0 8 5.5 14t13.5 6h36v109q0 94 56.5 147.5t140.5 53.5q39 0 74.5 -14t52.5 -28l16 -14l11 28q8 18 24 18h32q7 0 13 -6t6 -13v-662q0 -7 -6 -13t-13 -6h-84q-7 0 -13 6t-6 13v528q-5 7 -15 16.5t-33.5 21t-47.5 11.5
q-35 0 -59.5 -22t-24.5 -66v-108h84q8 0 13.5 -5.5t5.5 -13.5v-66q0 -7 -5.5 -13t-13.5 -6h-84v-277q0 -7 -6 -13t-13 -6h-87q-7 0 -12.5 5.5t-5.5 13.5z" />
    <glyph glyph-name="f_f" unicode="ff" horiz-adv-x="642" 
d="M84 19v276h-35q-8 0 -13.5 5.5t-5.5 13.5v67q0 19 19 19h35v89q0 101 60 156t149 55q81 0 139 -46q51 56 137 56q36 0 69 -12.5t49 -26.5q12 -10 4 -23l-34 -64q-7 -14 -24 -5q-33 20 -59 20q-32 0 -49.5 -23.5t-17.5 -67.5v-108h100q19 0 19 -19v-67q0 -8 -5.5 -13.5
t-13.5 -5.5h-100v-276q0 -7 -5.5 -13t-13.5 -6h-87q-7 0 -13 6t-6 13v276h-173v-276q0 -7 -5.5 -13t-13.5 -6h-87q-7 0 -13 6t-6 13zM209 400h173v108q0 18 4 46q-30 35 -86 35q-40 0 -65.5 -26.5t-25.5 -73.5v-89z" />
    <glyph glyph-name="f_f_i" unicode="ffi" horiz-adv-x="855" 
d="M84 19v276h-34q-8 0 -13.5 5.5t-5.5 13.5v67q0 19 19 19h34v89q0 89 55 147.5t155 63.5q83 0 138 -46q51 56 144 56q82 0 156 -43q16 -9 7 -26l-36 -67q-9 -14 -26 -5q-56 28 -96 28q-31 0 -52 -22.5t-21 -66.5v-108h268q19 0 19 -19v-362q0 -8 -5.5 -13.5t-13.5 -5.5
h-83q-8 0 -13.5 5.5t-5.5 13.5v276h-166v-276q0 -7 -6 -13t-13 -6h-87q-8 0 -13.5 6t-5.5 13v276h-174v-276q0 -7 -5.5 -13t-13.5 -6h-87q-7 0 -13 6t-6 13zM209 400h174v108q0 25 3 46q-30 35 -85 35q-40 0 -66 -26.5t-26 -73.5v-89z" />
    <glyph glyph-name="f_f_l" unicode="ffl" horiz-adv-x="869" 
d="M84 19v276h-35q-8 0 -13.5 5.5t-5.5 13.5v67q0 19 19 19h35v89q0 101 60 156t149 55q81 0 139 -46q51 56 150 56q37 0 72.5 -14t51.5 -28l17 -14l11 28q7 18 24 18h32q8 0 13.5 -6t5.5 -13v-662q0 -7 -5.5 -13t-13.5 -6h-84q-8 0 -13.5 6t-5.5 13v528q-5 7 -15 16.5
t-33.5 21t-47.5 11.5q-35 0 -59.5 -22t-24.5 -66v-108h84q8 0 13.5 -5.5t5.5 -13.5v-66q0 -7 -6 -13t-13 -6h-84v-277q0 -7 -5.5 -13t-13.5 -6h-87q-7 0 -13 6t-6 13v276h-173v-276q0 -7 -5.5 -13t-13.5 -6h-87q-7 0 -13 6t-6 13zM209 400h173v108q0 18 4 46q-30 35 -86 35
q-40 0 -65.5 -26.5t-25.5 -73.5v-89z" />
    <glyph glyph-name="f_f_h" unicode="ffh" horiz-adv-x="1147" 
d="M84 19v276h-35q-8 0 -13.5 5.5t-5.5 13.5v67q0 19 19 19h35v84q0 101 59 158.5t150 57.5q81 0 139 -46q51 56 150 56q37 0 72.5 -14t51.5 -28l17 -14l11 28q7 18 24 18h32q8 0 13.5 -6t5.5 -13l1 -304q44 33 106 33q89 0 134 -57.5t45 -141.5v-192q0 -7 -5.5 -13
t-13.5 -6h-81q-8 0 -13.5 5.5t-5.5 13.5v191q0 41 -21.5 65.5t-57.5 24.5q-33 0 -56 -19.5t-31 -51.5v-210q0 -19 -21 -19h-83q-8 0 -13.5 6t-5.5 13v528q-5 7 -15 16.5t-33.5 21t-47.5 11.5q-36 0 -60 -22.5t-24 -68.5v-105h84q8 0 13.5 -5.5t5.5 -13.5v-66q0 -7 -6 -13
t-13 -6h-84v-277q0 -7 -5.5 -13t-13.5 -6h-87q-7 0 -13 6t-6 13v276h-173v-276q0 -7 -5.5 -13t-13.5 -6h-87q-7 0 -13 6t-6 13zM209 400h173v108q0 18 4 46q-30 35 -86 35q-40 0 -65.5 -26.5t-25.5 -73.5v-89z" />
    <glyph glyph-name="f_k" unicode="fk" horiz-adv-x="817" 
d="M84 19v277h-36q-8 0 -13.5 5.5t-5.5 13.5v66q0 19 19 19h36v109q0 93 57 147t139 54q39 0 75 -14t53 -28l16 -14l11 28q7 18 24 18h32q7 0 13 -6t6 -13v-433l139 140q12 12 25 12h91q12 0 16.5 -10.5t-3.5 -18.5l-149 -152l178 -191q8 -8 3.5 -18t-16.5 -10h-109
q-10 0 -16 8l-159 180v-169q0 -7 -6 -13t-13 -6h-84q-7 0 -13 6t-6 13v528q-5 7 -15 16.5t-33.5 21t-47.5 11.5q-35 0 -59.5 -22t-24.5 -66v-108h84q8 0 13.5 -5.5t5.5 -13.5v-66q0 -7 -5.5 -13t-13.5 -6h-84v-277q0 -7 -6 -13t-13 -6h-87q-7 0 -12.5 5.5t-5.5 13.5z" />
    <glyph glyph-name="f_j" unicode="fj" horiz-adv-x="557" 
d="M84 19v276h-34q-8 0 -13.5 5.5t-5.5 13.5v67q0 19 19 19h34v109q0 90 56 145.5t141 55.5q76 0 153 -43q16 -9 6 -26l-34 -63q-9 -18 -27 -9q-56 28 -97 28q-30 0 -51.5 -23t-21.5 -66v-108h269q8 0 13.5 -5.5t5.5 -13.5v-489q0 -96 -52 -149t-135 -53q-36 0 -69 12.5
t-49 26.5q-12 10 -4 23l34 64q7 14 24 5q32 -20 59 -20q69 0 69 91v403h-165v-276q0 -7 -5.5 -13t-13.5 -6h-87q-7 0 -13 6t-6 13z" />
    <glyph glyph-name="f_f_j" unicode="ffj" horiz-adv-x="855" 
d="M84 19v276h-34q-8 0 -13.5 5.5t-5.5 13.5v67q0 19 19 19h34v84q0 101 58.5 158.5t151.5 57.5q83 0 138 -46q51 56 144 56q79 0 156 -43q16 -9 7 -26l-36 -67q-9 -14 -26 -5q-56 28 -96 28q-73 0 -73 -101v-96h268q19 0 19 -19v-475q0 -24 -3 -47q-9 -82 -59 -125.5
t-124 -43.5q-36 0 -67.5 10.5t-46.5 25t-8 26.5l33 64q7 14 24 5q32 -20 59 -20q34 0 52 23.5t18 67.5v403h-165v-276q0 -7 -6 -13t-13 -6h-87q-8 0 -13.5 6t-5.5 13v276h-174v-276q0 -7 -5.5 -13t-13.5 -6h-87q-7 0 -13 6t-6 13zM209 400h174v101q0 32 3 53q-30 35 -85 35
q-40 0 -66 -26.5t-26 -73.5v-89z" />
    <glyph glyph-name="f_b" unicode="fb" horiz-adv-x="828" 
d="M84 19v277h-36q-8 0 -13.5 5.5t-5.5 13.5v66q0 19 19 19h36v108q0 86 54.5 144t141.5 58q39 0 75 -14t53 -28l16 -14l11 28q7 18 24 18h32q7 0 13 -6t6 -13v-290q49 19 85 19q85 0 144 -61t59 -149q0 -87 -55.5 -148.5t-136.5 -61.5q-37 0 -70 15t-47 30l-14 15l-10 -31
q-5 -19 -19 -19h-39q-7 0 -13 6t-6 13v528q-5 7 -15 16.5t-33.5 21t-47.5 11.5q-35 0 -59.5 -22t-24.5 -66v-108h84q8 0 13.5 -5.5t5.5 -13.5v-66q0 -7 -5.5 -13t-13.5 -6h-84v-277q0 -7 -6 -13t-13 -6h-87q-7 0 -12.5 5.5t-5.5 13.5zM507 159q4 -20 26 -40.5t56 -20.5
q41 0 67 29.5t26 72.5q0 42 -27.5 71t-69.5 29q-22 0 -41.5 -6t-27.5 -12l-9 -5v-118z" />
    <glyph glyph-name="f_f_k" unicode="ffk" horiz-adv-x="1116" 
d="M84 19v276h-35q-8 0 -13.5 5.5t-5.5 13.5v67q0 19 19 19h35v89q0 101 60 156t149 55q81 0 139 -46q51 56 148 56q38 0 74 -14t52 -28l17 -14l13 33q4 13 18 13h36q8 0 13.5 -6t5.5 -13v-433l139 140q12 12 25 12h91q12 0 16.5 -10.5t-3.5 -18.5l-149 -152l178 -191
q8 -8 3.5 -18t-16.5 -10h-109q-10 0 -16 8l-159 180v-169q0 -7 -5.5 -13t-13.5 -6h-84q-8 0 -13.5 6t-5.5 13v528q-5 7 -15 16.5t-33.5 21t-47.5 11.5q-35 0 -59.5 -22t-24.5 -66v-108h84q8 0 13.5 -5.5t5.5 -13.5v-66q0 -7 -6 -13t-13 -6h-84v-277q0 -7 -5.5 -13t-13.5 -6
h-87q-7 0 -13 6t-6 13v276h-173v-276q0 -7 -5.5 -13t-13.5 -6h-87q-7 0 -13 6t-6 13zM209 400h173v108q0 18 4 46q-30 35 -86 35q-40 0 -65.5 -26.5t-25.5 -73.5v-89z" />
    <glyph glyph-name="f_h" unicode="fh" horiz-adv-x="848" 
d="M84 19v277h-36q-8 0 -13.5 5.5t-5.5 13.5v66q0 19 19 19h36v108q0 87 55 144.5t144 57.5q38 0 73 -14t52 -28l16 -14l11 28q7 18 24 18h32q7 0 13 -6t6 -13l1 -304q44 33 106 33q89 0 134 -57.5t45 -141.5v-192q0 -7 -6 -13t-13 -6h-81q-8 0 -13.5 5.5t-5.5 13.5v191
q0 41 -21.5 65.5t-57.5 24.5q-33 0 -56 -19.5t-31 -51.5v-210q0 -19 -21 -19h-83q-7 0 -13 6t-6 13v528q-5 7 -15 16.5t-33.5 21t-47.5 11.5q-35 0 -59.5 -22t-24.5 -66v-108h84q8 0 13.5 -5.5t5.5 -13.5v-66q0 -7 -5.5 -13t-13.5 -6h-84v-277q0 -7 -6 -13t-13 -6h-87
q-7 0 -12.5 5.5t-5.5 13.5z" />
    <glyph glyph-name="f_f_b" unicode="ffb" horiz-adv-x="1127" 
d="M84 19v276h-35q-8 0 -13.5 5.5t-5.5 13.5v67q0 19 19 19h35v88q0 93 57 152.5t152 59.5q81 0 139 -46q51 56 148 56q38 0 74 -14t52 -28l17 -14l11 28q7 18 24 18h32q8 0 13.5 -6t5.5 -13v-290q49 19 85 19q85 0 144 -61t59 -149q0 -87 -55.5 -148.5t-136.5 -61.5
q-37 0 -70 15t-47 30l-14 15l-10 -31q-5 -19 -19 -19h-39q-8 0 -13.5 6t-5.5 13v528q-5 7 -15 16.5t-33.5 21t-47.5 11.5q-35 0 -59.5 -22t-24.5 -66v-108h84q8 0 13.5 -5.5t5.5 -13.5v-66q0 -7 -6 -13t-13 -6h-84v-277q0 -7 -5.5 -13t-13.5 -6h-87q-7 0 -13 6t-6 13v276
h-173v-276q0 -7 -5.5 -13t-13.5 -6h-87q-7 0 -13 6t-6 13zM209 400h173v108q0 18 4 46q-30 35 -86 35q-40 0 -65.5 -26.5t-25.5 -73.5v-89zM806 159q4 -20 26 -40.5t56 -20.5q41 0 67 29.5t26 72.5q0 42 -27.5 71t-69.5 29q-22 0 -41.5 -6t-28.5 -12l-8 -5v-118z" />
    <glyph glyph-name=".notdef" horiz-adv-x="599" 
d="M50 30v640q0 30 30 30h439q30 0 30 -30v-640q0 -30 -30 -30h-439q-30 0 -30 30zM262 314q0 -12 14 -12h36q15 0 15 13v26q0 16 16.5 32t36 28.5t36 36.5t16.5 53q0 48 -35.5 79.5t-89.5 31.5q-24 0 -46.5 -6.5t-37 -15t-25.5 -17.5t-16 -15l-5 -7q-8 -12 0 -18l22 -22
q9 -6 17 0q1 1 7.5 7t9.5 9t11.5 8.5t15.5 8.5t18 5.5t22 2.5q29 0 45 -15t16 -37q0 -21 -15.5 -39t-34 -30t-34 -32.5t-15.5 -45.5v-29zM245 156q0 -20 14.5 -34t33.5 -14q20 0 34.5 14t14.5 34t-14.5 34t-34.5 14q-19 0 -33.5 -14t-14.5 -34z" />
    <glyph glyph-name=".null" horiz-adv-x="0" 
 />
    <glyph glyph-name="nonmarkingreturn" horiz-adv-x="333" 
 />
    <glyph glyph-name="space" unicode=" " horiz-adv-x="221" 
 />
    <glyph glyph-name="exclam" unicode="!" horiz-adv-x="310" 
d="M139 272q-7 0 -12.5 5t-6.5 11l-39 279v114q0 7 5.5 13t13.5 6h110q8 0 13.5 -6t5.5 -13v-112l-39 -281q-1 -6 -6.5 -11t-12.5 -5h-32zM73 72q0 34 24 58.5t57 24.5q34 0 58.5 -24.5t24.5 -58.5t-24.5 -58t-58.5 -24q-33 0 -57 24t-24 58z" />
    <glyph glyph-name="quotedbl" unicode="&#x22;" horiz-adv-x="343" 
d="M226 501q-8 0 -13.5 5.5t-5.5 13.5v161q0 7 5.5 13t13.5 6h80q10 0 15.5 -7.5t2.5 -17.5l-41 -159q-4 -15 -18 -15h-39zM55 501q-7 0 -13 5.5t-6 13.5v161q0 7 6 13t13 6h80q10 0 15.5 -7.5t2.5 -17.5l-41 -159q-4 -15 -18 -15h-39z" />
    <glyph glyph-name="numbersign" unicode="#" horiz-adv-x="538" 
d="M104 22l23 166h-71q-8 0 -13.5 5.5t-5.5 13.5v14q0 19 19 19h78l23 164h-72q-7 0 -13 6t-6 13v14q0 7 6 13t13 6h79l32 228q1 6 6 11t12 5h14q8 0 13.5 -6.5t4.5 -15.5l-30 -222h158l33 228q1 6 6.5 11t12.5 5h12q9 0 14.5 -6.5t4.5 -15.5l-32 -222h64q8 0 13.5 -5.5
t5.5 -13.5v-14q0 -8 -5.5 -13.5t-13.5 -5.5h-71l-23 -164h65q8 0 13.5 -5.5t5.5 -13.5v-14q0 -7 -5.5 -13t-13.5 -6h-73l-22 -172q-2 -16 -19 -16h-13q-9 0 -14.5 6.5t-4.5 15.5l22 166h-159l-23 -172q-2 -16 -19 -16h-12q-10 0 -15.5 6.5t-3.5 15.5zM185 240h159l22 164
h-158z" />
    <glyph glyph-name="dollar" unicode="$" horiz-adv-x="525" 
d="M46 68q-15 15 -5 30l8.5 14.5l9.5 16.5l9 15.5t10 14t10.5 9.5t11.5 3.5t12 -4.5q62 -47 124 -62q0 33 0.5 96t0.5 96q-42 17 -71.5 32.5t-61.5 41.5t-49 63.5t-17 84.5q0 76 51 129t149 61v32q0 8 5.5 13.5t13.5 5.5h13q8 0 13.5 -5.5t5.5 -13.5v-33q94 -7 174 -65
q8 -5 9.5 -15t-3.5 -18q-3 -4 -9 -14t-10 -15.5l-10.5 -15t-10.5 -13.5t-11 -9.5t-11 -4t-10 2.5q-1 0 -18.5 11t-42.5 23.5t-47 19.5v-180q40 -17 70 -33.5t64.5 -43.5t53 -65.5t18.5 -84.5q0 -84 -54.5 -137.5t-153.5 -59.5v-104q0 -18 -20 -18q-31 0 -31 18v104
q-118 9 -190 77zM235 437v161q-36 -4 -55.5 -22.5t-19.5 -42.5q0 -56 75 -96zM289 99q33 5 54 25.5t21 49.5q0 56 -75 100v-175z" />
    <glyph glyph-name="percent" unicode="%" horiz-adv-x="662" 
d="M157 440q-56 0 -95.5 39.5t-39.5 95.5t39.5 95.5t95.5 39.5t95.5 -39.5t39.5 -95.5t-39.5 -95.5t-95.5 -39.5zM104 27l343 663q5 10 17 10h50q11 0 16.5 -8.5t0.5 -18.5l-345 -663q-5 -10 -17 -10h-48q-11 0 -16.5 8.5t-0.5 18.5zM157 526q20 0 34 14.5t14 34.5
q0 19 -14.5 33.5t-33.5 14.5q-20 0 -34.5 -14t-14.5 -34t14.5 -34.5t34.5 -14.5zM351 125q0 56 39.5 95.5t95.5 39.5t96 -39.5t40 -95.5t-40 -95.5t-96 -39.5t-95.5 39.5t-39.5 95.5zM437 125q0 -20 14.5 -34.5t34.5 -14.5t34.5 14.5t14.5 34.5q0 19 -14.5 33.5t-34.5 14.5
t-34.5 -14t-14.5 -34z" />
    <glyph glyph-name="ampersand" unicode="&#x26;" horiz-adv-x="689" 
d="M74 178q0 21 4 41t11.5 36.5t16 30.5t20.5 26.5l21 21.5t21.5 17.5l19 13t15.5 9.5l9 5v2l-21 23q-69 73 -68 144q0 63 50.5 112.5t138.5 49.5q83 0 136 -47t53 -116q0 -29 -10 -56t-27.5 -48t-32 -35t-32.5 -28t-20 -15l115 -116q25 49 36 111q3 17 10 23.5t23 1.5
l55 -16q24 -6 17 -39q-19 -79 -62 -159l89 -84q8 -8 11 -12.5t0.5 -13.5t-13.5 -20l-41 -42q-21 -20 -44 3l-72 73q-14 -16 -35.5 -32.5t-72.5 -34.5t-110 -18q-93 0 -152 55t-59 133zM308 436l8 4q7 5 11.5 7.5t13.5 9t15 12t13.5 14t12.5 17t8 19.5t3 22q0 30 -23.5 52.5
t-61.5 22.5q-34 0 -54 -19.5t-20 -48.5q0 -16 8 -33t16 -26l28 -31zM193 191q0 -41 30 -67.5t75 -26.5q77 0 129 59l-149 158l-8 -4l-12.5 -8t-13.5 -10t-15 -13.5t-13.5 -16t-12 -20t-7.5 -24t-3 -27.5z" />
    <glyph glyph-name="quotesingle" unicode="'" horiz-adv-x="172" 
d="M55 501q-7 0 -13 5.5t-6 13.5v161q0 7 6 13t13 6h80q10 0 15.5 -7.5t2.5 -17.5l-41 -159q-4 -15 -18 -15h-39z" />
    <glyph glyph-name="parenleft" unicode="(" horiz-adv-x="342" 
d="M291 -79q-48 3 -88 21.5t-78 59.5t-60 121t-22 192t22 192t60 121.5t78 59.5t88 21q8 1 13.5 -3.5t5.5 -11.5l3 -66q1 -6 -3 -11.5t-9 -6.5q-71 -19 -103 -92.5t-32 -202.5t31.5 -202t103.5 -92q14 -3 12 -19l-3 -65q-2 -16 -19 -16z" />
    <glyph glyph-name="parenright" unicode=")" horiz-adv-x="343" 
d="M29 2q-2 16 12 19q72 19 103.5 92t31.5 202t-32 202.5t-103 92.5q-5 1 -9 6.5t-3 11.5l3 66q0 7 5.5 11.5t13.5 3.5q48 -3 88 -21t78 -59.5t60 -121.5t22 -192t-22 -192t-60 -121t-78 -59.5t-88 -21.5q-17 0 -19 16z" />
    <glyph glyph-name="asterisk" unicode="*" horiz-adv-x="350" 
d="M159 370q-7 0 -13 6t-6 13l2 87l-72 -50q-6 -4 -14 -2.5t-12 7.5l-17 27q-11 16 5 27l83 50l-83 50q-15 10 -6 27q3 5 9 13.5t10 13.5t11.5 6.5t13.5 -2.5l72 -50l-2 88q0 7 6 13t13 6h32q7 0 13 -6t6 -13l-2 -88l72 51q16 10 26 -5l17 -27q11 -17 -5 -27l-83 -50l83 -51
q16 -10 6 -26l-19 -27q-9 -16 -25 -6l-72 50l2 -86q0 -7 -6 -13t-13 -6h-32z" />
    <glyph glyph-name="plus" unicode="+" horiz-adv-x="560" 
d="M233 150v149h-150q-7 0 -13 5.5t-6 13.5v56q0 8 6 13.5t13 5.5h150v151q0 7 5.5 12.5t13.5 5.5h56q8 0 13.5 -5.5t5.5 -12.5v-151h151q7 0 12.5 -5.5t5.5 -13.5v-56q0 -8 -5.5 -13.5t-12.5 -5.5h-151v-149q0 -7 -5.5 -12.5t-13.5 -5.5h-56q-8 0 -13.5 5.5t-5.5 12.5z" />
    <glyph glyph-name="comma" unicode="," horiz-adv-x="259" 
d="M36 71q0 34 25 58.5t63 24.5q39 0 70 -32t31 -99q0 -81 -36.5 -136t-77.5 -80q-14 -9 -25 2l-15 16q-12 14 4 27l5 4q6 5 10 9l10.5 10.5t12 14l12.5 16.5t12 19t9 21.5t6.5 24.5t2.5 27l-2 -1q-2 -1 -5.5 -2t-8 -2t-10.5 -2t-12 -1q-33 0 -57 24t-24 57z" />
    <glyph glyph-name="hyphen" unicode="-" horiz-adv-x="369" 
d="M73 192q-8 0 -13.5 5t-5.5 13v67q0 19 19 19h223q19 0 19 -19v-67q0 -8 -5.5 -13t-13.5 -5h-223z" />
    <glyph glyph-name="period" unicode="." horiz-adv-x="235" 
d="M35 72q0 34 24 58.5t58 24.5t58.5 -24.5t24.5 -58.5t-24.5 -58t-58.5 -24t-58 24t-24 58z" />
    <glyph glyph-name="slash" unicode="/" horiz-adv-x="353" 
d="M29 25l196 662q4 13 18 13h72q11 0 16 -7.5t2 -17.5l-195 -662q-4 -13 -18 -13h-73q-10 0 -15.5 7.5t-2.5 17.5z" />
    <glyph glyph-name="zero" unicode="0" horiz-adv-x="626" 
d="M313 -10q-120 0 -186 92.5t-66 257.5t66 257.5t186 92.5t186 -92.5t66 -257.5t-66 -257.5t-186 -92.5zM313 108q58 0 89.5 60t31.5 172q0 111 -31.5 171.5t-89.5 60.5t-89.5 -60.5t-31.5 -171.5q0 -112 31.5 -172t89.5 -60z" />
    <glyph glyph-name="one" unicode="1" horiz-adv-x="357" 
d="M141 19v479l-88 -19q-7 -2 -13 2t-7 11l-6 49q-1 12 5 18l144 121h70q7 0 12.5 -5.5t5.5 -13.5v-642q0 -8 -5.5 -13.5t-12.5 -5.5h-86q-8 0 -13.5 5.5t-5.5 13.5z" />
    <glyph glyph-name="two" unicode="2" horiz-adv-x="518" 
d="M31 19v23q95 115 259 333q51 63 51 111q0 37 -27.5 64t-78.5 27q-58 0 -112 -59q-13 -14 -27 0l-48 48q-13 13 -1 26q3 4 9 10.5t26 23.5t41.5 30t54.5 23.5t66 10.5q103 0 163 -57t60 -142q0 -31 -10 -60t-21.5 -48t-35.5 -54q-30 -42 -172 -222h216q8 0 13.5 -5.5
t5.5 -13.5v-69q0 -7 -5.5 -13t-13.5 -6h-394q-8 0 -13.5 5.5t-5.5 13.5z" />
    <glyph glyph-name="three" unicode="3" horiz-adv-x="522" 
d="M36 79q-10 12 1 25l51 49q14 12 26 0q3 -4 19 -16t46.5 -25t57.5 -13q42 0 74 27t32 67q0 41 -36.5 70t-101.5 29h-56q-19 0 -19 20v63q0 20 19 20h56q59 0 91.5 26t32.5 66t-29 66t-68 26q-60 0 -101 -48q-12 -14 -27 -1l-49 46q-14 12 0 26q3 4 9 9.5t25 21t39.5 27
t52 21t62.5 9.5q90 0 151.5 -50.5t61.5 -132.5q0 -53 -32 -95.5t-71 -60.5v-3q46 -19 83.5 -61t37.5 -102q0 -85 -63.5 -140t-166.5 -55q-133 0 -208 89z" />
    <glyph glyph-name="four" unicode="4" horiz-adv-x="597" 
d="M35 145q-8 0 -13.5 5.5t-5.5 13.5v83l360 438q6 6 15 6h54q8 0 13.5 -5.5t5.5 -13.5v-426h80q8 0 13.5 -5t5.5 -13v-62q0 -8 -5.5 -13.5t-13.5 -5.5h-80l1 -128q0 -7 -5.5 -13t-13.5 -6h-83q-7 0 -13 6t-6 13v126h-309zM148 249h200v240z" />
    <glyph glyph-name="five" unicode="5" horiz-adv-x="528" 
d="M57 73q-17 19 -2 34l50 49q13 11 24 1q6 -6 20 -16.5t46.5 -25t62.5 -14.5q50 0 83 35t33 83q0 49 -32 80.5t-89 31.5h-154q-14 0 -22.5 11t-8.5 24v295q0 8 5.5 13.5t13.5 5.5h316q8 0 13.5 -5.5t5.5 -13.5v-68q0 -8 -5.5 -13.5t-13.5 -5.5h-222v-133h86
q105 0 167 -61.5t62 -160.5q0 -95 -70 -162t-172 -67q-71 0 -121 26t-76 57z" />
    <glyph glyph-name="six" unicode="6" horiz-adv-x="539" 
d="M43 266q0 83 27 154.5t65 117t87.5 82.5t85 54t68.5 28q22 6 28 -14l23 -59q9 -21 -18 -29q-22 -7 -51 -21.5t-64.5 -38t-64.5 -59t-40 -73.5q48 28 114 28q81 0 142.5 -58t61.5 -159q0 -94 -67 -161.5t-159 -67.5q-113 0 -175.5 79t-62.5 197zM280 104q47 0 80.5 34.5
t33.5 82.5t-33.5 82.5t-81.5 34.5q-45 0 -75.5 -27t-40.5 -60q0 -57 30.5 -102t86.5 -45z" />
    <glyph glyph-name="seven" unicode="7" horiz-adv-x="484" 
d="M53 19v11l260 542h-264q-7 0 -13 6t-6 13v70q0 7 6 13t13 6h416q7 0 13 -6t6 -13v-7l-298 -627q-12 -27 -34 -27h-74q-25 0 -25 19z" />
    <glyph glyph-name="eight" unicode="8" horiz-adv-x="567" 
d="M47 182q0 56 42.5 102.5t78.5 64.5v3q-39 21 -71 61.5t-32 93.5q0 82 62 132.5t155 50.5q95 0 158 -50.5t63 -132.5q0 -51 -31.5 -91t-71.5 -63v-4q45 -23 83 -66.5t38 -100.5q0 -83 -65.5 -137.5t-173.5 -54.5q-106 0 -170.5 54.5t-64.5 137.5zM284 407q45 10 68 35.5
t23 59.5q0 36 -27 60.5t-66 24.5q-36 0 -62.5 -24.5t-26.5 -60.5q0 -73 91 -95zM180 184q0 -40 31 -66t73 -26q43 0 73.5 26t30.5 66q0 35 -28 65t-76 41q-48 -11 -76 -41t-28 -65z" />
    <glyph glyph-name="nine" unicode="9" horiz-adv-x="539" 
d="M112 57q-9 21 18 29q22 7 51 21.5t64.5 38t64.5 59t40 73.5q-48 -28 -114 -28q-81 0 -142.5 58t-61.5 159q0 94 67 161.5t159 67.5q113 0 175.5 -79t62.5 -197q0 -83 -27 -154.5t-65 -117t-87.5 -82.5t-85 -54t-68.5 -28q-22 -6 -28 14zM260 348q45 0 75.5 27t40.5 60
q0 57 -30.5 102t-86.5 45q-47 0 -80.5 -34.5t-33.5 -82.5t33.5 -82.5t81.5 -34.5z" />
    <glyph glyph-name="colon" unicode=":" horiz-adv-x="268" 
d="M134 266q-30 0 -51 21t-21 51t21 51t51 21t51 -21t21 -51t-21 -51t-51 -21zM62 62q0 30 21 51t51 21t51 -21t21 -51t-21 -51t-51 -21t-51 21t-21 51z" />
    <glyph glyph-name="semicolon" unicode=";" horiz-adv-x="247" 
d="M119 266q-30 0 -51 21t-21 51t21 51t51 21t51 -21t21 -51t-21 -51t-51 -21zM51 57q0 27 20.5 47t50.5 20q32 0 57.5 -26t25.5 -82q0 -101 -90 -181q-13 -9 -23 1l-14 15q-11 11 2 22q10 7 23 19.5t29 42t16 60.5l-4 -1q-5 -2 -12 -3t-14 -1q-28 0 -47.5 19.5t-19.5 47.5z
" />
    <glyph glyph-name="less" unicode="&#x3c;" horiz-adv-x="436" 
d="M29 210q-10 6 -10 17v5q0 11 10 17l347 212q10 6 19 1t9 -17v-70q0 -9 -9 -16l-215 -128l215 -124q9 -7 9 -16v-70q0 -12 -9 -17t-19 1z" />
    <glyph glyph-name="equal" unicode="=" horiz-adv-x="488" 
d="M81 338q-8 0 -13.5 5.5t-5.5 13.5v56q0 8 5.5 13.5t13.5 5.5h326q8 0 13.5 -5.5t5.5 -13.5v-56q0 -8 -5.5 -13.5t-13.5 -5.5h-326zM81 127q-8 0 -13.5 5.5t-5.5 13.5v57q0 8 5.5 13.5t13.5 5.5h326q8 0 13.5 -5.5t5.5 -13.5v-57q0 -8 -5.5 -13.5t-13.5 -5.5h-326z" />
    <glyph glyph-name="greater" unicode="&#x3e;" horiz-adv-x="436" 
d="M32 21v70q0 11 9 16l214 124l-214 128q-9 5 -9 16v70q0 12 9 17t19 -1l347 -212q10 -6 10 -17v-5q0 -11 -10 -17l-347 -205q-10 -6 -19 -1t-9 17z" />
    <glyph glyph-name="question" unicode="?" horiz-adv-x="449" 
d="M165 272q-8 0 -13.5 5.5t-5.5 13.5v42q0 32 21.5 61.5t48 48.5t48 43.5t21.5 47.5q0 28 -22 47.5t-58 19.5q-27 0 -47.5 -9t-40 -25.5t-20.5 -17.5q-12 -8 -22 1l-47 46q-14 12 0 26q3 4 8 9.5t24 21t40 27t54.5 21t69.5 9.5q80 0 137 -48t57 -120q0 -41 -24 -76t-52 -55
t-52 -43t-24 -42v-33q0 -21 -20 -21h-81zM123 72q0 34 24 58.5t58 24.5t58.5 -24.5t24.5 -58.5t-24.5 -58t-58.5 -24t-58 24t-24 58z" />
    <glyph glyph-name="at" unicode="@" horiz-adv-x="986" 
d="M32 223q0 214 132 350.5t344 136.5q203 0 319.5 -118t116.5 -304q0 -53 -12.5 -103t-37.5 -95t-71 -72.5t-106 -27.5q-89 0 -119 78h-8q-17 -34 -51 -56t-79 -22q-78 0 -129.5 61.5t-51.5 149.5q0 90 52 149.5t132 59.5q65 0 121 -59q2 5 5 14.5t4.5 13t4.5 9t7 7.5
t10.5 3.5t15.5 1.5h17q8 0 13.5 -5.5t5.5 -13.5v-183q0 -62 16.5 -84t45.5 -22q47 0 75 56t28 135q0 144 -85 234t-243 90q-166 0 -264.5 -103.5t-98.5 -280.5q0 -119 66 -213t175 -139q17 -8 11 -24l-24 -63q-7 -17 -22 -11q-139 51 -227 173.5t-88 276.5zM383 208
q-3 -47 23.5 -79t63.5 -32q81 0 85 109v37q-5 22 -29 44t-57 22q-36 0 -60 -28t-26 -73z" />
    <glyph glyph-name="A" unicode="A" horiz-adv-x="663" 
d="M17 0q-11 0 -16.5 8t-0.5 18l311 673q5 11 17 11h10q12 0 17 -11l308 -673q5 -10 -0.5 -18t-16.5 -8h-87q-19 0 -29 20l-49 108h-299l-49 -108q-8 -20 -29 -20h-87zM231 239h201l-100 220h-3z" />
    <glyph glyph-name="B" unicode="B" horiz-adv-x="617" 
d="M91 19v662q0 8 5.5 13.5t13.5 5.5h229q89 0 150 -53t61 -132q0 -53 -34.5 -96.5t-75.5 -62.5q49 -16 89.5 -58.5t40.5 -104.5q0 -83 -63 -138t-155 -55h-242q-8 0 -13.5 5.5t-5.5 13.5zM220 406h107q38 0 62 26t24 64t-24 61.5t-62 23.5h-107v-175zM220 118h121
q38 0 64 26t26 65q0 37 -31 62t-71 25h-109v-178z" />
    <glyph glyph-name="C" unicode="C" horiz-adv-x="684" 
d="M40 349q0 150 105.5 255.5t255.5 105.5q138 0 242 -93q15 -14 1 -28l-61 -63q-12 -13 -25 0q-67 59 -154 59q-95 0 -159 -68.5t-64 -164.5q0 -95 64.5 -163t159.5 -68q83 0 153 57q13 12 25 0l62 -64q6 -6 5.5 -13.5t-6.5 -13.5q-100 -97 -243 -97q-150 0 -255.5 104.5
t-105.5 254.5z" />
    <glyph glyph-name="D" unicode="D" horiz-adv-x="738" 
d="M91 19v662q0 8 5.5 13.5t12.5 5.5h237q145 0 248 -102.5t103 -246.5q0 -145 -103 -248t-248 -103h-237q-7 0 -12.5 5.5t-5.5 13.5zM220 122h114q97 0 161 65.5t64 163.5t-64 163t-161 65h-114v-457z" />
    <glyph glyph-name="E" unicode="E" horiz-adv-x="588" 
d="M91 19v662q0 8 5.5 13.5t13.5 5.5h407q8 0 13.5 -5.5t5.5 -13.5v-82q0 -8 -5.5 -13.5t-13.5 -5.5h-296v-164h247q8 0 13.5 -6t5.5 -13v-83q0 -8 -5.5 -13.5t-13.5 -5.5h-247v-175h296q8 0 13.5 -5.5t5.5 -13.5v-82q0 -8 -5.5 -13.5t-13.5 -5.5h-407q-8 0 -13.5 5.5
t-5.5 13.5z" />
    <glyph glyph-name="F" unicode="F" horiz-adv-x="564" 
d="M91 19v662q0 8 5.5 13.5t13.5 5.5h407q8 0 13.5 -5.5t5.5 -13.5v-82q0 -8 -5.5 -13.5t-13.5 -5.5h-296v-188h247q8 0 13.5 -6t5.5 -13v-82q0 -7 -5.5 -13t-13.5 -6h-247v-253q0 -7 -5.5 -13t-13.5 -6h-92q-8 0 -13.5 5.5t-5.5 13.5z" />
    <glyph glyph-name="G" unicode="G" horiz-adv-x="712" 
d="M41 349q0 150 105 255.5t254 105.5q135 0 244 -93q14 -15 1 -28l-62 -65q-12 -12 -26 0q-66 58 -151 58q-93 0 -158.5 -68.5t-65.5 -163.5q0 -94 65.5 -161.5t159.5 -67.5q57 0 119 25v85h-80q-8 0 -13.5 5t-5.5 13v79q0 19 19 19h192q7 0 12.5 -5.5t5.5 -13.5v-256
q0 -10 -8 -16q-12 -7 -33 -18t-86 -29t-129 -18q-150 0 -254.5 104t-104.5 254z" />
    <glyph glyph-name="H" unicode="H" horiz-adv-x="769" 
d="M91 19v662q0 7 5.5 13t13.5 6h93q8 0 13.5 -5.5t5.5 -13.5v-265h326v265q0 8 5.5 13.5t13.5 5.5h92q7 0 13 -6t6 -13v-662q0 -7 -6 -13t-13 -6h-92q-8 0 -13.5 5.5t-5.5 13.5v276h-326v-276q0 -8 -5.5 -13.5t-13.5 -5.5h-93q-8 0 -13.5 6t-5.5 13z" />
    <glyph glyph-name="I" unicode="I" horiz-adv-x="313" 
d="M91 19v662q0 7 5.5 13t13.5 6h93q7 0 13 -6t6 -13v-662q0 -7 -6 -13t-13 -6h-93q-8 0 -13.5 6t-5.5 13z" />
    <glyph glyph-name="J" unicode="J" horiz-adv-x="418" 
d="M-16 63q-8 13 2 25l52 53q15 14 30 -1q30 -32 66 -32q32 0 56 26.5t24 74.5v472q0 8 5.5 13.5t13.5 5.5h94q8 0 13.5 -5.5t5.5 -13.5v-472q0 -101 -59.5 -160t-150.5 -59q-93 0 -152 73z" />
    <glyph glyph-name="K" unicode="K" horiz-adv-x="655" 
d="M91 24v652q0 10 7 17t17 7h88q10 0 17 -7t7 -17v-270l252 284q8 10 19 10h100q14 0 20 -12.5t-4 -23.5l-261 -294l280 -335q8 -10 2 -22.5t-20 -12.5h-109q-13 0 -18 7l-261 322v-305q0 -10 -7 -17t-17 -7h-88q-10 0 -17 7t-7 17z" />
    <glyph glyph-name="L" unicode="L" horiz-adv-x="505" 
d="M91 19v662q0 8 5.5 13.5t13.5 5.5h92q8 0 13.5 -6t5.5 -13v-561h255q8 0 13.5 -5.5t5.5 -13.5v-82q0 -8 -5.5 -13.5t-13.5 -5.5h-366q-8 0 -13.5 5.5t-5.5 13.5z" />
    <glyph glyph-name="M" unicode="M" horiz-adv-x="873" 
d="M45 23l119 672q2 15 18 15h16q12 0 17 -10l220 -472h3l220 472q5 10 17 10h16q16 0 18 -15l118 -672q2 -10 -3 -16.5t-15 -6.5h-91q-15 0 -19 15l-59 379h-3l-175 -393q-4 -11 -17 -11h-18q-11 0 -17 11l-177 393h-3l-58 -379q-1 -6 -6.5 -10.5t-11.5 -4.5h-90
q-22 0 -19 23z" />
    <glyph glyph-name="N" unicode="N" horiz-adv-x="773" 
d="M91 19v673q0 7 5.5 12.5t13.5 5.5h25l416 -442h1v413q0 8 5.5 13.5t13.5 5.5h92q7 0 13 -6t6 -13v-673q0 -7 -5.5 -12.5t-13.5 -5.5h-24l-418 459h-1v-430q0 -8 -5.5 -13.5t-13.5 -5.5h-91q-8 0 -13.5 6t-5.5 13z" />
    <glyph glyph-name="O" unicode="O" horiz-adv-x="800" 
d="M41 349q0 150 104.5 255.5t254.5 105.5t255 -105.5t105 -255.5t-105 -254.5t-255 -104.5t-254.5 104.5t-104.5 254.5zM171 349q0 -95 67.5 -162t161.5 -67q95 0 162.5 67.5t67.5 161.5q0 95 -68 163t-162 68t-161.5 -68t-67.5 -163z" />
    <glyph glyph-name="P" unicode="P" horiz-adv-x="592" 
d="M91 19v662q0 8 5.5 13.5t13.5 5.5h235q92 0 158 -65t66 -156q0 -93 -65.5 -159t-157.5 -66h-125v-235q0 -7 -5.5 -13t-13.5 -6h-92q-8 0 -13.5 5.5t-5.5 13.5zM221 376h116q42 0 72.5 30t30.5 74q0 41 -30.5 69t-72.5 28h-116v-201z" />
    <glyph glyph-name="Q" unicode="Q" horiz-adv-x="801" 
d="M41 349q0 150 104.5 255.5t254.5 105.5t255 -105.5t105 -255.5q0 -100 -53 -185.5t-142 -134.5l125 -197q7 -10 1.5 -20t-17.5 -10h-106q-11 0 -16 10l-107 181q-24 -3 -45 -3q-150 0 -254.5 104.5t-104.5 254.5zM171 349q0 -95 67.5 -162t161.5 -67q95 0 162.5 67.5
t67.5 161.5q0 95 -68 163t-162 68t-161.5 -68t-67.5 -163z" />
    <glyph glyph-name="R" unicode="R" horiz-adv-x="666" 
d="M91 19v662q0 8 5.5 13.5t13.5 5.5h286q90 0 154 -63t64 -152q0 -68 -40.5 -121.5t-107.5 -80.5l137 -254q6 -10 0.5 -19.5t-17.5 -9.5h-105q-11 0 -16 9l-133 265h-111v-255q0 -7 -5.5 -13t-13.5 -6h-92q-8 0 -13.5 5.5t-5.5 13.5zM222 381h163q40 0 69.5 30t29.5 72
q0 40 -29.5 68.5t-69.5 28.5h-163v-199z" />
    <glyph glyph-name="S" unicode="S" horiz-adv-x="542" 
d="M55 68q-14 14 -5 30l36 62q6 10 17 11.5t17 -4.5l5 -3q5 -4 11.5 -8l16.5 -10l20 -11.5t23 -11t25 -9.5t25 -6.5t25 -2.5q39 0 65 22.5t26 54.5q0 37 -31 65.5t-96 54.5q-84 34 -136 85t-52 131q0 76 57.5 134t167.5 58q111 0 200 -67q7 -4 9 -15t-3 -18l-38 -57
q-16 -24 -35 -12q-88 55 -139 55q-40 0 -64 -22t-24 -48q0 -35 28 -61t90 -51q43 -17 74.5 -34.5t65 -44t51.5 -64t18 -83.5q0 -81 -64 -139.5t-166 -58.5q-57 0 -108.5 17t-73.5 31.5t-38 29.5z" />
    <glyph glyph-name="T" unicode="T" horiz-adv-x="501" 
d="M185 19v561h-153q-8 0 -13.5 5.5t-5.5 13.5v82q0 8 5.5 13.5t13.5 5.5h437q8 0 13.5 -5.5t5.5 -13.5v-82q0 -8 -5.5 -13.5t-13.5 -5.5h-153v-561q0 -7 -6 -13t-13 -6h-93q-8 0 -13.5 6t-5.5 13z" />
    <glyph glyph-name="U" unicode="U" horiz-adv-x="719" 
d="M81 265v416q0 7 5.5 13t13.5 6h95q8 0 13.5 -5.5t5.5 -13.5v-409q0 -65 40.5 -108.5t104.5 -43.5t105 43.5t41 107.5v410q0 8 5.5 13.5t13.5 5.5h95q7 0 13 -6t6 -13v-416q0 -115 -80.5 -195t-198.5 -80q-117 0 -197.5 80t-80.5 195z" />
    <glyph glyph-name="V" unicode="V" horiz-adv-x="663" 
d="M309 1l-309 673q-5 10 0.5 18t16.5 8h102q13 0 17 -11l192 -430h7l192 430q4 11 17 11h102q11 0 16.5 -8t0.5 -18l-310 -673q-5 -11 -17 -11h-10q-12 0 -17 11z" />
    <glyph glyph-name="W" unicode="W" horiz-adv-x="899" 
d="M218 4l-189 672q-3 10 2 17t16 7h92q14 0 18 -14l104 -399h4l159 412q4 11 17 11h18q13 0 17 -11l160 -412h4l102 399q4 14 18 14h92q11 0 16 -7t2 -17l-189 -672q-3 -14 -18 -14h-16q-13 0 -17 11l-179 453h-5l-177 -453q-5 -11 -17 -11h-16q-14 0 -18 14z" />
    <glyph glyph-name="X" unicode="X" horiz-adv-x="632" 
d="M30 28l208 331l-200 313q-6 10 -1 19t18 9h116q9 0 16 -9l128 -212h1l130 212q4 9 16 9h116q13 0 18 -9t-1 -19l-201 -313l208 -331q6 -10 1 -19t-18 -9h-108q-13 0 -17 9l-143 229h-3l-141 -229q-7 -9 -17 -9h-108q-13 0 -18.5 9t0.5 19z" />
    <glyph glyph-name="Y" unicode="Y" horiz-adv-x="583" 
d="M225 19v318l-228 334q-6 10 -1 19.5t17 9.5h102q9 0 16 -9l160 -230l160 230q7 9 16 9h103q12 0 17 -9.5t-1 -19.5l-231 -333v-319q0 -7 -5.5 -13t-13.5 -6h-92q-8 0 -13.5 5.5t-5.5 13.5z" />
    <glyph glyph-name="Z" unicode="Z" horiz-adv-x="538" 
d="M25 19v18l298 538v4h-250q-7 0 -13 5.5t-6 13.5v83q0 7 6 13t13 6h418q7 0 13 -6t6 -13v-13l-294 -545v-2h255q8 0 13.5 -5.5t5.5 -13.5v-83q0 -8 -5.5 -13.5t-13.5 -5.5h-427q-8 0 -13.5 6t-5.5 13z" />
    <glyph glyph-name="bracketleft" unicode="[" horiz-adv-x="349" 
d="M181 -200h130q8 0 13.5 -5.5t5.5 -12.5v-63q0 -7 -6 -13t-13 -6h-226q-7 0 -13 6t-6 13v962q0 7 6 13t13 6h226q7 0 13 -6t6 -13v-62q0 -8 -5.5 -13.5t-13.5 -5.5h-130v-800z" />
    <glyph glyph-name="backslash" unicode="\" horiz-adv-x="357" 
d="M215 13l-195 662q-3 10 2 17.5t16 7.5h76q14 0 18 -13l196 -662q3 -10 -2.5 -17.5t-15.5 -7.5h-77q-14 0 -18 13z" />
    <glyph glyph-name="bracketright" unicode="]" horiz-adv-x="349" 
d="M38 -200h130v800h-130q-8 0 -13.5 5.5t-5.5 13.5v62q0 7 5.5 13t13.5 6h226q8 0 13.5 -6t5.5 -13v-962q0 -7 -5.5 -13t-13.5 -6h-226q-8 0 -13.5 6t-5.5 13v63q0 7 5.5 12.5t13.5 5.5z" />
    <glyph glyph-name="asciicircum" unicode="^" horiz-adv-x="524" 
d="M53 385q-12 0 -17 9t1 19l208 291q6 10 17 10h5q11 0 17 -10l203 -291q6 -10 1 -19t-17 -9h-69q-9 0 -16 9l-123 169l-125 -169q-7 -9 -16 -9h-69z" />
    <glyph glyph-name="underscore" unicode="_" horiz-adv-x="415" 
d="M19 -29q0 19 19 19h339q19 0 19 -19v-39q0 -8 -5.5 -13t-13.5 -5h-339q-8 0 -13.5 5t-5.5 13v39z" />
    <glyph glyph-name="grave" unicode="`" horiz-adv-x="302" 
d="M234 528l-175 77q-16 8 -6 27l28 51q8 15 26 3l164 -97q12 -6 6 -19l-18 -36q-6 -14 -25 -6z" />
    <glyph glyph-name="a" unicode="a" horiz-adv-x="427" 
d="M31 127q0 55 43 90.5t117 35.5q18 0 36 -2.5t27 -5.5l10 -3q1 38 -11.5 53.5t-40.5 15.5q-63 0 -112 -15q-19 -6 -23 18l-9 52q-4 19 14 25q6 2 24 6t50.5 8.5t61.5 4.5q89 0 121.5 -42.5t32.5 -131.5v-217q0 -7 -6 -13t-13 -6h-36q-11 0 -17 14l-12 27q-56 -51 -122 -51
q-61 0 -98 37t-37 100zM141 127q0 -23 14.5 -37.5t37.5 -14.5q22 0 42.5 14t26.5 25v55q-27 12 -56 12t-47 -15t-18 -39z" />
    <glyph glyph-name="b" unicode="b" 
d="M60 19v662q0 7 6 13t13 6h85q8 0 13.5 -6t5.5 -13v-289q46 18 89 18q88 0 143 -60.5t55 -149.5q0 -87 -55.5 -148.5t-136.5 -61.5q-37 0 -70 15t-47 30l-14 15l-10 -31q-5 -19 -19 -19h-39q-7 0 -13 6t-6 13zM179 163q7 -24 28 -44.5t56 -20.5q39 0 65 29.5t26 72.5
t-27.5 72.5t-69.5 29.5q-22 0 -41.5 -6t-27.5 -12l-9 -5v-116z" />
    <glyph glyph-name="c" unicode="c" horiz-adv-x="426" 
d="M29 200q0 87 64 148.5t149 61.5q89 0 148 -71q12 -16 -5 -28l-46 -44q-11 -9 -25 3q-28 32 -69 32q-40 0 -69 -30t-29 -72q0 -43 28 -72.5t69 -29.5q20 0 37 7t23 12t20 19q12 12 25 3l43 -37q17 -14 7 -28q-54 -84 -158 -84q-86 0 -149 60.5t-63 149.5z" />
    <glyph glyph-name="d" unicode="d" 
d="M30 200q0 89 55 149.5t143 60.5q43 0 89 -18v289q0 7 5.5 13t13.5 6h85q7 0 13 -6t6 -13v-662q0 -7 -6 -13t-13 -6h-39q-14 0 -19 19l-10 31q-5 -7 -15.5 -17t-44.5 -26.5t-71 -16.5q-81 0 -136.5 61.5t-55.5 148.5zM146 200q0 -43 26 -72.5t65 -29.5q35 0 56 20.5
t28 44.5v116q-28 23 -78 23q-42 0 -69.5 -29.5t-27.5 -72.5z" />
    <glyph glyph-name="e" unicode="e" horiz-adv-x="445" 
d="M30 200q0 86 58 148t146 62q78 0 132.5 -53t54.5 -133q0 -13 -2 -27q-2 -17 -19 -17h-256q2 -34 28.5 -60.5t67.5 -26.5q43 0 78 25q17 10 26 0l41 -47q14 -14 -1 -26q-59 -55 -149 -55q-89 0 -147 61t-58 149zM153 250h151q-2 28 -23.5 48t-49.5 20q-30 0 -52 -19.5
t-26 -48.5z" />
    <glyph glyph-name="f" unicode="f" horiz-adv-x="344" 
d="M84 19v276h-34q-8 0 -13.5 5.5t-5.5 13.5v67q0 19 19 19h34v108q0 96 52 149t135 53q36 0 69 -12.5t49 -26.5q12 -10 4 -23l-34 -64q-7 -14 -24 -5q-32 20 -59 20q-32 0 -49.5 -23.5t-17.5 -67.5v-108h100q19 0 19 -19v-67q0 -8 -5.5 -13.5t-13.5 -5.5h-100v-276
q0 -7 -5.5 -13t-13.5 -6h-87q-7 0 -13 6t-6 13z" />
    <glyph glyph-name="g" unicode="g" horiz-adv-x="462" 
d="M18 30q0 22 7.5 41.5t19 32t22.5 21.5t19 13l7 4q-30 34 -30 94q0 71 50.5 122.5t123.5 51.5h182q19 0 19 -19v-33q0 -14 -11 -17l-56 -18q4 -3 11 -10.5t18 -33.5t11 -58q0 -62 -47.5 -109.5t-123.5 -47.5q-22 0 -48.5 4t-31.5 4q-12 0 -24.5 -10.5t-12.5 -27.5
q0 -15 11.5 -24.5t28.5 -9.5h128q71 0 118 -38t47 -102q0 -73 -57.5 -121.5t-161.5 -48.5q-102 0 -153 41t-51 96q0 59 60 95v3q-13 4 -27.5 13t-31 34t-16.5 58zM170 231q0 -31 20 -51.5t50 -20.5q31 0 50 20t19 52t-19 52t-50 20q-30 0 -50 -20.5t-20 -51.5zM148 -151
q0 -26 24 -42.5t64 -16.5q42 0 67.5 17.5t25.5 45.5q0 18 -17 33.5t-56 15.5q-37 0 -65 -4q-43 -14 -43 -49z" />
    <glyph glyph-name="h" unicode="h" horiz-adv-x="520" 
d="M60 19v662q0 7 6 13t13 6h85q8 0 13.5 -6t5.5 -13v-304q44 33 106 33q89 0 134 -57.5t45 -141.5v-192q0 -7 -6 -13t-13 -6h-81q-8 0 -13.5 5.5t-5.5 13.5v193q0 41 -21.5 65.5t-57.5 24.5q-33 0 -56 -19.5t-31 -51.5v-212q0 -19 -21 -19h-83q-7 0 -13 6t-6 13z" />
    <glyph glyph-name="i" unicode="i" horiz-adv-x="241" 
d="M119 542q-28 0 -48 20t-20 49t20 49t48 20q29 0 49.5 -20t20.5 -49t-20.5 -49t-49.5 -20zM60 19v362q0 8 5.5 13.5t13.5 5.5h83q8 0 13.5 -5.5t5.5 -13.5v-362q0 -7 -5.5 -13t-13.5 -6h-83q-7 0 -13 6t-6 13z" />
    <glyph glyph-name="j" unicode="j" horiz-adv-x="242" 
d="M120 542q-28 0 -48 20t-20 49t20 49t48 20q29 0 49.5 -20t20.5 -49t-20.5 -49t-49.5 -20zM60 -108v489q0 8 5.5 13.5t13.5 5.5h84q8 0 13.5 -5.5t5.5 -13.5v-489q0 -96 -52 -149t-134 -53q-36 0 -69.5 12.5t-48.5 26.5q-12 9 -4 23l33 64q7 14 24 5q32 -20 59 -20
q34 0 52 23.5t18 67.5z" />
    <glyph glyph-name="k" unicode="k" horiz-adv-x="489" 
d="M60 19v662q0 7 6 13t13 6h85q8 0 13.5 -6t5.5 -13v-433l138 140q14 12 25 12h91q12 0 16.5 -10.5t-3.5 -18.5l-149 -152l178 -191q8 -8 3.5 -18t-16.5 -10h-108q-11 0 -17 8l-158 180v-169q0 -7 -5.5 -13t-13.5 -6h-85q-7 0 -13 6t-6 13z" />
    <glyph glyph-name="l" unicode="l" horiz-adv-x="242" 
d="M60 19v662q0 7 6 13t13 6h84q7 0 13 -6t6 -13v-662q0 -7 -6 -13t-13 -6h-84q-7 0 -13 6t-6 13z" />
    <glyph glyph-name="m" unicode="m" horiz-adv-x="779" 
d="M60 19v362q0 8 5.5 13.5t13.5 5.5h37q13 0 17 -11l14 -38q53 59 134 59q79 0 130 -62q59 62 141 62q90 0 132.5 -56.5t42.5 -143.5v-191q0 -8 -5.5 -13.5t-13.5 -5.5h-81q-8 0 -13.5 5.5t-5.5 13.5v198q0 40 -19 62.5t-56 22.5q-26 0 -47 -10.5t-29 -21.5l-8 -10
q1 -20 1 -38v-203q0 -7 -6 -13t-13 -6h-75q-8 0 -13.5 5.5t-5.5 13.5v198q0 85 -74 85q-61 0 -84 -63v-220q0 -7 -5.5 -13t-13.5 -6h-81q-7 0 -13 6t-6 13z" />
    <glyph glyph-name="n" unicode="n" horiz-adv-x="519" 
d="M60 19v362q0 8 5.5 13.5t13.5 5.5h38q12 0 17 -12l14 -37q55 59 141 59q90 0 134 -57t44 -142v-192q0 -7 -5.5 -13t-13.5 -6h-82q-8 0 -13.5 5.5t-5.5 13.5v198q0 39 -19.5 62t-55.5 23t-60.5 -19.5t-33.5 -43.5v-220q0 -19 -25 -19h-74q-7 0 -13 6t-6 13z" />
    <glyph glyph-name="o" unicode="o" horiz-adv-x="468" 
d="M29 201q0 85 60.5 147t144.5 62t144.5 -62t60.5 -147q0 -86 -60 -148.5t-145 -62.5t-145 62.5t-60 148.5zM138 201q0 -43 28 -73t68 -30t68 30t28 73q0 42 -28 71.5t-68 29.5t-68 -29.5t-28 -71.5z" />
    <glyph glyph-name="p" unicode="p" 
d="M183 12v-293q0 -19 -24 -19h-80q-7 0 -13 6t-6 13v662q0 8 5.5 13.5t13.5 5.5h39q12 0 17 -12l13 -33q14 19 49.5 37t79.5 18q82 0 137.5 -61.5t55.5 -148.5q0 -88 -58 -149t-140 -61q-50 0 -89 22zM178 121q28 -23 78 -23q42 0 69.5 29.5t27.5 72.5t-26 72.5t-67 29.5
q-34 0 -55 -20t-27 -41v-120z" />
    <glyph glyph-name="q" unicode="q" 
d="M30 200q0 87 55.5 148.5t137.5 61.5q44 0 79.5 -18t49.5 -37l13 33q5 12 17 12h39q8 0 13.5 -5.5t5.5 -13.5v-662q0 -7 -6 -13t-13 -6h-80q-24 0 -24 19v293q-39 -22 -89 -22q-82 0 -140 61t-58 149zM147 198q0 -42 27.5 -71t69.5 -29q22 0 41.5 6t28.5 12l8 5v120
q-6 21 -27 41t-55 20q-40 0 -66.5 -30.5t-26.5 -73.5z" />
    <glyph glyph-name="r" unicode="r" horiz-adv-x="341" 
d="M60 19v362q0 8 5.5 13.5t13.5 5.5h38q13 0 18 -13l14 -39q43 62 113 62q38 0 62 -11t15 -29l-37 -65q-9 -16 -23 -9q-18 6 -29 6q-27 0 -45.5 -13.5t-25.5 -27.5v-242q0 -19 -23 -19h-77q-7 0 -13 6t-6 13z" />
    <glyph glyph-name="s" unicode="s" horiz-adv-x="364" 
d="M44 27q-12 10 -6 21l27 54q6 16 23 7q45 -24 91 -24q34 0 34 25q0 14 -14 24t-53 26q-113 44 -113 132q0 50 37.5 84t109.5 34q76 0 123 -31q17 -11 9 -27l-25 -51q-7 -13 -24 -7q-45 21 -83 21q-34 0 -34 -23q0 -12 9.5 -18t38.5 -18q5 -2 7 -3q67 -26 101 -56.5
t34 -84.5q0 -52 -43 -87t-116 -35q-84 0 -133 37z" />
    <glyph glyph-name="t" unicode="t" horiz-adv-x="345" 
d="M81 119v176h-34q-7 0 -12.5 5.5t-5.5 13.5v67q0 8 5 13.5t13 5.5h34v111q0 7 5.5 13t13.5 6l82 1q7 0 12.5 -5.5t5.5 -13.5v-112h88q19 0 19 -19v-67q0 -8 -5.5 -13.5t-13.5 -5.5h-88v-160q0 -32 31 -32q19 0 49 11q17 6 22 -11l20 -63q7 -17 -11 -24q-4 -2 -21.5 -8
t-46.5 -12t-51 -6q-111 0 -111 129z" />
    <glyph glyph-name="u" unicode="u" horiz-adv-x="503" 
d="M53 187v194q0 8 5.5 13.5t13.5 5.5h82q8 0 13.5 -5.5t5.5 -13.5v-197q0 -40 19.5 -63t53.5 -23q30 0 52.5 23t27.5 52v208q0 11 5 15t17 4h76q8 0 13.5 -5.5t5.5 -13.5v-362q0 -7 -5.5 -13t-13.5 -6h-37q-13 0 -19 15l-12 33q-1 -1 -7.5 -7l-10 -9t-12 -9t-15 -10t-17 -9
t-21 -7.5t-24 -4.5t-27.5 -2q-87 0 -128 56t-41 141z" />
    <glyph glyph-name="v" unicode="v" horiz-adv-x="418" 
d="M189 0l-182 376q-5 10 -1 17t15 7h87q12 0 18 -11l81 -186h2l86 186q5 11 24 11h78q11 0 15 -7t-1 -17l-183 -376q-6 -10 -17 -10h-5q-11 0 -17 10z" />
    <glyph glyph-name="w" unicode="w" horiz-adv-x="616" 
d="M143 1l-125 376q-4 10 1 16.5t16 6.5h72q15 0 18 -12l60 -179h1l102 192q4 9 16 9h8q11 0 16 -9l101 -192h1l60 179q4 12 23 12h65q11 0 16.5 -6.5t1.5 -16.5l-125 -376q-4 -11 -18 -11h-4q-11 0 -16 9l-126 233h-1l-125 -233q-5 -9 -16 -9h-5q-13 0 -17 11z" />
    <glyph glyph-name="x" unicode="x" horiz-adv-x="451" 
d="M36 0q-12 0 -15.5 9.5t3.5 19.5l130 175l-126 167q-8 10 -3 19.5t18 9.5h83q23 0 33 -14l65 -94h1l66 94q10 14 30 14h90q12 0 16 -9.5t-4 -19.5l-126 -166l127 -176q7 -10 3.5 -19.5t-15.5 -9.5h-88q-17 0 -28 16l-71 100h-1l-76 -108q-6 -8 -16 -8h-96z" />
    <glyph glyph-name="y" unicode="y" horiz-adv-x="463" 
d="M171 28l-163 346q-5 10 0.5 18t16.5 8h90q11 0 17 -11l101 -226h1l100 226q6 11 24 11h80q12 0 17 -8t0 -18l-306 -662q-6 -12 -17 -12h-86q-11 0 -16.5 8.5t-0.5 18.5z" />
    <glyph glyph-name="z" unicode="z" horiz-adv-x="366" 
d="M30 19v10l142 262v2h-114q-7 0 -12.5 5.5t-5.5 13.5v69q0 8 5 13.5t13 5.5h264q11 0 17 -8.5t0 -18.5l-145 -264v-3h108q19 0 19 -19v-68q0 -8 -5.5 -13.5t-13.5 -5.5h-253q-7 0 -13 6t-6 13z" />
    <glyph glyph-name="braceleft" unicode="{" horiz-adv-x="394" 
d="M103 -36v123q0 30 -22.5 47t-46.5 21q-15 2 -15 18v49q0 13 14 17q8 2 22.5 9t31 24t16.5 36v127q0 78 23.5 134.5t63 85t78.5 41t83 14.5q18 2 20 -17l4 -63q1 -16 -14 -18q-61 -13 -97.5 -58t-36.5 -119v-105q0 -30 -11 -55.5t-27.5 -41t-27 -23t-17.5 -10.5v-4
q83 -34 83 -125v-107q0 -74 36.5 -118t97.5 -57q15 -4 14 -19l-4 -63q-1 -8 -7 -13t-13 -4q-44 2 -83 14.5t-78.5 41t-63 84.5t-23.5 134z" />
    <glyph glyph-name="bar" unicode="|" horiz-adv-x="180" 
d="M65 -282v1023q0 8 5.5 13.5t13.5 5.5h13q8 0 13 -5.5t5 -13.5v-1023q0 -7 -5.5 -12.5t-13.5 -5.5h-12q-8 0 -13.5 5.5t-5.5 12.5z" />
    <glyph glyph-name="braceright" unicode="}" horiz-adv-x="394" 
d="M167 -36v107q0 91 83 125v4q-7 3 -17.5 10.5t-27 23t-27.5 41t-11 55.5v105q0 74 -36.5 119t-97.5 58q-15 2 -14 18l4 63q2 19 20 17q44 -2 83 -14.5t78.5 -41t63 -85t23.5 -134.5v-127q0 -27 26.5 -46t43.5 -23q14 -4 14 -17v-49q0 -16 -15 -18q-24 -4 -46.5 -21
t-22.5 -47v-123q0 -78 -23.5 -134t-63 -84.5t-78.5 -41t-83 -14.5q-7 -1 -13 4t-7 13l-4 63q-1 15 14 19q61 13 97.5 57t36.5 118z" />
    <glyph glyph-name="asciitilde" unicode="~" horiz-adv-x="533" 
d="M78 194l-45 44q-11 13 -2 24q3 4 8.5 10.5t22 24t33 30.5t40.5 23.5t46 10.5q41 0 101 -41q49 -32 73 -32q40 0 74 52q13 16 29 2l42 -44q13 -11 2 -24l-8 -10.5t-21.5 -23.5t-33 -30t-39.5 -23.5t-45 -10.5q-8 0 -15 0.5t-14.5 2.5l-13 3.5t-13 5t-11.5 5t-12 6.5
t-10 6.5t-11 7t-10 6.5q-41 28 -65 28q-41 0 -74 -51q-5 -8 -13.5 -8.5t-14.5 6.5z" />
    <glyph glyph-name="uni00A0" unicode="&#xa0;" horiz-adv-x="221" 
 />
    <glyph glyph-name="exclamdown" unicode="&#xa1;" horiz-adv-x="266" 
d="M134 245q-34 0 -58.5 24.5t-24.5 58.5t24.5 58t58.5 24q33 0 57 -24t24 -58t-24 -58.5t-57 -24.5zM98 112q1 6 6.5 11t12.5 5h32q7 0 12.5 -5t6.5 -11l39 -279v-114q0 -7 -5.5 -13t-13.5 -6h-110q-8 0 -13.5 6t-5.5 13v112z" />
    <glyph glyph-name="cent" unicode="&#xa2;" horiz-adv-x="412" 
d="M154 4q-60 23 -97.5 76t-37.5 120q0 87 64 148.5t149 61.5q11 0 31 -2l11 41q5 18 23 13l12 -3q18 -4 13 -23l-12 -42q38 -17 70 -55q12 -16 -5 -28l-46 -44q-11 -9 -25 3q-8 9 -22 18l-51 -189q21 0 38.5 6.5t24.5 12t20 18.5q12 12 25 3l43 -37q17 -14 7 -28
q-54 -84 -158 -84q-11 0 -29 2l-26 -96q-1 -7 -8 -11t-15 -2l-11 3q-18 4 -14 22zM183 113l51 188q-40 -1 -68.5 -30.5t-28.5 -70.5q0 -57 46 -87z" />
    <glyph glyph-name="sterling" unicode="&#xa3;" horiz-adv-x="485" 
d="M66 19v18q62 117 37 254h-43q-7 0 -12.5 5.5t-5.5 13.5v13q0 8 5.5 13.5t12.5 5.5h31q-2 9 -9 34t-10.5 40.5t-7 38.5t-3.5 43q0 97 60.5 154.5t151.5 57.5q42 0 81 -15t54 -26t36 -30q15 -11 2 -26l-49 -59q-11 -15 -27 -3q-52 46 -96 46q-36 0 -62 -26t-26 -68
q0 -29 17.5 -88t20.5 -73h116q8 0 13.5 -5.5t5.5 -13.5v-14q0 -8 -5.5 -13t-13.5 -5h-106q12 -96 -14 -180h196q8 0 13 -5.5t5 -13.5v-73q0 -8 -5.5 -13.5t-12.5 -5.5h-331q-7 0 -13 6t-6 13z" />
    <glyph glyph-name="currency" unicode="&#xa4;" horiz-adv-x="456" 
d="M96 161l-39 40q-13 13 0 27l48 48q-26 57 1 112l-48 48q-5 5 -5 13.5t5 13.5l40 39q5 5 13.5 5t13.5 -5l47 -47q56 27 112 0l47 47q13 13 27 0l39 -40q13 -14 1 -26l-47 -47q26 -58 1 -114l47 -47q13 -13 0 -27l-40 -39q-5 -5 -13 -5.5t-13 4.5l-48 48q-57 -27 -114 0
l-48 -48q-13 -13 -27 0zM227 281q22 0 37 14.5t15 36.5t-14.5 37t-37.5 15q-22 0 -36.5 -15t-14.5 -37t14.5 -36.5t36.5 -14.5z" />
    <glyph glyph-name="yen" unicode="&#xa5;" horiz-adv-x="633" 
d="M139 120q-7 0 -12.5 5.5t-5.5 13.5v13q0 8 5.5 13.5t12.5 5.5h111v69h-111q-7 0 -12.5 5.5t-5.5 13.5v13q0 8 5.5 13.5t12.5 5.5h111v46l-228 334q-6 10 -1 19.5t17 9.5h103q9 0 16 -9l160 -230l160 230q7 9 16 9h102q12 0 17 -9.5t-1 -19.5l-231 -333v-47h109
q8 0 13.5 -5.5t5.5 -13.5v-14q0 -8 -5.5 -13t-13.5 -5h-109v-69h109q8 0 13.5 -5.5t5.5 -13.5v-14q0 -8 -5.5 -13t-13.5 -5h-109v-101q0 -7 -6 -13t-13 -6h-92q-8 0 -13.5 5.5t-5.5 13.5v101h-111z" />
    <glyph glyph-name="brokenbar" unicode="&#xa6;" horiz-adv-x="315" 
d="M151 392q-8 0 -13.5 5.5t-5.5 12.5v331q0 8 5.5 13.5t13.5 5.5h13q8 0 13 -5.5t5 -13.5v-331q0 -7 -5.5 -12.5t-13.5 -5.5h-12zM132 49q0 8 5.5 13.5t13.5 5.5h13q8 0 13 -5.5t5 -13.5v-331q0 -7 -5.5 -12.5t-13.5 -5.5h-12q-8 0 -13.5 5.5t-5.5 12.5v331z" />
    <glyph glyph-name="section" unicode="&#xa7;" horiz-adv-x="512" 
d="M71 -88q14 23 35 8l16 -10q16 -10 34.5 -20t45 -19t48.5 -9q34 0 59.5 17.5t25.5 50.5q0 66 -120 117q-180 74 -180 204q0 76 72 136q-72 66 -72 142q0 73 54.5 127t160.5 54q102 0 191 -64q7 -4 9.5 -13.5t-2.5 -17.5l-41 -59q-12 -19 -33 -5q-72 50 -129 50
q-40 0 -63 -19.5t-23 -44.5q0 -32 27 -56.5t86 -48.5q43 -17 73 -33t62.5 -41t49.5 -59.5t17 -76.5q0 -74 -73 -139q73 -67 73 -146q0 -76 -61 -131t-159 -55q-130 0 -209 74q-17 17 -5 34zM155 260q0 -26 17 -46t42 -34t67 -33l21 -9l11 8.5t18 26.5t11 45q0 70 -151 117
q-36 -36 -36 -75z" />
    <glyph glyph-name="dieresis" unicode="&#xa8;" horiz-adv-x="414" 
d="M313 551q-26 0 -44.5 19t-18.5 45t18.5 44.5t44.5 18.5t45 -18.5t19 -44.5t-19 -45t-45 -19zM112 551q-26 0 -44.5 19t-18.5 45t18.5 44.5t44.5 18.5t45 -18.5t19 -44.5t-19 -45t-45 -19z" />
    <glyph glyph-name="copyright" unicode="&#xa9;" horiz-adv-x="804" 
d="M42 350q0 149 105.5 254.5t253.5 105.5q149 0 254.5 -106t105.5 -254t-105.5 -253.5t-254.5 -105.5t-254 105.5t-105 253.5zM120 350q0 -116 82.5 -198.5t198.5 -82.5q117 0 199 82.5t82 198.5q0 117 -82 199t-199 82q-116 0 -198.5 -82t-82.5 -199zM223 348
q0 78 54.5 133t132.5 55q64 0 112 -38q16 -14 2 -29l-34 -38q-9 -12 -25 -2q-23 16 -54 16q-39 0 -65.5 -27.5t-26.5 -66.5q0 -40 26 -67t66 -27q28 0 53 16q14 11 25 -2l36 -40q13 -14 -1 -28q-49 -42 -114 -42q-77 0 -132 55t-55 132z" />
    <glyph glyph-name="ordfeminine" unicode="&#xaa;" horiz-adv-x="311" 
d="M121 398q-44 0 -72 28t-28 74q0 41 31.5 67.5t86.5 26.5q14 0 27.5 -2t19.5 -4l7 -2q0 29 -8.5 41.5t-33.5 12.5q-27 0 -78 -12q-14 -3 -17 15l-6 33q-3 14 9 19q7 4 38.5 9.5t62.5 5.5q64 0 89 -31t25 -98v-161q0 -6 -4.5 -10t-9.5 -4h-27q-9 0 -14 10q-1 4 -4 11t-4 10
q-41 -39 -90 -39zM141 462q17 0 31.5 11t19.5 24v33q-13 11 -45 11q-19 0 -31.5 -11.5t-12.5 -28.5t10.5 -28t27.5 -11z" />
    <glyph glyph-name="guillemotleft" unicode="&#xab;" horiz-adv-x="471" 
d="M226 194q-8 11 0 24l109 148q7 12 18 12h57q13 0 17 -9.5t-2 -21.5l-68 -139l65 -147q6 -12 1.5 -21t-16.5 -9h-62q-9 0 -15 8zM130 39l-104 155q-8 11 0 24l109 148q7 12 18 12h57q13 0 17 -9.5t-2 -21.5l-68 -139l65 -147q6 -12 1.5 -21t-16.5 -9h-62q-9 0 -15 8z" />
    <glyph glyph-name="logicalnot" unicode="&#xac;" horiz-adv-x="504" 
d="M42 300q-8 0 -13.5 6t-5.5 13v56q0 7 5.5 13t13.5 6h393q8 0 13.5 -6t5.5 -13v-226q0 -7 -5.5 -12.5t-13.5 -5.5h-56q-8 0 -13.5 5.5t-5.5 12.5v151h-318z" />
    <glyph glyph-name="uni00AD" unicode="&#xad;" horiz-adv-x="347" 
d="M62 192q-8 0 -13.5 5t-5.5 13v67q0 19 19 19h223q19 0 19 -19v-67q0 -8 -5.5 -13t-13.5 -5h-223z" />
    <glyph glyph-name="registered" unicode="&#xae;" horiz-adv-x="804" 
d="M42 350q0 149 105.5 254.5t253.5 105.5q149 0 254.5 -106t105.5 -254t-105.5 -253.5t-254.5 -105.5t-254 105.5t-105 253.5zM120 350q0 -116 82.5 -198.5t198.5 -82.5q117 0 199 82.5t82 198.5q0 117 -82 199t-199 82q-116 0 -198.5 -82t-82.5 -199zM267 187v328
q0 8 5.5 13.5t13.5 5.5h155q49 0 86 -34t37 -90q0 -77 -71 -111l46 -104q4 -10 -1 -18.5t-16 -8.5h-54q-12 0 -18 14l-44 112h-52v-107q0 -8 -5.5 -13.5t-13.5 -5.5h-49q-8 0 -13.5 5.5t-5.5 13.5zM351 368h79q18 0 29.5 12t11.5 29q0 18 -11.5 29.5t-29.5 11.5h-79v-82z
" />
    <glyph glyph-name="macron" unicode="&#xaf;" horiz-adv-x="414" 
d="M79 570q-8 0 -13.5 5t-5.5 13v34q0 19 19 19h256q19 0 19 -19v-34q0 -8 -5.5 -13t-13.5 -5h-256z" />
    <glyph glyph-name="degree" unicode="&#xb0;" horiz-adv-x="310" 
d="M155 440q-56 0 -95.5 39.5t-39.5 95.5t39.5 95.5t95.5 39.5t95.5 -39.5t39.5 -95.5t-39.5 -95.5t-95.5 -39.5zM155 524q19 0 34 15.5t15 35.5q0 19 -15 34t-34 15q-20 0 -35.5 -15t-15.5 -34q0 -20 15.5 -35.5t35.5 -15.5z" />
    <glyph glyph-name="plusminus" unicode="&#xb1;" horiz-adv-x="560" 
d="M233 260v103h-150q-7 0 -13 5.5t-6 13.5v56q0 8 6 13.5t13 5.5h150v148q0 7 5.5 12.5t13.5 5.5h56q8 0 13.5 -5.5t5.5 -12.5v-148h150q7 0 12.5 -5.5t5.5 -13.5v-56q0 -8 -5.5 -13.5t-12.5 -5.5h-150v-103q0 -7 -5.5 -12.5t-13.5 -5.5h-56q-8 0 -13.5 5.5t-5.5 12.5z
M64 66v56q0 8 6 13.5t13 5.5h394q7 0 12.5 -5.5t5.5 -13.5v-56q0 -8 -5.5 -13.5t-12.5 -5.5h-394q-7 0 -13 5.5t-6 13.5z" />
    <glyph glyph-name="twosuperior" unicode="&#xb2;" horiz-adv-x="277" 
d="M37 504q-10 0 -10 9v17l110 126q25 28 25 50q0 15 -11 25t-29 10q-26 0 -44 -20q-9 -6 -16 3l-22 31q-9 12 3 21q41 34 94 34q47 0 76.5 -25.5t29.5 -66.5t-37 -86l-54 -64h80q9 0 9 -9v-46q0 -9 -9 -9h-195z" />
    <glyph glyph-name="threesuperior" unicode="&#xb3;" horiz-adv-x="265" 
d="M122 494q-58 0 -95 33q-8 8 -1 18l22 29q6 9 17 2l3 -2q2 -1 6.5 -3.5t10 -5t13 -4t14.5 -1.5q42 0 42 31q0 33 -47 33h-29q-15 0 -15 14v31q0 14 15 14h29q19 0 30 8.5t11 22.5q0 13 -10.5 21.5t-27.5 8.5q-21 0 -39 -16q-9 -5 -15 3l-24 29q-11 11 1 18q33 32 89 32
q48 0 78 -22.5t30 -60.5q0 -25 -15.5 -43t-35.5 -27v-1q60 -23 60 -76q0 -40 -33.5 -63t-83.5 -23z" />
    <glyph glyph-name="acute" unicode="&#xb4;" horiz-adv-x="302" 
d="M89 528q-19 -7 -26 6l-17 36q-6 11 6 19l163 97q18 12 26 -3l29 -51q9 -20 -6 -27z" />
    <glyph glyph-name="mu" unicode="&#xb5;" horiz-adv-x="524" 
d="M181 -4v-277q0 -7 -5.5 -13t-13.5 -6h-82q-8 0 -13.5 6t-5.5 13v662q0 8 5.5 13.5t13.5 5.5h82q8 0 13.5 -5.5t5.5 -13.5v-199q2 -37 21 -57.5t52 -20.5q30 0 52.5 23t27.5 52v202q0 11 5 15t17 4h76q8 0 13.5 -5.5t5.5 -13.5v-362q0 -7 -5.5 -13t-13.5 -6h-37
q-13 0 -19 15l-12 33q-1 -1 -7.5 -7l-10 -9t-12 -9t-15 -10t-17 -9t-21 -7.5t-24 -4.5t-27.5 -2q-26 0 -49 6z" />
    <glyph glyph-name="paragraph" unicode="&#xb6;" horiz-adv-x="701" 
d="M227 281q-85 0 -146.5 61t-61.5 149q0 86 56.5 147.5t137.5 61.5l456 -1q7 0 13 -5.5t6 -13.5v-46q0 -8 -5.5 -13.5t-13.5 -5.5h-78v-896q0 -8 -5.5 -13.5t-13.5 -5.5h-54q-8 0 -13.5 6t-5.5 13v896h-136v-896q0 -7 -5.5 -13t-13.5 -6h-54q-8 0 -13.5 6t-5.5 13v562h-44z
" />
    <glyph glyph-name="periodcentered" unicode="&#xb7;" horiz-adv-x="258" 
d="M128 167q-36 0 -62.5 26.5t-26.5 62.5q0 38 26.5 65t62.5 27q38 0 65 -27t27 -65q0 -36 -27 -62.5t-65 -26.5z" />
    <glyph glyph-name="cedilla" unicode="&#xb8;" horiz-adv-x="247" 
d="M54 0h66v-52q46 -6 71.5 -33.5t25.5 -69.5q0 -44 -31 -74.5t-75 -30.5q-46 0 -76 35q-13 14 3 28l20 17q11 11 21 -1q11 -12 30 -12q15 0 25 11t10 26q0 43 -73 49q-17 2 -17 18v89z" />
    <glyph glyph-name="onesuperior" unicode="&#xb9;" horiz-adv-x="196" 
d="M83 504q-10 0 -10 9v193l-49 -4q-9 0 -9 9l-2 31q0 5 7 11l74 47h51q9 0 9 -9v-278q0 -9 -9 -9h-62z" />
    <glyph glyph-name="ordmasculine" unicode="&#xba;" horiz-adv-x="302" 
d="M152 394q-61 0 -94 42t-33 116q0 75 32.5 116.5t94.5 41.5q61 0 93 -41.5t32 -116.5t-32 -116.5t-93 -41.5zM152 464q44 0 44 88t-44 88t-44 -88t44 -88z" />
    <glyph glyph-name="guillemotright" unicode="&#xbb;" horiz-adv-x="471" 
d="M248 61l65 147l-68 139q-6 12 -2 21.5t17 9.5h57q11 0 18 -12l109 -148q8 -13 0 -24l-104 -155q-6 -8 -15 -8h-62q-12 0 -16.5 9t1.5 21zM63 31q-12 0 -16.5 9t1.5 21l65 147l-68 139q-6 12 -2 21.5t17 9.5h57q11 0 18 -12l109 -148q8 -13 0 -24l-104 -155q-6 -8 -15 -8
h-62z" />
    <glyph glyph-name="onequarter" unicode="&#xbc;" horiz-adv-x="664" 
d="M89 27l343 663q5 10 17 10h50q11 0 16.5 -8.5t0.5 -18.5l-345 -663q-5 -10 -17 -10h-48q-11 0 -16.5 8.5t-0.5 18.5zM91 404q-10 0 -10 9v193l-49 -4q-9 0 -9 9l-2 31q0 5 7 11l74 47h51q9 0 9 -9v-278q0 -9 -9 -9h-62zM351 65v51l163 177q3 3 8 3h41q9 0 9 -9v-170h40
q9 0 9 -8v-43q0 -9 -9 -9h-40v-48q0 -9 -9 -9h-56q-10 0 -10 9v48h-137q-9 0 -9 8zM424 116h74v83z" />
    <glyph glyph-name="onehalf" unicode="&#xbd;" horiz-adv-x="661" 
d="M89 27l343 663q5 10 17 10h50q11 0 16.5 -8.5t0.5 -18.5l-345 -663q-5 -10 -17 -10h-48q-11 0 -16.5 8.5t-0.5 18.5zM91 404q-10 0 -10 9v193l-49 -4q-9 0 -9 9l-2 31q0 5 7 11l74 47h51q9 0 9 -9v-278q0 -9 -9 -9h-62zM391 9v17l110 126q25 28 25 50q0 15 -11 25t-29 10
q-26 0 -44 -20q-9 -6 -16 3l-22 31q-9 12 3 21q41 34 94 34q47 0 76.5 -25.5t29.5 -66.5t-37 -86l-54 -64h80q9 0 9 -9v-46q0 -9 -9 -9h-195q-10 0 -10 9z" />
    <glyph glyph-name="threequarters" unicode="&#xbe;" horiz-adv-x="701" 
d="M128 394q-58 0 -95 33q-8 8 -1 18l22 29q6 9 17 2l3 -2q2 -1 6.5 -3.5t10 -5t13 -4t14.5 -1.5q42 0 42 31q0 33 -47 33h-29q-15 0 -15 14v31q0 14 15 14h29q19 0 30 8.5t11 22.5q0 13 -10.5 21.5t-27.5 8.5q-21 0 -39 -16q-9 -5 -15 3l-24 29q-11 11 1 18q33 32 89 32
q48 0 78 -22.5t30 -60.5q0 -25 -15.5 -43t-35.5 -27v-1q60 -23 60 -76q0 -40 -33.5 -63t-83.5 -23zM126 27l343 663q5 10 17 10h50q11 0 16.5 -8.5t0.5 -18.5l-345 -663q-5 -10 -17 -10h-48q-11 0 -16.5 8.5t-0.5 18.5zM388 65v51l163 177q3 3 8 3h41q9 0 9 -9v-170h40
q9 0 9 -8v-43q0 -9 -9 -9h-40v-48q0 -9 -9 -9h-56q-10 0 -10 9v48h-137q-9 0 -9 8zM461 116h74v83z" />
    <glyph glyph-name="questiondown" unicode="&#xbf;" horiz-adv-x="434" 
d="M232 245q-34 0 -58.5 24.5t-24.5 58.5t24.5 58t58.5 24t58 -24t24 -58t-24 -58.5t-58 -24.5zM19 -142q0 34 15.5 63t38 48.5t45 36.5t38 34.5t15.5 33.5v33q0 21 20 21h81q8 0 13.5 -5.5t5.5 -13.5v-42q0 -32 -21.5 -61.5t-48 -48.5t-48 -43.5t-21.5 -47.5
q0 -28 22 -47.5t58 -19.5q27 0 47.5 9t40 25.5t20.5 17.5q12 8 22 -1l47 -46q14 -12 0 -26q-3 -4 -8 -9.5t-24 -21t-40 -27t-54.5 -21t-69.5 -9.5q-80 0 -137 48t-57 120z" />
    <glyph glyph-name="Agrave" unicode="&#xc0;" horiz-adv-x="663" 
d="M17 0q-11 0 -16.5 8t-0.5 18l311 673q5 11 17 11h10q12 0 17 -11l308 -673q5 -10 -0.5 -18t-16.5 -8h-87q-19 0 -29 20l-49 108h-299l-49 -108q-8 -20 -29 -20h-87zM231 239h201l-100 220h-3zM402 768l-175 77q-17 8 -6 27l28 52q8 14 26 3l164 -98q12 -7 6 -19l-18 -35
q-7 -15 -25 -7z" />
    <glyph glyph-name="Aacute" unicode="&#xc1;" horiz-adv-x="663" 
d="M17 0q-11 0 -16.5 8t-0.5 18l311 673q5 11 17 11h10q12 0 17 -11l308 -673q5 -10 -0.5 -18t-16.5 -8h-87q-19 0 -29 20l-49 108h-299l-49 -108q-8 -20 -29 -20h-87zM231 239h201l-100 220h-3zM261 768q-18 -8 -25 7l-18 35q-6 12 6 19l164 98q18 11 26 -3l28 -52
q11 -19 -6 -27z" />
    <glyph glyph-name="Acircumflex" unicode="&#xc2;" horiz-adv-x="663" 
d="M17 0q-11 0 -16.5 8t-0.5 18l311 673q5 11 17 11h10q12 0 17 -11l308 -673q5 -10 -0.5 -18t-16.5 -8h-87q-19 0 -29 20l-49 108h-299l-49 -108q-8 -20 -29 -20h-87zM231 239h201l-100 220h-3zM234 766q-14 -8 -23 3l-26 37q-7 10 6 19l130 101q10 8 21 0l130 -101
q13 -9 6 -19l-26 -37q-9 -11 -23 -3l-97 61z" />
    <glyph glyph-name="Atilde" unicode="&#xc3;" horiz-adv-x="663" 
d="M17 0q-11 0 -16.5 8t-0.5 18l311 673q5 11 17 11h10q12 0 17 -11l308 -673q5 -10 -0.5 -18t-16.5 -8h-87q-19 0 -29 20l-49 108h-299l-49 -108q-8 -20 -29 -20h-87zM231 239h201l-100 220h-3zM211 789l-29 21q-12 9 -6 23q8 15 12.5 22t19 25.5t33 27.5t39.5 9
q28 0 59 -27.5t48 -27.5q12 0 21 9.5t13.5 19t13 15t17.5 -2.5l28 -20q13 -10 1 -31q-30 -52 -60 -67q-17 -9 -37 -9q-28 0 -61.5 28t-47.5 28q-15 0 -25 -15t-18 -25.5t-21 -2.5z" />
    <glyph glyph-name="Adieresis" unicode="&#xc4;" horiz-adv-x="663" 
d="M17 0q-11 0 -16.5 8t-0.5 18l311 673q5 11 17 11h10q12 0 17 -11l308 -673q5 -10 -0.5 -18t-16.5 -8h-87q-19 0 -29 20l-49 108h-299l-49 -108q-8 -20 -29 -20h-87zM231 239h201l-100 220h-3zM454 775q-26 0 -44.5 19t-18.5 45t18.5 44.5t44.5 18.5t45 -18.5t19 -44.5
t-19 -45t-45 -19zM207 775q-26 0 -44.5 19t-18.5 45t18.5 44.5t44.5 18.5t45 -18.5t19 -44.5t-19 -45t-45 -19z" />
    <glyph glyph-name="Aring" unicode="&#xc5;" horiz-adv-x="663" 
d="M17 0q-11 0 -16.5 8t-0.5 18l311 673q5 11 17 11h10q12 0 17 -11l308 -673q5 -10 -0.5 -18t-16.5 -8h-87q-19 0 -29 20l-49 108h-299l-49 -108q-8 -20 -29 -20h-87zM231 239h201l-100 220h-3zM331 754q-47 0 -80 33t-33 80t33 80t80 33t80 -33t33 -80t-33 -80t-80 -33z
M331 817q19 0 33.5 15t14.5 35q0 19 -14.5 33.5t-33.5 14.5q-20 0 -35 -14.5t-15 -33.5t15.5 -34.5t34.5 -15.5z" />
    <glyph glyph-name="AE" unicode="&#xc6;" horiz-adv-x="900" 
d="M1 0q-11 0 -14.5 8t2.5 18l401 643q15 24 25 28q7 3 19 3h395q8 0 13.5 -5.5t5.5 -13.5v-82q0 -8 -5.5 -13.5t-13.5 -5.5h-299v-164h250q8 0 13.5 -6t5.5 -13v-83q0 -8 -5.5 -13.5t-13.5 -5.5h-250v-175h299q8 0 13.5 -5.5t5.5 -13.5v-82q0 -8 -5.5 -13.5t-13.5 -5.5
h-408q-8 0 -13.5 5.5t-5.5 13.5v109h-210l-71 -113q-10 -15 -25 -15h-95zM262 239h140v226z" />
    <glyph glyph-name="Ccedilla" unicode="&#xc7;" horiz-adv-x="686" 
d="M338 -4q-128 22 -212.5 121.5t-84.5 231.5q0 150 105.5 255.5t255.5 105.5q138 0 242 -93q15 -14 1 -28l-61 -63q-12 -13 -25 0q-67 59 -154 59q-95 0 -159 -68.5t-64 -164.5q0 -95 64.5 -163t159.5 -68q83 0 153 57q13 12 25 0l62 -64q6 -6 5.5 -13.5t-6.5 -13.5
q-98 -95 -241 -97v-42q46 -6 71.5 -33.5t25.5 -69.5q0 -44 -31 -74.5t-75 -30.5q-46 0 -76 35q-13 14 3 28l20 17q11 11 21 -1q11 -12 30 -12q15 0 25 11t10 26q0 43 -73 49q-17 2 -17 18v85z" />
    <glyph glyph-name="Egrave" unicode="&#xc8;" horiz-adv-x="588" 
d="M91 19v662q0 8 5.5 13.5t13.5 5.5h407q8 0 13.5 -5.5t5.5 -13.5v-82q0 -8 -5.5 -13.5t-13.5 -5.5h-296v-164h247q8 0 13.5 -6t5.5 -13v-83q0 -8 -5.5 -13.5t-13.5 -5.5h-247v-175h296q8 0 13.5 -5.5t5.5 -13.5v-82q0 -8 -5.5 -13.5t-13.5 -5.5h-407q-8 0 -13.5 5.5
t-5.5 13.5zM390 768l-175 77q-17 8 -6 27l28 52q8 14 26 3l164 -98q12 -7 6 -19l-18 -35q-7 -15 -25 -7z" />
    <glyph glyph-name="Eacute" unicode="&#xc9;" horiz-adv-x="588" 
d="M91 19v662q0 8 5.5 13.5t13.5 5.5h407q8 0 13.5 -5.5t5.5 -13.5v-82q0 -8 -5.5 -13.5t-13.5 -5.5h-296v-164h247q8 0 13.5 -6t5.5 -13v-83q0 -8 -5.5 -13.5t-13.5 -5.5h-247v-175h296q8 0 13.5 -5.5t5.5 -13.5v-82q0 -8 -5.5 -13.5t-13.5 -5.5h-407q-8 0 -13.5 5.5
t-5.5 13.5zM250 768q-18 -8 -25 7l-18 35q-6 12 6 19l164 98q18 11 26 -3l28 -52q11 -19 -6 -27z" />
    <glyph glyph-name="Ecircumflex" unicode="&#xca;" horiz-adv-x="588" 
d="M91 19v662q0 8 5.5 13.5t13.5 5.5h407q8 0 13.5 -5.5t5.5 -13.5v-82q0 -8 -5.5 -13.5t-13.5 -5.5h-296v-164h247q8 0 13.5 -6t5.5 -13v-83q0 -8 -5.5 -13.5t-13.5 -5.5h-247v-175h296q8 0 13.5 -5.5t5.5 -13.5v-82q0 -8 -5.5 -13.5t-13.5 -5.5h-407q-8 0 -13.5 5.5
t-5.5 13.5zM217 766q-14 -8 -23 3l-26 37q-7 10 6 19l130 101q10 8 21 0l130 -101q13 -9 6 -19l-26 -37q-9 -11 -23 -3l-97 61z" />
    <glyph glyph-name="Edieresis" unicode="&#xcb;" horiz-adv-x="588" 
d="M91 19v662q0 8 5.5 13.5t13.5 5.5h407q8 0 13.5 -5.5t5.5 -13.5v-82q0 -8 -5.5 -13.5t-13.5 -5.5h-296v-164h247q8 0 13.5 -6t5.5 -13v-83q0 -8 -5.5 -13.5t-13.5 -5.5h-247v-175h296q8 0 13.5 -5.5t5.5 -13.5v-82q0 -8 -5.5 -13.5t-13.5 -5.5h-407q-8 0 -13.5 5.5
t-5.5 13.5zM442 775q-26 0 -44.5 19t-18.5 45t18.5 44.5t44.5 18.5t45 -18.5t19 -44.5t-19 -45t-45 -19zM195 775q-26 0 -44.5 19t-18.5 45t18.5 44.5t44.5 18.5t45 -18.5t19 -44.5t-19 -45t-45 -19z" />
    <glyph glyph-name="Igrave" unicode="&#xcc;" horiz-adv-x="313" 
d="M91 19v662q0 7 5.5 13t13.5 6h93q7 0 13 -6t6 -13v-662q0 -7 -6 -13t-13 -6h-93q-8 0 -13.5 6t-5.5 13zM226 768l-175 77q-17 8 -6 27l28 52q8 14 26 3l164 -98q12 -7 6 -19l-18 -35q-7 -15 -25 -7z" />
    <glyph glyph-name="Iacute" unicode="&#xcd;" horiz-adv-x="313" 
d="M91 19v662q0 7 5.5 13t13.5 6h93q7 0 13 -6t6 -13v-662q0 -7 -6 -13t-13 -6h-93q-8 0 -13.5 6t-5.5 13zM86 768q-18 -8 -25 7l-18 35q-6 12 6 19l164 98q18 11 26 -3l28 -52q11 -19 -6 -27z" />
    <glyph glyph-name="Icircumflex" unicode="&#xce;" horiz-adv-x="313" 
d="M91 19v662q0 7 5.5 13t13.5 6h93q7 0 13 -6t6 -13v-662q0 -7 -6 -13t-13 -6h-93q-8 0 -13.5 6t-5.5 13zM57 766q-14 -8 -23 3l-26 37q-7 10 6 19l130 101q10 8 21 0l130 -101q13 -9 6 -19l-26 -37q-9 -11 -23 -3l-97 61z" />
    <glyph glyph-name="Idieresis" unicode="&#xcf;" horiz-adv-x="313" 
d="M91 19v662q0 7 5.5 13t13.5 6h93q7 0 13 -6t6 -13v-662q0 -7 -6 -13t-13 -6h-93q-8 0 -13.5 6t-5.5 13zM279 775q-26 0 -44.5 19t-18.5 45t18.5 44.5t44.5 18.5t45 -18.5t19 -44.5t-19 -45t-45 -19zM32 775q-26 0 -44.5 19t-18.5 45t18.5 44.5t44.5 18.5t45 -18.5
t19 -44.5t-19 -45t-45 -19z" />
    <glyph glyph-name="Eth" unicode="&#xd0;" horiz-adv-x="743" 
d="M96 19v302h-29q-7 0 -12.5 5.5t-5.5 13.5v13q0 8 5.5 13.5t12.5 5.5h29v309q0 8 5.5 13.5t12.5 5.5h237q145 0 248 -102.5t103 -246.5q0 -145 -103 -248t-248 -103h-237q-7 0 -12.5 5.5t-5.5 13.5zM225 122h114q97 0 161 65.5t64 163.5t-64 163t-161 65h-114v-207h165
q8 0 13.5 -5.5t5.5 -13.5v-14q0 -8 -5.5 -13t-13.5 -5h-165v-199z" />
    <glyph glyph-name="Ntilde" unicode="&#xd1;" horiz-adv-x="773" 
d="M91 19v673q0 7 5.5 12.5t13.5 5.5h25l416 -442h1v413q0 8 5.5 13.5t13.5 5.5h92q7 0 13 -6t6 -13v-673q0 -7 -5.5 -12.5t-13.5 -5.5h-24l-418 459h-1v-430q0 -8 -5.5 -13.5t-13.5 -5.5h-91q-8 0 -13.5 6t-5.5 13zM266 789l-29 21q-12 9 -6 23q8 15 12.5 22t19 25.5
t33 27.5t39.5 9q28 0 59 -27.5t48 -27.5q12 0 21 9.5t13.5 19t13 15t17.5 -2.5l28 -20q13 -10 1 -31q-30 -52 -60 -67q-17 -9 -37 -9q-28 0 -61.5 28t-47.5 28q-15 0 -25 -15t-18 -25.5t-21 -2.5z" />
    <glyph glyph-name="Ograve" unicode="&#xd2;" horiz-adv-x="800" 
d="M41 349q0 150 104.5 255.5t254.5 105.5t255 -105.5t105 -255.5t-105 -254.5t-255 -104.5t-254.5 104.5t-104.5 254.5zM171 349q0 -95 67.5 -162t161.5 -67q95 0 162.5 67.5t67.5 161.5q0 95 -68 163t-162 68t-161.5 -68t-67.5 -163zM473 768l-175 77q-17 8 -6 27l28 52
q8 14 26 3l164 -98q12 -7 6 -19l-18 -35q-7 -15 -25 -7z" />
    <glyph glyph-name="Oacute" unicode="&#xd3;" horiz-adv-x="800" 
d="M41 349q0 150 104.5 255.5t254.5 105.5t255 -105.5t105 -255.5t-105 -254.5t-255 -104.5t-254.5 104.5t-104.5 254.5zM171 349q0 -95 67.5 -162t161.5 -67q95 0 162.5 67.5t67.5 161.5q0 95 -68 163t-162 68t-161.5 -68t-67.5 -163zM331 768q-18 -8 -25 7l-18 35
q-6 12 6 19l164 98q18 11 26 -3l28 -52q11 -19 -6 -27z" />
    <glyph glyph-name="Ocircumflex" unicode="&#xd4;" horiz-adv-x="800" 
d="M41 349q0 150 104.5 255.5t254.5 105.5t255 -105.5t105 -255.5t-105 -254.5t-255 -104.5t-254.5 104.5t-104.5 254.5zM171 349q0 -95 67.5 -162t161.5 -67q95 0 162.5 67.5t67.5 161.5q0 95 -68 163t-162 68t-161.5 -68t-67.5 -163zM302 766q-14 -8 -23 3l-26 37
q-7 10 6 19l130 101q10 8 21 0l130 -101q13 -9 6 -19l-26 -37q-9 -11 -23 -3l-97 61z" />
    <glyph glyph-name="Otilde" unicode="&#xd5;" horiz-adv-x="800" 
d="M41 349q0 150 104.5 255.5t254.5 105.5t255 -105.5t105 -255.5t-105 -254.5t-255 -104.5t-254.5 104.5t-104.5 254.5zM171 349q0 -95 67.5 -162t161.5 -67q95 0 162.5 67.5t67.5 161.5q0 95 -68 163t-162 68t-161.5 -68t-67.5 -163zM281 789l-29 21q-12 9 -6 23
q8 15 12.5 22t19 25.5t33 27.5t39.5 9q28 0 59 -27.5t48 -27.5q12 0 21 9.5t13.5 19t13 15t17.5 -2.5l28 -20q13 -10 1 -31q-30 -52 -60 -67q-17 -9 -37 -9q-28 0 -61.5 28t-47.5 28q-15 0 -25 -15t-18 -25.5t-21 -2.5z" />
    <glyph glyph-name="Odieresis" unicode="&#xd6;" horiz-adv-x="800" 
d="M41 349q0 150 104.5 255.5t254.5 105.5t255 -105.5t105 -255.5t-105 -254.5t-255 -104.5t-254.5 104.5t-104.5 254.5zM171 349q0 -95 67.5 -162t161.5 -67q95 0 162.5 67.5t67.5 161.5q0 95 -68 163t-162 68t-161.5 -68t-67.5 -163zM523 775q-26 0 -44.5 19t-18.5 45
t18.5 44.5t44.5 18.5t45 -18.5t19 -44.5t-19 -45t-45 -19zM276 775q-26 0 -44.5 19t-18.5 45t18.5 44.5t44.5 18.5t45 -18.5t19 -44.5t-19 -45t-45 -19z" />
    <glyph glyph-name="multiply" unicode="&#xd7;" horiz-adv-x="464" 
d="M100 175l-40 40q-13 13 0 26l106 106l-106 106q-5 5 -5 13.5t5 13.5l39 40q5 5 13.5 5t13.5 -5l106 -106l106 107q12 13 26 -1l40 -40q14 -14 1 -26l-106 -107l106 -106q12 -14 -1 -27l-40 -39q-14 -13 -26 -1l-106 107l-106 -106q-13 -13 -26 0z" />
    <glyph glyph-name="Oslash" unicode="&#xd8;" horiz-adv-x="799" 
d="M63 23q-13 13 -1 26l65 64q-86 100 -86 236q0 150 104.5 255.5t254.5 105.5q133 0 236 -88l68 67q13 13 26 0l10 -10q12 -12 0 -26l-68 -68q88 -103 88 -235q0 -150 -105 -255t-255 -105q-138 0 -236 87l-65 -65q-13 -12 -26 1zM221 207l323 322q-66 51 -144 51
q-94 0 -161.5 -68t-67.5 -163q0 -79 50 -142zM257 170q63 -50 143 -50q94 0 162 68t68 162q0 81 -51 142z" />
    <glyph glyph-name="Ugrave" unicode="&#xd9;" horiz-adv-x="721" 
d="M82 265v416q0 7 6 13t13 6h95q8 0 13.5 -5.5t5.5 -13.5v-409q0 -65 40.5 -108.5t104.5 -43.5t105 43.5t41 107.5v410q0 8 5.5 13.5t13.5 5.5h95q8 0 13.5 -6t5.5 -13v-416q0 -115 -80.5 -195t-198.5 -80q-117 0 -197.5 80t-80.5 195zM430 768l-175 77q-17 8 -6 27l28 52
q8 14 26 3l164 -98q12 -7 6 -19l-18 -35q-7 -15 -25 -7z" />
    <glyph glyph-name="Uacute" unicode="&#xda;" horiz-adv-x="721" 
d="M82 265v416q0 7 6 13t13 6h95q8 0 13.5 -5.5t5.5 -13.5v-409q0 -65 40.5 -108.5t104.5 -43.5t105 43.5t41 107.5v410q0 8 5.5 13.5t13.5 5.5h95q8 0 13.5 -6t5.5 -13v-416q0 -115 -80.5 -195t-198.5 -80q-117 0 -197.5 80t-80.5 195zM292 768q-18 -8 -25 7l-18 35
q-6 12 6 19l164 98q18 11 26 -3l28 -52q11 -19 -6 -27z" />
    <glyph glyph-name="Ucircumflex" unicode="&#xdb;" horiz-adv-x="721" 
d="M82 265v416q0 7 6 13t13 6h95q8 0 13.5 -5.5t5.5 -13.5v-409q0 -65 40.5 -108.5t104.5 -43.5t105 43.5t41 107.5v410q0 8 5.5 13.5t13.5 5.5h95q8 0 13.5 -6t5.5 -13v-416q0 -115 -80.5 -195t-198.5 -80q-117 0 -197.5 80t-80.5 195zM263 766q-14 -8 -23 3l-26 37
q-7 10 6 19l130 101q10 8 21 0l130 -101q13 -9 6 -19l-26 -37q-9 -11 -23 -3l-97 61z" />
    <glyph glyph-name="Udieresis" unicode="&#xdc;" horiz-adv-x="721" 
d="M82 265v416q0 7 6 13t13 6h95q8 0 13.5 -5.5t5.5 -13.5v-409q0 -65 40.5 -108.5t104.5 -43.5t105 43.5t41 107.5v410q0 8 5.5 13.5t13.5 5.5h95q8 0 13.5 -6t5.5 -13v-416q0 -115 -80.5 -195t-198.5 -80q-117 0 -197.5 80t-80.5 195zM483 775q-26 0 -44.5 19t-18.5 45
t18.5 44.5t44.5 18.5t45 -18.5t19 -44.5t-19 -45t-45 -19zM236 775q-26 0 -44.5 19t-18.5 45t18.5 44.5t44.5 18.5t45 -18.5t19 -44.5t-19 -45t-45 -19z" />
    <glyph glyph-name="Yacute" unicode="&#xdd;" horiz-adv-x="583" 
d="M225 19v318l-228 334q-6 10 -1 19.5t17 9.5h102q9 0 16 -9l160 -230l160 230q7 9 16 9h103q12 0 17 -9.5t-1 -19.5l-231 -333v-319q0 -7 -5.5 -13t-13.5 -6h-92q-8 0 -13.5 5.5t-5.5 13.5zM221 768q-18 -8 -25 7l-18 35q-6 12 6 19l164 98q18 11 26 -3l28 -52
q11 -19 -6 -27z" />
    <glyph glyph-name="Thorn" unicode="&#xde;" horiz-adv-x="591" 
d="M91 19v662q0 8 5.5 13.5t13.5 5.5h92q8 0 13.5 -6t5.5 -13v-108h124q92 1 158 -64.5t66 -156.5q0 -93 -65.5 -159t-157.5 -66h-125v-108q0 -7 -5.5 -13t-13.5 -6h-92q-8 0 -13.5 5.5t-5.5 13.5zM221 249h116q42 0 72.5 30t30.5 74q0 41 -30.5 69t-72.5 28h-116v-201z" />
    <glyph glyph-name="germandbls" unicode="&#xdf;" horiz-adv-x="517" 
d="M60 19v393q0 146 63.5 222t173.5 76q68 0 118 -40.5t50 -116.5q0 -39 -19.5 -78.5t-39.5 -72t-20 -52.5q0 -14 16 -35.5t35 -43t35 -56.5t16 -71q0 -77 -48.5 -115.5t-115.5 -38.5q-41 0 -44 20l-9 67q-1 7 4 13.5t13 5.5q30 -2 52.5 11.5t22.5 39.5t-26 56.5l-52 63.5
t-26 65q0 34 40.5 107.5t40.5 108.5q0 24 -15.5 39t-39.5 15q-42 0 -72 -45.5t-30 -146.5v-391q0 -7 -5.5 -13t-13.5 -6h-85q-7 0 -13 6t-6 13z" />
    <glyph glyph-name="agrave" unicode="&#xe0;" horiz-adv-x="426" 
d="M31 127q0 55 43 90.5t117 35.5q18 0 36 -2.5t27 -5.5l10 -3q1 38 -11.5 53.5t-40.5 15.5q-63 0 -112 -15q-19 -6 -23 18l-9 52q-4 19 14 25q6 2 24 6t50.5 8.5t61.5 4.5q89 0 121.5 -42.5t32.5 -131.5v-217q0 -7 -6 -13t-13 -6h-36q-11 0 -17 14l-12 27q-56 -51 -122 -51
q-61 0 -98 37t-37 100zM141 127q0 -23 14.5 -37.5t37.5 -14.5q22 0 42.5 14t26.5 25v55q-27 12 -56 12t-47 -15t-18 -39zM297 528l-175 77q-16 8 -6 27l28 51q8 15 26 3l164 -97q12 -6 6 -19l-18 -36q-6 -14 -25 -6z" />
    <glyph glyph-name="aacute" unicode="&#xe1;" horiz-adv-x="426" 
d="M31 127q0 55 43 90.5t117 35.5q18 0 36 -2.5t27 -5.5l10 -3q1 38 -11.5 53.5t-40.5 15.5q-63 0 -112 -15q-19 -6 -23 18l-9 52q-4 19 14 25q6 2 24 6t50.5 8.5t61.5 4.5q89 0 121.5 -42.5t32.5 -131.5v-217q0 -7 -6 -13t-13 -6h-36q-11 0 -17 14l-12 27q-56 -51 -122 -51
q-61 0 -98 37t-37 100zM141 127q0 -23 14.5 -37.5t37.5 -14.5q22 0 42.5 14t26.5 25v55q-27 12 -56 12t-47 -15t-18 -39zM156 528q-19 -7 -26 6l-17 36q-6 11 6 19l163 97q18 12 26 -3l29 -51q9 -20 -6 -27z" />
    <glyph glyph-name="acircumflex" unicode="&#xe2;" horiz-adv-x="426" 
d="M31 127q0 55 43 90.5t117 35.5q18 0 36 -2.5t27 -5.5l10 -3q1 38 -11.5 53.5t-40.5 15.5q-63 0 -112 -15q-19 -6 -23 18l-9 52q-4 19 14 25q6 2 24 6t50.5 8.5t61.5 4.5q89 0 121.5 -42.5t32.5 -131.5v-217q0 -7 -6 -13t-13 -6h-36q-11 0 -17 14l-12 27q-56 -51 -122 -51
q-61 0 -98 37t-37 100zM141 127q0 -23 14.5 -37.5t37.5 -14.5q22 0 42.5 14t26.5 25v55q-27 12 -56 12t-47 -15t-18 -39zM94 529l-26 37q-7 10 6 19l130 101q10 8 21 0l130 -101q13 -9 6 -19l-26 -37q-9 -11 -23 -3l-97 61l-98 -61q-14 -8 -23 3z" />
    <glyph glyph-name="atilde" unicode="&#xe3;" horiz-adv-x="426" 
d="M31 127q0 55 43 90.5t117 35.5q18 0 36 -2.5t27 -5.5l10 -3q1 38 -11.5 53.5t-40.5 15.5q-63 0 -112 -15q-19 -6 -23 18l-9 52q-4 19 14 25q6 2 24 6t50.5 8.5t61.5 4.5q89 0 121.5 -42.5t32.5 -131.5v-217q0 -7 -6 -13t-13 -6h-36q-11 0 -17 14l-12 27q-56 -51 -122 -51
q-61 0 -98 37t-37 100zM141 127q0 -23 14.5 -37.5t37.5 -14.5q22 0 42.5 14t26.5 25v55q-27 12 -56 12t-47 -15t-18 -39zM97 562l-29 21q-12 9 -6 23q8 15 12.5 22t19 25.5t33 27.5t39.5 9q28 0 59 -27.5t48 -27.5q12 0 21 9.5t13.5 19t13 15t17.5 -2.5l28 -20q13 -10 1 -31
q-30 -52 -60 -67q-17 -9 -37 -9q-28 0 -61.5 28t-47.5 28q-15 0 -25 -15t-18 -25.5t-21 -2.5z" />
    <glyph glyph-name="adieresis" unicode="&#xe4;" horiz-adv-x="426" 
d="M31 127q0 55 43 90.5t117 35.5q18 0 36 -2.5t27 -5.5l10 -3q1 38 -11.5 53.5t-40.5 15.5q-63 0 -112 -15q-19 -6 -23 18l-9 52q-4 19 14 25q6 2 24 6t50.5 8.5t61.5 4.5q89 0 121.5 -42.5t32.5 -131.5v-217q0 -7 -6 -13t-13 -6h-36q-11 0 -17 14l-12 27q-56 -51 -122 -51
q-61 0 -98 37t-37 100zM141 127q0 -23 14.5 -37.5t37.5 -14.5q22 0 42.5 14t26.5 25v55q-27 12 -56 12t-47 -15t-18 -39zM319 551q-26 0 -44.5 19t-18.5 45t18.5 44.5t44.5 18.5t45 -18.5t19 -44.5t-19 -45t-45 -19zM118 551q-26 0 -44.5 19t-18.5 45t18.5 44.5t44.5 18.5
t45 -18.5t19 -44.5t-19 -45t-45 -19z" />
    <glyph glyph-name="aring" unicode="&#xe5;" horiz-adv-x="426" 
d="M31 127q0 55 43 90.5t117 35.5q18 0 36 -2.5t27 -5.5l10 -3q1 38 -11.5 53.5t-40.5 15.5q-63 0 -112 -15q-19 -6 -23 18l-9 52q-4 19 14 25q6 2 24 6t50.5 8.5t61.5 4.5q89 0 121.5 -42.5t32.5 -131.5v-217q0 -7 -6 -13t-13 -6h-36q-11 0 -17 14l-12 27q-56 -51 -122 -51
q-61 0 -98 37t-37 100zM141 127q0 -23 14.5 -37.5t37.5 -14.5q22 0 42.5 14t26.5 25v55q-27 12 -56 12t-47 -15t-18 -39zM220 484q-47 0 -80 33t-33 80t33 80t80 33t80 -33t33 -80t-33 -80t-80 -33zM220 547q19 0 33.5 15t14.5 35q0 19 -14 33.5t-34 14.5t-35 -14.5
t-15 -33.5t15 -34.5t35 -15.5z" />
    <glyph glyph-name="ae" unicode="&#xe6;" horiz-adv-x="670" 
d="M30 127q0 55 42 90.5t114 35.5q18 0 37 -2t29 -4l10 -2q-2 41 -12.5 57t-42.5 16q-48 0 -109 -16q-19 -2 -23 16l-9 54q-2 16 16 20q74 18 136 18q89 0 121 -41q52 41 120 41q78 0 132.5 -52.5t54.5 -133.5q0 -44 -21 -44h-255q4 -34 30 -61t65 -27q41 0 79 26
q17 11 26 0l40 -47q12 -16 -1 -26q-59 -55 -149 -55q-96 0 -150 65q-18 -23 -55.5 -44t-86.5 -21q-62 0 -100 37t-38 100zM379 251h150q-1 28 -22.5 47.5t-50.5 19.5q-30 0 -51.5 -19t-25.5 -48zM140 130q0 -24 16.5 -39t39.5 -15q20 0 36.5 10.5t23.5 21.5l6 10v52
q-27 13 -62 13q-25 0 -42.5 -15t-17.5 -38z" />
    <glyph glyph-name="ccedilla" unicode="&#xe7;" horiz-adv-x="428" 
d="M180 0q-65 19 -107.5 73.5t-42.5 126.5q0 87 64 148.5t149 61.5q89 0 148 -71q12 -16 -5 -28l-46 -44q-11 -9 -25 3q-28 32 -69 32q-40 0 -69 -30t-29 -72q0 -43 28 -72.5t69 -29.5q20 0 37 7t23 12t20 19q12 12 25 3l43 -37q17 -14 7 -28q-54 -83 -154 -84v-41
q46 -6 71.5 -33.5t25.5 -69.5q0 -44 -31 -74.5t-75 -30.5q-46 0 -76 35q-13 14 3 28l20 17q11 11 21 -1q11 -12 30 -12q15 0 25 11t10 26q0 43 -73 49q-17 2 -17 18v88z" />
    <glyph glyph-name="egrave" unicode="&#xe8;" horiz-adv-x="445" 
d="M30 200q0 86 58 148t146 62q78 0 132.5 -53t54.5 -133q0 -13 -2 -27q-2 -17 -19 -17h-256q2 -34 28.5 -60.5t67.5 -26.5q43 0 78 25q17 10 26 0l41 -47q14 -14 -1 -26q-59 -55 -149 -55q-89 0 -147 61t-58 149zM153 250h151q-2 28 -23.5 48t-49.5 20q-30 0 -52 -19.5
t-26 -48.5zM302 528l-175 77q-16 8 -6 27l28 51q8 15 26 3l164 -97q12 -6 6 -19l-18 -36q-6 -14 -25 -6z" />
    <glyph glyph-name="eacute" unicode="&#xe9;" horiz-adv-x="445" 
d="M30 200q0 86 58 148t146 62q78 0 132.5 -53t54.5 -133q0 -13 -2 -27q-2 -17 -19 -17h-256q2 -34 28.5 -60.5t67.5 -26.5q43 0 78 25q17 10 26 0l41 -47q14 -14 -1 -26q-59 -55 -149 -55q-89 0 -147 61t-58 149zM153 250h151q-2 28 -23.5 48t-49.5 20q-30 0 -52 -19.5
t-26 -48.5zM160 528q-19 -7 -26 6l-17 36q-6 11 6 19l163 97q18 12 26 -3l29 -51q9 -20 -6 -27z" />
    <glyph glyph-name="ecircumflex" unicode="&#xea;" horiz-adv-x="445" 
d="M30 200q0 86 58 148t146 62q78 0 132.5 -53t54.5 -133q0 -13 -2 -27q-2 -17 -19 -17h-256q2 -34 28.5 -60.5t67.5 -26.5q43 0 78 25q17 10 26 0l41 -47q14 -14 -1 -26q-59 -55 -149 -55q-89 0 -147 61t-58 149zM153 250h151q-2 28 -23.5 48t-49.5 20q-30 0 -52 -19.5
t-26 -48.5zM111 529l-26 37q-7 10 6 19l130 101q10 8 21 0l130 -101q13 -9 6 -19l-26 -37q-9 -11 -23 -3l-97 61l-98 -61q-14 -8 -23 3z" />
    <glyph glyph-name="edieresis" unicode="&#xeb;" horiz-adv-x="445" 
d="M30 200q0 86 58 148t146 62q78 0 132.5 -53t54.5 -133q0 -13 -2 -27q-2 -17 -19 -17h-256q2 -34 28.5 -60.5t67.5 -26.5q43 0 78 25q17 10 26 0l41 -47q14 -14 -1 -26q-59 -55 -149 -55q-89 0 -147 61t-58 149zM153 250h151q-2 28 -23.5 48t-49.5 20q-30 0 -52 -19.5
t-26 -48.5zM332 551q-26 0 -44.5 19t-18.5 45t18.5 44.5t44.5 18.5t45 -18.5t19 -44.5t-19 -45t-45 -19zM131 551q-26 0 -44.5 19t-18.5 45t18.5 44.5t44.5 18.5t45 -18.5t19 -44.5t-19 -45t-45 -19z" />
    <glyph glyph-name="igrave" unicode="&#xec;" horiz-adv-x="241" 
d="M189 528l-175 77q-16 8 -6 27l28 51q8 15 26 3l164 -97q12 -6 6 -19l-18 -36q-6 -14 -25 -6zM60 19v362q0 8 5.5 13.5t13.5 5.5h83q8 0 13.5 -5.5t5.5 -13.5v-362q0 -7 -5.5 -13t-13.5 -6h-83q-7 0 -13 6t-6 13z" />
    <glyph glyph-name="iacute" unicode="&#xed;" horiz-adv-x="241" 
d="M48 528q-19 -7 -26 6l-17 36q-6 11 6 19l163 97q18 12 26 -3l29 -51q9 -20 -6 -27zM60 19v362q0 8 5.5 13.5t13.5 5.5h83q8 0 13.5 -5.5t5.5 -13.5v-362q0 -7 -5.5 -13t-13.5 -6h-83q-7 0 -13 6t-6 13z" />
    <glyph glyph-name="icircumflex" unicode="&#xee;" horiz-adv-x="241" 
d="M60 19v362q0 8 5.5 13.5t13.5 5.5h83q8 0 13.5 -5.5t5.5 -13.5v-362q0 -7 -5.5 -13t-13.5 -6h-83q-7 0 -13 6t-6 13zM-2 529l-26 37q-7 10 6 19l130 101q10 8 21 0l130 -101q13 -9 6 -19l-26 -37q-9 -11 -23 -3l-97 61l-98 -61q-14 -8 -23 3z" />
    <glyph glyph-name="idieresis" unicode="&#xef;" horiz-adv-x="241" 
d="M220 551q-26 0 -44.5 19t-18.5 45t18.5 44.5t44.5 18.5t45 -18.5t19 -44.5t-19 -45t-45 -19zM19 551q-26 0 -44.5 19t-18.5 45t18.5 44.5t44.5 18.5t45 -18.5t19 -44.5t-19 -45t-45 -19zM60 19v362q0 8 5.5 13.5t13.5 5.5h83q8 0 13.5 -5.5t5.5 -13.5v-362q0 -7 -5.5 -13
t-13.5 -6h-83q-7 0 -13 6t-6 13z" />
    <glyph glyph-name="eth" unicode="&#xf0;" horiz-adv-x="528" 
d="M29 219q0 101 61.5 159t142.5 58q66 0 114 -28q-21 72 -105 132l-81 -47q-16 -9 -25 6l-7 13q-10 16 6 25l58 33q-32 18 -66 30q-27 8 -18 29l23 59q6 20 28 14q78 -31 137 -71l69 40q17 8 26 -8l7 -11q10 -17 -6 -26l-52 -30q152 -129 152 -330q0 -118 -62.5 -197
t-175.5 -79q-92 0 -159 67.5t-67 161.5zM142 221q0 -48 33.5 -82.5t80.5 -34.5q56 0 86.5 45t30.5 102q-10 33 -40.5 60t-75.5 27q-48 0 -81.5 -34.5t-33.5 -82.5z" />
    <glyph glyph-name="ntilde" unicode="&#xf1;" horiz-adv-x="519" 
d="M60 19v362q0 8 5.5 13.5t13.5 5.5h38q12 0 17 -12l14 -37q55 59 141 59q90 0 134 -57t44 -142v-192q0 -7 -5.5 -13t-13.5 -6h-82q-8 0 -13.5 5.5t-5.5 13.5v198q0 39 -19.5 62t-55.5 23t-60.5 -19.5t-33.5 -43.5v-220q0 -19 -25 -19h-74q-7 0 -13 6t-6 13zM148 562
l-29 21q-12 9 -6 23q8 15 12.5 22t19 25.5t33 27.5t39.5 9q28 0 59 -27.5t48 -27.5q12 0 21 9.5t13.5 19t13 15t17.5 -2.5l28 -20q13 -10 1 -31q-30 -52 -60 -67q-17 -9 -37 -9q-28 0 -61.5 28t-47.5 28q-15 0 -25 -15t-18 -25.5t-21 -2.5z" />
    <glyph glyph-name="ograve" unicode="&#xf2;" horiz-adv-x="468" 
d="M29 201q0 85 60.5 147t144.5 62t144.5 -62t60.5 -147q0 -86 -60 -148.5t-145 -62.5t-145 62.5t-60 148.5zM138 201q0 -43 28 -73t68 -30t68 30t28 73q0 42 -28 71.5t-68 29.5t-68 -29.5t-28 -71.5zM306 528l-175 77q-16 8 -6 27l28 51q8 15 26 3l164 -97q12 -6 6 -19
l-18 -36q-6 -14 -25 -6z" />
    <glyph glyph-name="oacute" unicode="&#xf3;" horiz-adv-x="468" 
d="M29 201q0 85 60.5 147t144.5 62t144.5 -62t60.5 -147q0 -86 -60 -148.5t-145 -62.5t-145 62.5t-60 148.5zM138 201q0 -43 28 -73t68 -30t68 30t28 73q0 42 -28 71.5t-68 29.5t-68 -29.5t-28 -71.5zM163 528q-19 -7 -26 6l-17 36q-6 11 6 19l163 97q18 12 26 -3l29 -51
q9 -20 -6 -27z" />
    <glyph glyph-name="ocircumflex" unicode="&#xf4;" horiz-adv-x="468" 
d="M29 201q0 85 60.5 147t144.5 62t144.5 -62t60.5 -147q0 -86 -60 -148.5t-145 -62.5t-145 62.5t-60 148.5zM138 201q0 -43 28 -73t68 -30t68 30t28 73q0 42 -28 71.5t-68 29.5t-68 -29.5t-28 -71.5zM112 529l-26 37q-7 10 6 19l130 101q10 8 21 0l130 -101q13 -9 6 -19
l-26 -37q-9 -11 -23 -3l-97 61l-98 -61q-14 -8 -23 3z" />
    <glyph glyph-name="otilde" unicode="&#xf5;" horiz-adv-x="468" 
d="M29 201q0 85 60.5 147t144.5 62t144.5 -62t60.5 -147q0 -86 -60 -148.5t-145 -62.5t-145 62.5t-60 148.5zM138 201q0 -43 28 -73t68 -30t68 30t28 73q0 42 -28 71.5t-68 29.5t-68 -29.5t-28 -71.5zM113 562l-29 21q-12 9 -6 23q8 15 12.5 22t19 25.5t33 27.5t39.5 9
q28 0 59 -27.5t48 -27.5q12 0 21 9.5t13.5 19t13 15t17.5 -2.5l28 -20q13 -10 1 -31q-30 -52 -60 -67q-17 -9 -37 -9q-28 0 -61.5 28t-47.5 28q-15 0 -25 -15t-18 -25.5t-21 -2.5z" />
    <glyph glyph-name="odieresis" unicode="&#xf6;" horiz-adv-x="468" 
d="M29 201q0 85 60.5 147t144.5 62t144.5 -62t60.5 -147q0 -86 -60 -148.5t-145 -62.5t-145 62.5t-60 148.5zM138 201q0 -43 28 -73t68 -30t68 30t28 73q0 42 -28 71.5t-68 29.5t-68 -29.5t-28 -71.5zM333 551q-26 0 -44.5 19t-18.5 45t18.5 44.5t44.5 18.5t45 -18.5
t19 -44.5t-19 -45t-45 -19zM132 551q-26 0 -44.5 19t-18.5 45t18.5 44.5t44.5 18.5t45 -18.5t19 -44.5t-19 -45t-45 -19z" />
    <glyph glyph-name="divide" unicode="&#xf7;" horiz-adv-x="505" 
d="M250 471q-28 0 -48.5 20.5t-20.5 48.5t20.5 48.5t48.5 20.5t48.5 -20.5t20.5 -48.5t-20.5 -48.5t-48.5 -20.5zM56 299q-8 0 -13.5 5.5t-5.5 13.5v56q0 8 5.5 13.5t13.5 5.5h394q7 0 12.5 -5.5t5.5 -13.5v-56q0 -8 -5.5 -13.5t-12.5 -5.5h-394zM181 160q0 28 19.5 48
t48.5 20t49 -20t20 -48t-20 -48.5t-49 -20.5q-28 0 -48 20t-20 49z" />
    <glyph glyph-name="oslash" unicode="&#xf8;" horiz-adv-x="468" 
d="M51 24q-13 14 -1 26l22 22q-42 57 -42 130q0 85 60.5 146.5t144.5 61.5q70 0 126 -46l26 26q12 14 26 0l10 -10q14 -12 0 -26l-26 -26q42 -57 42 -126q0 -87 -60 -149.5t-144 -62.5q-71 0 -127 45l-21 -22q-5 -5 -13.5 -5t-13.5 6zM150 152l134 135q-21 15 -49 15
q-40 0 -68 -29t-28 -71q0 -28 11 -50zM185 112q22 -14 50 -14q40 0 67.5 30.5t27.5 73.5q0 25 -11 47z" />
    <glyph glyph-name="ugrave" unicode="&#xf9;" horiz-adv-x="503" 
d="M53 187v194q0 8 5.5 13.5t13.5 5.5h82q8 0 13.5 -5.5t5.5 -13.5v-197q0 -40 19.5 -63t53.5 -23q30 0 52.5 23t27.5 52v208q0 11 5 15t17 4h76q8 0 13.5 -5.5t5.5 -13.5v-362q0 -7 -5.5 -13t-13.5 -6h-37q-13 0 -19 15l-12 33q-1 -1 -7.5 -7l-10 -9t-12 -9t-15 -10t-17 -9
t-21 -7.5t-24 -4.5t-27.5 -2q-87 0 -128 56t-41 141zM324 528l-175 77q-16 8 -6 27l28 51q8 15 26 3l164 -97q12 -6 6 -19l-18 -36q-6 -14 -25 -6z" />
    <glyph glyph-name="uacute" unicode="&#xfa;" horiz-adv-x="503" 
d="M53 187v194q0 8 5.5 13.5t13.5 5.5h82q8 0 13.5 -5.5t5.5 -13.5v-197q0 -40 19.5 -63t53.5 -23q30 0 52.5 23t27.5 52v208q0 11 5 15t17 4h76q8 0 13.5 -5.5t5.5 -13.5v-362q0 -7 -5.5 -13t-13.5 -6h-37q-13 0 -19 15l-12 33q-1 -1 -7.5 -7l-10 -9t-12 -9t-15 -10t-17 -9
t-21 -7.5t-24 -4.5t-27.5 -2q-87 0 -128 56t-41 141zM182 528q-19 -7 -26 6l-17 36q-6 11 6 19l163 97q18 12 26 -3l29 -51q9 -20 -6 -27z" />
    <glyph glyph-name="ucircumflex" unicode="&#xfb;" horiz-adv-x="503" 
d="M53 187v194q0 8 5.5 13.5t13.5 5.5h82q8 0 13.5 -5.5t5.5 -13.5v-197q0 -40 19.5 -63t53.5 -23q30 0 52.5 23t27.5 52v208q0 11 5 15t17 4h76q8 0 13.5 -5.5t5.5 -13.5v-362q0 -7 -5.5 -13t-13.5 -6h-37q-13 0 -19 15l-12 33q-1 -1 -7.5 -7l-10 -9t-12 -9t-15 -10t-17 -9
t-21 -7.5t-24 -4.5t-27.5 -2q-87 0 -128 56t-41 141zM129 529l-26 37q-7 10 6 19l130 101q10 8 21 0l130 -101q13 -9 6 -19l-26 -37q-9 -11 -23 -3l-97 61l-98 -61q-14 -8 -23 3z" />
    <glyph glyph-name="udieresis" unicode="&#xfc;" horiz-adv-x="503" 
d="M53 187v194q0 8 5.5 13.5t13.5 5.5h82q8 0 13.5 -5.5t5.5 -13.5v-197q0 -40 19.5 -63t53.5 -23q30 0 52.5 23t27.5 52v208q0 11 5 15t17 4h76q8 0 13.5 -5.5t5.5 -13.5v-362q0 -7 -5.5 -13t-13.5 -6h-37q-13 0 -19 15l-12 33q-1 -1 -7.5 -7l-10 -9t-12 -9t-15 -10t-17 -9
t-21 -7.5t-24 -4.5t-27.5 -2q-87 0 -128 56t-41 141zM357 551q-26 0 -44.5 19t-18.5 45t18.5 44.5t44.5 18.5t45 -18.5t19 -44.5t-19 -45t-45 -19zM156 551q-26 0 -44.5 19t-18.5 45t18.5 44.5t44.5 18.5t45 -18.5t19 -44.5t-19 -45t-45 -19z" />
    <glyph glyph-name="yacute" unicode="&#xfd;" horiz-adv-x="463" 
d="M171 28l-163 346q-5 10 0.5 18t16.5 8h90q11 0 17 -11l101 -226h1l100 226q6 11 24 11h80q12 0 17 -8t0 -18l-306 -662q-6 -12 -17 -12h-86q-11 0 -16.5 8.5t-0.5 18.5zM164 528q-19 -7 -26 6l-17 36q-6 11 6 19l163 97q18 12 26 -3l29 -51q9 -20 -6 -27z" />
    <glyph glyph-name="thorn" unicode="&#xfe;" 
d="M183 12v-294q0 -8 -5.5 -13.5t-13.5 -5.5h-85q-7 0 -13 5.5t-6 13.5v963q0 7 6 13t13 6h85q8 0 13.5 -6t5.5 -13v-300q45 28 94 28q82 0 137.5 -61.5t55.5 -147.5q0 -89 -59 -149.5t-144 -60.5q-40 0 -84 22zM183 126q23 -27 74 -27q42 0 69.5 29t27.5 72q0 42 -26.5 72
t-68.5 30q-31 0 -51.5 -13t-24.5 -25v-138z" />
    <glyph glyph-name="ydieresis" unicode="&#xff;" horiz-adv-x="463" 
d="M171 28l-163 346q-5 10 0.5 18t16.5 8h90q11 0 17 -11l101 -226h1l100 226q6 11 24 11h80q12 0 17 -8t0 -18l-306 -662q-6 -12 -17 -12h-86q-11 0 -16.5 8.5t-0.5 18.5zM333 551q-26 0 -44.5 19t-18.5 45t18.5 44.5t44.5 18.5t45 -18.5t19 -44.5t-19 -45t-45 -19z
M132 551q-26 0 -44.5 19t-18.5 45t18.5 44.5t44.5 18.5t45 -18.5t19 -44.5t-19 -45t-45 -19z" />
    <glyph glyph-name="Amacron" unicode="&#x100;" horiz-adv-x="663" 
d="M17 0q-11 0 -16.5 8t-0.5 18l311 673q5 11 17 11h10q12 0 17 -11l308 -673q5 -10 -0.5 -18t-16.5 -8h-87q-19 0 -29 20l-49 108h-299l-49 -108q-8 -20 -29 -20h-87zM231 239h201l-100 220h-3zM203 808q-8 0 -13.5 5t-5.5 13v34q0 19 19 19h256q19 0 19 -19v-34
q0 -8 -5.5 -13t-13.5 -5h-256z" />
    <glyph glyph-name="amacron" unicode="&#x101;" horiz-adv-x="426" 
d="M31 127q0 55 43 90.5t117 35.5q18 0 36 -2.5t27 -5.5l10 -3q1 38 -11.5 53.5t-40.5 15.5q-63 0 -112 -15q-19 -6 -23 18l-9 52q-4 19 14 25q6 2 24 6t50.5 8.5t61.5 4.5q89 0 121.5 -42.5t32.5 -131.5v-217q0 -7 -6 -13t-13 -6h-36q-11 0 -17 14l-12 27q-56 -51 -122 -51
q-61 0 -98 37t-37 100zM141 127q0 -23 14.5 -37.5t37.5 -14.5q22 0 42.5 14t26.5 25v55q-27 12 -56 12t-47 -15t-18 -39zM89 570q-8 0 -13.5 5t-5.5 13v34q0 19 19 19h256q19 0 19 -19v-34q0 -8 -5.5 -13t-13.5 -5h-256z" />
    <glyph glyph-name="Abreve" unicode="&#x102;" horiz-adv-x="663" 
d="M17 0q-11 0 -16.5 8t-0.5 18l311 673q5 11 17 11h10q12 0 17 -11l308 -673q5 -10 -0.5 -18t-16.5 -8h-87q-19 0 -29 20l-49 108h-299l-49 -108q-8 -20 -29 -20h-87zM231 239h201l-100 220h-3zM332 766q-54 0 -93 33.5t-47 84.5q-2 9 3.5 15t14.5 6h37q13 0 17 -14
q8 -23 26 -38t42 -15q21 0 39.5 15.5t26.5 37.5q3 14 17 14h39q9 0 14 -6t4 -15q-8 -51 -47.5 -84.5t-92.5 -33.5z" />
    <glyph glyph-name="abreve" unicode="&#x103;" horiz-adv-x="426" 
d="M31 127q0 55 43 90.5t117 35.5q18 0 36 -2.5t27 -5.5l10 -3q1 38 -11.5 53.5t-40.5 15.5q-63 0 -112 -15q-19 -6 -23 18l-9 52q-4 19 14 25q6 2 24 6t50.5 8.5t61.5 4.5q89 0 121.5 -42.5t32.5 -131.5v-217q0 -7 -6 -13t-13 -6h-36q-11 0 -17 14l-12 27q-56 -51 -122 -51
q-61 0 -98 37t-37 100zM141 127q0 -23 14.5 -37.5t37.5 -14.5q22 0 42.5 14t26.5 25v55q-27 12 -56 12t-47 -15t-18 -39zM224 528q-54 0 -93 33.5t-47 84.5q-2 9 3 15.5t15 6.5h37q13 0 17 -14q8 -24 26 -38.5t42 -14.5q22 0 40 15.5t26 37.5q4 14 17 14h39q9 0 14 -6.5
t4 -15.5q-8 -51 -47.5 -84.5t-92.5 -33.5z" />
    <glyph glyph-name="Aogonek" unicode="&#x104;" horiz-adv-x="663" 
d="M17 0q-11 0 -16.5 8t-0.5 18l311 673q5 11 17 11h10q12 0 17 -11l308 -673q5 -10 -0.5 -18t-16.5 -8h-61q-45 -45 -45 -96q0 -27 17.5 -45.5t48.5 -18.5q10 0 46 9q8 2 14 -3t6 -14v-30q0 -13 -14 -19q-40 -10 -66 -10q-55 0 -91 28t-36 82q0 76 68 129l-52 116h-299
l-49 -108q-8 -20 -29 -20h-87zM231 239h201l-100 220h-3z" />
    <glyph glyph-name="aogonek" unicode="&#x105;" horiz-adv-x="426" 
d="M30 127q0 55 43 90.5t117 35.5q18 0 36 -2.5t28 -5.5l9 -3q1 40 -12 58.5t-46 18.5q-32 0 -106 -16q-20 -4 -23 18l-9 45q-4 19 14 25q6 2 24 6t50.5 8.5t61.5 4.5q89 0 121.5 -42.5t32.5 -131.5v-217q0 -7 -5.5 -13t-13.5 -6h-4q-45 -45 -45 -96q0 -27 17.5 -45.5
t48.5 -18.5q10 0 46 9q8 2 14 -3t6 -14v-30q0 -13 -14 -19q-40 -10 -66 -10q-55 0 -91 28t-36 82q0 35 18 67.5t32.5 46t20.5 16.5l-12 28q-56 -51 -122 -51q-61 0 -98 37t-37 100zM140 127q0 -23 14.5 -38.5t37.5 -15.5q22 0 43 15t26 29v52q-27 12 -56 12t-47 -15t-18 -39
z" />
    <glyph glyph-name="Cacute" unicode="&#x106;" horiz-adv-x="684" 
d="M40 349q0 150 105.5 255.5t255.5 105.5q138 0 242 -93q15 -14 1 -28l-61 -63q-12 -13 -25 0q-67 59 -154 59q-95 0 -159 -68.5t-64 -164.5q0 -95 64.5 -163t159.5 -68q83 0 153 57q13 12 25 0l62 -64q6 -6 5.5 -13.5t-6.5 -13.5q-100 -97 -243 -97q-150 0 -255.5 104.5
t-105.5 254.5zM335 768q-18 -8 -25 7l-18 35q-6 12 6 19l164 98q18 11 26 -3l28 -52q11 -19 -6 -27z" />
    <glyph glyph-name="cacute" unicode="&#x107;" horiz-adv-x="426" 
d="M29 200q0 87 64 148.5t149 61.5q89 0 148 -71q12 -16 -5 -28l-46 -44q-11 -9 -25 3q-28 32 -69 32q-40 0 -69 -30t-29 -72q0 -43 28 -72.5t69 -29.5q20 0 37 7t23 12t20 19q12 12 25 3l43 -37q17 -14 7 -28q-54 -84 -158 -84q-86 0 -149 60.5t-63 149.5zM171 528
q-19 -7 -26 6l-17 36q-6 11 6 19l163 97q18 12 26 -3l29 -51q9 -20 -6 -27z" />
    <glyph glyph-name="Ccircumflex" unicode="&#x108;" horiz-adv-x="684" 
d="M40 349q0 150 105.5 255.5t255.5 105.5q138 0 242 -93q15 -14 1 -28l-61 -63q-12 -13 -25 0q-67 59 -154 59q-95 0 -159 -68.5t-64 -164.5q0 -95 64.5 -163t159.5 -68q83 0 153 57q13 12 25 0l62 -64q6 -6 5.5 -13.5t-6.5 -13.5q-100 -97 -243 -97q-150 0 -255.5 104.5
t-105.5 254.5zM303 766q-14 -8 -23 3l-26 37q-7 10 6 19l130 101q10 8 21 0l130 -101q13 -9 6 -19l-26 -37q-9 -11 -23 -3l-97 61z" />
    <glyph glyph-name="ccircumflex" unicode="&#x109;" horiz-adv-x="426" 
d="M29 200q0 87 64 148.5t149 61.5q89 0 148 -71q12 -16 -5 -28l-46 -44q-11 -9 -25 3q-28 32 -69 32q-40 0 -69 -30t-29 -72q0 -43 28 -72.5t69 -29.5q20 0 37 7t23 12t20 19q12 12 25 3l43 -37q17 -14 7 -28q-54 -84 -158 -84q-86 0 -149 60.5t-63 149.5zM121 529l-26 37
q-7 10 6 19l130 101q10 8 21 0l130 -101q13 -9 6 -19l-26 -37q-9 -11 -23 -3l-97 61l-98 -61q-14 -8 -23 3z" />
    <glyph glyph-name="Cdotaccent" unicode="&#x10a;" horiz-adv-x="684" 
d="M40 349q0 150 105.5 255.5t255.5 105.5q138 0 242 -93q15 -14 1 -28l-61 -63q-12 -13 -25 0q-67 59 -154 59q-95 0 -159 -68.5t-64 -164.5q0 -95 64.5 -163t159.5 -68q83 0 153 57q13 12 25 0l62 -64q6 -6 5.5 -13.5t-6.5 -13.5q-100 -97 -243 -97q-150 0 -255.5 104.5
t-105.5 254.5zM402 781q-30 0 -51 21t-21 51t21 51t51 21t51 -21t21 -51t-21 -51t-51 -21z" />
    <glyph glyph-name="cdotaccent" unicode="&#x10b;" horiz-adv-x="426" 
d="M29 200q0 87 64 148.5t149 61.5q89 0 148 -71q12 -16 -5 -28l-46 -44q-11 -9 -25 3q-28 32 -69 32q-40 0 -69 -30t-29 -72q0 -43 28 -72.5t69 -29.5q20 0 37 7t23 12t20 19q12 12 25 3l43 -37q17 -14 7 -28q-54 -84 -158 -84q-86 0 -149 60.5t-63 149.5zM242 536
q-30 0 -51 21t-21 51t21 51t51 21t51 -21t21 -51t-21 -51t-51 -21z" />
    <glyph glyph-name="Ccaron" unicode="&#x10c;" horiz-adv-x="684" 
d="M40 349q0 150 105.5 255.5t255.5 105.5q138 0 242 -93q15 -14 1 -28l-61 -63q-12 -13 -25 0q-67 59 -154 59q-95 0 -159 -68.5t-64 -164.5q0 -95 64.5 -163t159.5 -68q83 0 153 57q13 12 25 0l62 -64q6 -6 5.5 -13.5t-6.5 -13.5q-100 -97 -243 -97q-150 0 -255.5 104.5
t-105.5 254.5zM390 764l-130 101q-13 9 -6 19l26 37q9 11 23 3l97 -61l98 61q14 8 23 -3l26 -37q7 -10 -6 -19l-130 -101q-10 -8 -21 0z" />
    <glyph glyph-name="ccaron" unicode="&#x10d;" horiz-adv-x="426" 
d="M29 200q0 87 64 148.5t149 61.5q89 0 148 -71q12 -16 -5 -28l-46 -44q-11 -9 -25 3q-28 32 -69 32q-40 0 -69 -30t-29 -72q0 -43 28 -72.5t69 -29.5q20 0 37 7t23 12t20 19q12 12 25 3l43 -37q17 -14 7 -28q-54 -84 -158 -84q-86 0 -149 60.5t-63 149.5zM231 524
l-130 101q-13 9 -6 19l26 37q9 11 23 3l97 -61l98 61q14 8 23 -3l26 -37q7 -10 -6 -19l-130 -101q-10 -8 -21 0z" />
    <glyph glyph-name="Dcaron" unicode="&#x10e;" horiz-adv-x="738" 
d="M91 19v662q0 8 5.5 13.5t12.5 5.5h237q145 0 248 -102.5t103 -246.5q0 -145 -103 -248t-248 -103h-237q-7 0 -12.5 5.5t-5.5 13.5zM220 122h114q97 0 161 65.5t64 163.5t-64 163t-161 65h-114v-457zM339 764l-130 101q-13 9 -6 19l26 37q9 11 23 3l97 -61l98 61
q14 8 23 -3l26 -37q7 -10 -6 -19l-130 -101q-10 -8 -21 0z" />
    <glyph glyph-name="dcaron" unicode="&#x10f;" horiz-adv-x="530" 
d="M30 200q0 89 55 149.5t143 60.5q43 0 89 -18v289q0 7 5.5 13t13.5 6h85q7 0 13 -6t6 -13v-662q0 -7 -6 -13t-13 -6h-39q-14 0 -19 19l-10 31q-5 -7 -15.5 -17t-44.5 -26.5t-71 -16.5q-81 0 -136.5 61.5t-55.5 148.5zM146 200q0 -43 26 -72.5t65 -29.5q35 0 56 20.5
t28 44.5v116q-28 23 -78 23q-42 0 -69.5 -29.5t-27.5 -72.5zM576 423l-14 14q-11 11 2 23q10 7 22.5 19t29 42t16.5 61h-2q-2 -1 -4.5 -1.5t-6 -1.5t-8.5 -1.5t-9 -0.5q-28 0 -47.5 19t-19.5 47t20.5 47.5t50.5 19.5q33 0 58 -25.5t25 -81.5q0 -101 -90 -181q-13 -9 -23 1z
" />
    <glyph glyph-name="Dcroat" unicode="&#x110;" horiz-adv-x="743" 
d="M96 19v302h-29q-7 0 -12.5 5.5t-5.5 13.5v13q0 8 5.5 13.5t12.5 5.5h29v309q0 8 5.5 13.5t12.5 5.5h237q145 0 248 -102.5t103 -246.5q0 -145 -103 -248t-248 -103h-237q-7 0 -12.5 5.5t-5.5 13.5zM225 122h114q97 0 161 65.5t64 163.5t-64 163t-161 65h-114v-207h165
q8 0 13.5 -5.5t5.5 -13.5v-14q0 -8 -5.5 -13t-13.5 -5h-165v-199z" />
    <glyph glyph-name="dcroat" unicode="&#x111;" 
d="M30 200q0 89 55 149.5t143 60.5q43 0 89 -18v141h-115q-8 0 -13.5 5t-5.5 13v14q0 8 5.5 13.5t13.5 5.5h115v97q0 7 5.5 13t13.5 6h85q7 0 13 -6t6 -13v-97h33q7 0 12.5 -5.5t5.5 -13.5v-13q0 -8 -5.5 -13.5t-12.5 -5.5h-33v-514q0 -7 -6 -13t-13 -6h-39q-14 0 -19 19
l-10 31q-5 -7 -15.5 -17t-44.5 -26.5t-71 -16.5q-81 0 -136.5 61.5t-55.5 148.5zM146 200q0 -43 26 -72.5t65 -29.5q35 0 56 20.5t28 44.5v114q-28 23 -78 23q-42 0 -69.5 -29t-27.5 -71z" />
    <glyph glyph-name="Emacron" unicode="&#x112;" horiz-adv-x="588" 
d="M91 19v662q0 8 5.5 13.5t13.5 5.5h407q8 0 13.5 -5.5t5.5 -13.5v-82q0 -8 -5.5 -13.5t-13.5 -5.5h-296v-164h247q8 0 13.5 -6t5.5 -13v-83q0 -8 -5.5 -13.5t-13.5 -5.5h-247v-175h296q8 0 13.5 -5.5t5.5 -13.5v-82q0 -8 -5.5 -13.5t-13.5 -5.5h-407q-8 0 -13.5 5.5
t-5.5 13.5zM189 808q-8 0 -13.5 5t-5.5 13v34q0 19 19 19h256q19 0 19 -19v-34q0 -8 -5.5 -13t-13.5 -5h-256z" />
    <glyph glyph-name="emacron" unicode="&#x113;" horiz-adv-x="445" 
d="M30 200q0 86 58 148t146 62q78 0 132.5 -53t54.5 -133q0 -13 -2 -27q-2 -17 -19 -17h-256q2 -34 28.5 -60.5t67.5 -26.5q43 0 78 25q17 10 26 0l41 -47q14 -14 -1 -26q-59 -55 -149 -55q-89 0 -147 61t-58 149zM153 250h151q-2 28 -23.5 48t-49.5 20q-30 0 -52 -19.5
t-26 -48.5zM103 570q-8 0 -13.5 5t-5.5 13v34q0 19 19 19h256q19 0 19 -19v-34q0 -8 -5.5 -13t-13.5 -5h-256z" />
    <glyph glyph-name="Ebreve" unicode="&#x114;" horiz-adv-x="588" 
d="M91 19v662q0 8 5.5 13.5t13.5 5.5h407q8 0 13.5 -5.5t5.5 -13.5v-82q0 -8 -5.5 -13.5t-13.5 -5.5h-296v-164h247q8 0 13.5 -6t5.5 -13v-83q0 -8 -5.5 -13.5t-13.5 -5.5h-247v-175h296q8 0 13.5 -5.5t5.5 -13.5v-82q0 -8 -5.5 -13.5t-13.5 -5.5h-407q-8 0 -13.5 5.5
t-5.5 13.5zM322 766q-54 0 -93 33.5t-47 84.5q-2 9 3.5 15t14.5 6h37q13 0 17 -14q8 -23 26 -38t42 -15q21 0 39.5 15.5t26.5 37.5q3 14 17 14h39q9 0 14 -6t4 -15q-8 -51 -47.5 -84.5t-92.5 -33.5z" />
    <glyph glyph-name="ebreve" unicode="&#x115;" horiz-adv-x="445" 
d="M30 200q0 86 58 148t146 62q78 0 132.5 -53t54.5 -133q0 -13 -2 -27q-2 -17 -19 -17h-256q2 -34 28.5 -60.5t67.5 -26.5q43 0 78 25q17 10 26 0l41 -47q14 -14 -1 -26q-59 -55 -149 -55q-89 0 -147 61t-58 149zM153 250h151q-2 28 -23.5 48t-49.5 20q-30 0 -52 -19.5
t-26 -48.5zM232 528q-54 0 -93 33.5t-47 84.5q-2 9 3 15.5t15 6.5h37q13 0 17 -14q8 -24 26 -38.5t42 -14.5q22 0 40 15.5t26 37.5q4 14 17 14h39q9 0 14 -6.5t4 -15.5q-8 -51 -47.5 -84.5t-92.5 -33.5z" />
    <glyph glyph-name="Edotaccent" unicode="&#x116;" horiz-adv-x="588" 
d="M91 19v662q0 8 5.5 13.5t13.5 5.5h407q8 0 13.5 -5.5t5.5 -13.5v-82q0 -8 -5.5 -13.5t-13.5 -5.5h-296v-164h247q8 0 13.5 -6t5.5 -13v-83q0 -8 -5.5 -13.5t-13.5 -5.5h-247v-175h296q8 0 13.5 -5.5t5.5 -13.5v-82q0 -8 -5.5 -13.5t-13.5 -5.5h-407q-8 0 -13.5 5.5
t-5.5 13.5zM322 781q-30 0 -51 21t-21 51t21 51t51 21t51 -21t21 -51t-21 -51t-51 -21z" />
    <glyph glyph-name="edotaccent" unicode="&#x117;" horiz-adv-x="445" 
d="M30 200q0 86 58 148t146 62q78 0 132.5 -53t54.5 -133q0 -13 -2 -27q-2 -17 -19 -17h-256q2 -34 28.5 -60.5t67.5 -26.5q43 0 78 25q17 10 26 0l41 -47q14 -14 -1 -26q-59 -55 -149 -55q-89 0 -147 61t-58 149zM153 250h151q-2 28 -23.5 48t-49.5 20q-30 0 -52 -19.5
t-26 -48.5zM232 536q-30 0 -51 21t-21 51t21 51t51 21t51 -21t21 -51t-21 -51t-51 -21z" />
    <glyph glyph-name="Eogonek" unicode="&#x118;" horiz-adv-x="588" 
d="M91 19v662q0 8 5.5 13.5t13.5 5.5h407q8 0 13.5 -5.5t5.5 -13.5v-82q0 -8 -5.5 -13.5t-13.5 -5.5h-296v-164h247q8 0 13.5 -6t5.5 -13v-83q0 -8 -5.5 -13.5t-13.5 -5.5h-247v-175h296q8 0 13.5 -5.5t5.5 -13.5v-69q0 -20 -16 -32q-46 -46 -46 -96q0 -27 17.5 -45.5
t48.5 -18.5q10 0 46 9q8 2 14 -3t6 -14v-30q0 -13 -14 -19q-40 -10 -66 -10q-55 0 -91 28t-36 82q0 67 55 117h-344q-8 0 -13.5 5.5t-5.5 13.5z" />
    <glyph glyph-name="eogonek" unicode="&#x119;" horiz-adv-x="446" 
d="M153 -117q0 60 48 110q-76 12 -123.5 70t-47.5 137q0 86 58 148t146 62q78 0 132.5 -53t54.5 -133q0 -13 -2 -27q-2 -17 -19 -17h-256q2 -34 28.5 -61t67.5 -27q42 0 78 26q19 11 26 0q8 -8 20.5 -23l20.5 -24q14 -14 -1 -26q-46 -43 -118 -53q-38 -42 -38 -88
q0 -27 17.5 -45.5t48.5 -18.5q10 0 46 9q8 2 14 -3t6 -14v-30q0 -13 -14 -19q-40 -10 -66 -10q-55 0 -91 28t-36 82zM153 250h151q-2 28 -23.5 48t-49.5 20q-30 0 -52 -19.5t-26 -48.5z" />
    <glyph glyph-name="Ecaron" unicode="&#x11a;" horiz-adv-x="588" 
d="M91 19v662q0 8 5.5 13.5t13.5 5.5h407q8 0 13.5 -5.5t5.5 -13.5v-82q0 -8 -5.5 -13.5t-13.5 -5.5h-296v-164h247q8 0 13.5 -6t5.5 -13v-83q0 -8 -5.5 -13.5t-13.5 -5.5h-247v-175h296q8 0 13.5 -5.5t5.5 -13.5v-82q0 -8 -5.5 -13.5t-13.5 -5.5h-407q-8 0 -13.5 5.5
t-5.5 13.5zM305 764l-130 101q-13 9 -6 19l26 37q9 11 23 3l97 -61l98 61q14 8 23 -3l26 -37q7 -10 -6 -19l-130 -101q-10 -8 -21 0z" />
    <glyph glyph-name="ecaron" unicode="&#x11b;" horiz-adv-x="445" 
d="M30 200q0 86 58 148t146 62q78 0 132.5 -53t54.5 -133q0 -13 -2 -27q-2 -17 -19 -17h-256q2 -34 28.5 -60.5t67.5 -26.5q43 0 78 25q17 10 26 0l41 -47q14 -14 -1 -26q-59 -55 -149 -55q-89 0 -147 61t-58 149zM153 250h151q-2 28 -23.5 48t-49.5 20q-30 0 -52 -19.5
t-26 -48.5zM221 524l-130 101q-13 9 -6 19l26 37q9 11 23 3l97 -61l98 61q14 8 23 -3l26 -37q7 -10 -6 -19l-130 -101q-10 -8 -21 0z" />
    <glyph glyph-name="Gcircumflex" unicode="&#x11c;" horiz-adv-x="712" 
d="M41 349q0 150 105 255.5t254 105.5q135 0 244 -93q14 -15 1 -28l-62 -65q-12 -12 -26 0q-66 58 -151 58q-93 0 -158.5 -68.5t-65.5 -163.5q0 -94 65.5 -161.5t159.5 -67.5q57 0 119 25v85h-80q-8 0 -13.5 5t-5.5 13v79q0 19 19 19h192q7 0 12.5 -5.5t5.5 -13.5v-256
q0 -10 -8 -16q-12 -7 -33 -18t-86 -29t-129 -18q-150 0 -254.5 104t-104.5 254zM301 766q-14 -8 -23 3l-26 37q-7 10 6 19l130 101q10 8 21 0l130 -101q13 -9 6 -19l-26 -37q-9 -11 -23 -3l-97 61z" />
    <glyph glyph-name="gcircumflex" unicode="&#x11d;" horiz-adv-x="462" 
d="M18 30q0 22 7.5 41.5t19 32t22.5 21.5t19 13l7 4q-30 34 -30 94q0 71 50.5 122.5t123.5 51.5h182q19 0 19 -19v-33q0 -14 -11 -17l-56 -18q4 -3 11 -10.5t18 -33.5t11 -58q0 -62 -47.5 -109.5t-123.5 -47.5q-22 0 -48.5 4t-31.5 4q-12 0 -24.5 -10.5t-12.5 -27.5
q0 -15 11.5 -24.5t28.5 -9.5h128q71 0 118 -38t47 -102q0 -73 -57.5 -121.5t-161.5 -48.5q-102 0 -153 41t-51 96q0 59 60 95v3q-13 4 -27.5 13t-31 34t-16.5 58zM170 231q0 -31 20 -51.5t50 -20.5q31 0 50 20t19 52t-19 52t-50 20q-30 0 -50 -20.5t-20 -51.5zM148 -151
q0 -26 24 -42.5t64 -16.5q42 0 67.5 17.5t25.5 45.5q0 18 -17 33.5t-56 15.5q-37 0 -65 -4q-43 -14 -43 -49zM129 529l-26 37q-7 10 6 19l130 101q10 8 21 0l130 -101q13 -9 6 -19l-26 -37q-9 -11 -23 -3l-97 61l-98 -61q-14 -8 -23 3z" />
    <glyph glyph-name="Gbreve" unicode="&#x11e;" horiz-adv-x="712" 
d="M41 349q0 150 105 255.5t254 105.5q135 0 244 -93q14 -15 1 -28l-62 -65q-12 -12 -26 0q-66 58 -151 58q-93 0 -158.5 -68.5t-65.5 -163.5q0 -94 65.5 -161.5t159.5 -67.5q57 0 119 25v85h-80q-8 0 -13.5 5t-5.5 13v79q0 19 19 19h192q7 0 12.5 -5.5t5.5 -13.5v-256
q0 -10 -8 -16q-12 -7 -33 -18t-86 -29t-129 -18q-150 0 -254.5 104t-104.5 254zM401 766q-54 0 -93 33.5t-47 84.5q-2 9 3.5 15t14.5 6h37q13 0 17 -14q8 -23 26 -38t42 -15q21 0 39.5 15.5t26.5 37.5q3 14 17 14h39q9 0 14 -6t4 -15q-8 -51 -47.5 -84.5t-92.5 -33.5z" />
    <glyph glyph-name="gbreve" unicode="&#x11f;" horiz-adv-x="462" 
d="M18 30q0 22 7.5 41.5t19 32t22.5 21.5t19 13l7 4q-30 34 -30 94q0 71 50.5 122.5t123.5 51.5h182q19 0 19 -19v-33q0 -14 -11 -17l-56 -18q4 -3 11 -10.5t18 -33.5t11 -58q0 -62 -47.5 -109.5t-123.5 -47.5q-22 0 -48.5 4t-31.5 4q-12 0 -24.5 -10.5t-12.5 -27.5
q0 -15 11.5 -24.5t28.5 -9.5h128q71 0 118 -38t47 -102q0 -73 -57.5 -121.5t-161.5 -48.5q-102 0 -153 41t-51 96q0 59 60 95v3q-13 4 -27.5 13t-31 34t-16.5 58zM170 231q0 -31 20 -51.5t50 -20.5q31 0 50 20t19 52t-19 52t-50 20q-30 0 -50 -20.5t-20 -51.5zM148 -151
q0 -26 24 -42.5t64 -16.5q42 0 67.5 17.5t25.5 45.5q0 18 -17 33.5t-56 15.5q-37 0 -65 -4q-43 -14 -43 -49zM249 528q-54 0 -93 33.5t-47 84.5q-2 9 3 15.5t15 6.5h37q13 0 17 -14q8 -24 26 -38.5t42 -14.5q22 0 40 15.5t26 37.5q3 14 17 14h39q9 0 14 -6.5t4 -15.5
q-8 -51 -47.5 -84.5t-92.5 -33.5z" />
    <glyph glyph-name="Gdotaccent" unicode="&#x120;" horiz-adv-x="712" 
d="M41 349q0 150 105 255.5t254 105.5q135 0 244 -93q14 -15 1 -28l-62 -65q-12 -12 -26 0q-66 58 -151 58q-93 0 -158.5 -68.5t-65.5 -163.5q0 -94 65.5 -161.5t159.5 -67.5q57 0 119 25v85h-80q-8 0 -13.5 5t-5.5 13v79q0 19 19 19h192q7 0 12.5 -5.5t5.5 -13.5v-256
q0 -10 -8 -16q-12 -7 -33 -18t-86 -29t-129 -18q-150 0 -254.5 104t-104.5 254zM401 781q-30 0 -51 21t-21 51t21 51t51 21t51 -21t21 -51t-21 -51t-51 -21z" />
    <glyph glyph-name="gdotaccent" unicode="&#x121;" horiz-adv-x="462" 
d="M18 30q0 22 7.5 41.5t19 32t22.5 21.5t19 13l7 4q-30 34 -30 94q0 71 50.5 122.5t123.5 51.5h182q19 0 19 -19v-33q0 -14 -11 -17l-56 -18q4 -3 11 -10.5t18 -33.5t11 -58q0 -62 -47.5 -109.5t-123.5 -47.5q-22 0 -48.5 4t-31.5 4q-12 0 -24.5 -10.5t-12.5 -27.5
q0 -15 11.5 -24.5t28.5 -9.5h128q71 0 118 -38t47 -102q0 -73 -57.5 -121.5t-161.5 -48.5q-102 0 -153 41t-51 96q0 59 60 95v3q-13 4 -27.5 13t-31 34t-16.5 58zM170 231q0 -31 20 -51.5t50 -20.5q31 0 50 20t19 52t-19 52t-50 20q-30 0 -50 -20.5t-20 -51.5zM148 -151
q0 -26 24 -42.5t64 -16.5q42 0 67.5 17.5t25.5 45.5q0 18 -17 33.5t-56 15.5q-37 0 -65 -4q-43 -14 -43 -49zM247 536q-30 0 -51 21t-21 51t21 51t51 21t51 -21t21 -51t-21 -51t-51 -21z" />
    <glyph glyph-name="Gcommaaccent" unicode="&#x122;" horiz-adv-x="712" 
d="M41 349q0 150 105 255.5t254 105.5q135 0 244 -93q14 -15 1 -28l-62 -65q-12 -12 -26 0q-66 58 -151 58q-93 0 -158.5 -68.5t-65.5 -163.5q0 -94 65.5 -161.5t159.5 -67.5q57 0 119 25v85h-80q-8 0 -13.5 5t-5.5 13v79q0 19 19 19h192q7 0 12.5 -5.5t5.5 -13.5v-256
q0 -10 -8 -16q-12 -7 -33 -18t-86 -29t-129 -18q-150 0 -254.5 104t-104.5 254zM396 -91q33 0 58 -25.5t25 -81.5q0 -101 -90 -181q-13 -10 -23 1l-15 14q-10 12 3 23q10 7 22.5 19t29 42t16.5 61l-2 -1q-2 0 -4.5 -1t-6.5 -1.5t-8.5 -1t-9.5 -0.5q-27 0 -47 19.5t-20 46.5
q0 28 20.5 47.5t51.5 19.5z" />
    <glyph glyph-name="gcommaaccent" unicode="&#x123;" horiz-adv-x="462" 
d="M252 529q-33 0 -58 25.5t-25 81.5q0 101 90 181q13 10 23 -1l15 -14q10 -12 -3 -23q-10 -7 -22.5 -19t-29 -42t-16.5 -61l2 1q2 0 4.5 1t6.5 1.5t8.5 1t9.5 0.5q27 0 47 -19.5t20 -46.5q0 -28 -20.5 -47.5t-51.5 -19.5zM18 30q0 22 7.5 41.5t19 32t22.5 21.5t19 13l7 4
q-30 34 -30 94q0 71 50.5 122.5t123.5 51.5h182q19 0 19 -19v-33q0 -14 -11 -17l-56 -18q4 -3 11 -10.5t18 -33.5t11 -58q0 -62 -47.5 -109.5t-123.5 -47.5q-22 0 -48.5 4t-31.5 4q-12 0 -24.5 -10.5t-12.5 -27.5q0 -15 11.5 -24.5t28.5 -9.5h128q71 0 118 -38t47 -102
q0 -73 -57.5 -121.5t-161.5 -48.5q-102 0 -153 41t-51 96q0 59 60 95v3q-13 4 -27.5 13t-31 34t-16.5 58zM170 231q0 -31 20 -51.5t50 -20.5q31 0 50 20t19 52t-19 52t-50 20q-30 0 -50 -20.5t-20 -51.5zM148 -151q0 -26 24 -42.5t64 -16.5q42 0 67.5 17.5t25.5 45.5
q0 18 -17 33.5t-56 15.5q-37 0 -65 -4q-43 -14 -43 -49z" />
    <glyph glyph-name="Hcircumflex" unicode="&#x124;" horiz-adv-x="769" 
d="M91 19v662q0 7 5.5 13t13.5 6h93q8 0 13.5 -5.5t5.5 -13.5v-265h326v265q0 8 5.5 13.5t13.5 5.5h92q7 0 13 -6t6 -13v-662q0 -7 -6 -13t-13 -6h-92q-8 0 -13.5 5.5t-5.5 13.5v276h-326v-276q0 -8 -5.5 -13.5t-13.5 -5.5h-93q-8 0 -13.5 6t-5.5 13zM291 766q-14 -8 -23 3
l-26 37q-7 10 6 19l130 101q10 8 21 0l130 -101q13 -9 6 -19l-26 -37q-9 -11 -23 -3l-97 61z" />
    <glyph glyph-name="hcircumflex" unicode="&#x125;" horiz-adv-x="520" 
d="M60 19v662q0 7 6 13t13 6h85q8 0 13.5 -6t5.5 -13v-304q44 33 106 33q89 0 134 -57.5t45 -141.5v-192q0 -7 -6 -13t-13 -6h-81q-8 0 -13.5 5.5t-5.5 13.5v193q0 41 -21.5 65.5t-57.5 24.5q-33 0 -56 -19.5t-31 -51.5v-212q0 -19 -21 -19h-83q-7 0 -13 6t-6 13zM-2 746
l-26 37q-7 10 6 19l130 101q10 8 21 0l130 -101q13 -9 6 -19l-26 -37q-9 -11 -23 -3l-97 61l-98 -61q-14 -8 -23 3z" />
    <glyph glyph-name="Hbar" unicode="&#x126;" horiz-adv-x="769" 
d="M91 19v514h-26q-7 0 -12.5 5.5t-5.5 13.5v13q0 8 5.5 13.5t12.5 5.5h26v97q0 7 5.5 13t13.5 6h93q8 0 13.5 -5.5t5.5 -13.5v-97h326v97q0 8 5.5 13.5t13.5 5.5h92q7 0 13 -6t6 -13v-97h26q8 0 13.5 -5.5t5.5 -13.5v-14q0 -8 -5.5 -13t-13.5 -5h-26v-514q0 -7 -6 -13
t-13 -6h-92q-8 0 -13.5 5.5t-5.5 13.5v276h-326v-276q0 -8 -5.5 -13.5t-13.5 -5.5h-93q-8 0 -13.5 6t-5.5 13zM222 416h326v117h-326v-117z" />
    <glyph glyph-name="hbar" unicode="&#x127;" horiz-adv-x="520" 
d="M60 19v514h-31q-7 0 -12.5 5.5t-5.5 13.5v13q0 8 5.5 13.5t12.5 5.5h31v97q0 7 6 13t13 6h85q8 0 13.5 -6t5.5 -13v-97h116q8 0 13.5 -5.5t5.5 -13.5v-14q0 -8 -5.5 -13t-13.5 -5h-116v-156q44 33 106 33q89 0 134 -57.5t45 -141.5v-192q0 -7 -6 -13t-13 -6h-81
q-8 0 -13.5 5.5t-5.5 13.5v191q0 41 -21.5 65.5t-57.5 24.5q-33 0 -56 -19.5t-31 -51.5v-210q0 -19 -21 -19h-83q-7 0 -13 6t-6 13z" />
    <glyph glyph-name="Itilde" unicode="&#x128;" horiz-adv-x="313" 
d="M91 19v662q0 7 5.5 13t13.5 6h93q7 0 13 -6t6 -13v-662q0 -7 -6 -13t-13 -6h-93q-8 0 -13.5 6t-5.5 13zM37 789l-29 21q-12 9 -6 23q8 15 12.5 22t19 25.5t33 27.5t39.5 9q28 0 59 -27.5t48 -27.5q12 0 21 9.5t13.5 19t13 15t17.5 -2.5l28 -20q13 -10 1 -31
q-30 -52 -60 -67q-17 -9 -37 -9q-28 0 -61.5 28t-47.5 28q-15 0 -25 -15t-18 -25.5t-21 -2.5z" />
    <glyph glyph-name="itilde" unicode="&#x129;" horiz-adv-x="241" 
d="M1 562l-29 21q-12 9 -6 23q8 15 12.5 22t19 25.5t33 27.5t39.5 9q28 0 59 -27.5t48 -27.5q12 0 21 9.5t13.5 19t13 15t17.5 -2.5l28 -20q13 -10 1 -31q-30 -52 -60 -67q-17 -9 -37 -9q-28 0 -61.5 28t-47.5 28q-15 0 -25 -15t-18 -25.5t-21 -2.5zM60 19v362q0 8 5.5 13.5
t13.5 5.5h83q8 0 13.5 -5.5t5.5 -13.5v-362q0 -7 -5.5 -13t-13.5 -6h-83q-7 0 -13 6t-6 13z" />
    <glyph glyph-name="Imacron" unicode="&#x12a;" horiz-adv-x="313" 
d="M91 19v662q0 7 5.5 13t13.5 6h93q7 0 13 -6t6 -13v-662q0 -7 -6 -13t-13 -6h-93q-8 0 -13.5 6t-5.5 13zM29 808q-8 0 -13.5 5t-5.5 13v34q0 19 19 19h256q19 0 19 -19v-34q0 -8 -5.5 -13t-13.5 -5h-256z" />
    <glyph glyph-name="imacron" unicode="&#x12b;" horiz-adv-x="241" 
d="M-7 570q-8 0 -13.5 5t-5.5 13v34q0 19 19 19h256q19 0 19 -19v-34q0 -8 -5.5 -13t-13.5 -5h-256zM60 19v362q0 8 5.5 13.5t13.5 5.5h83q8 0 13.5 -5.5t5.5 -13.5v-362q0 -7 -5.5 -13t-13.5 -6h-83q-7 0 -13 6t-6 13z" />
    <glyph glyph-name="Ibreve" unicode="&#x12c;" horiz-adv-x="313" 
d="M91 19v662q0 7 5.5 13t13.5 6h93q7 0 13 -6t6 -13v-662q0 -7 -6 -13t-13 -6h-93q-8 0 -13.5 6t-5.5 13zM157 766q-54 0 -93 33.5t-47 84.5q-2 9 3.5 15t14.5 6h37q13 0 17 -14q8 -23 26 -38t42 -15q21 0 39.5 15.5t26.5 37.5q3 14 17 14h39q9 0 14 -6t4 -15
q-8 -51 -47.5 -84.5t-92.5 -33.5z" />
    <glyph glyph-name="ibreve" unicode="&#x12d;" horiz-adv-x="241" 
d="M121 528q-54 0 -93 33.5t-47 84.5q-2 9 3 15.5t15 6.5h37q13 0 17 -14q8 -24 26 -38.5t42 -14.5q22 0 40 15.5t26 37.5q3 14 17 14h39q9 0 14 -6.5t4 -15.5q-8 -51 -47.5 -84.5t-92.5 -33.5zM60 19v362q0 8 5.5 13.5t13.5 5.5h83q8 0 13.5 -5.5t5.5 -13.5v-362
q0 -7 -5.5 -13t-13.5 -6h-83q-7 0 -13 6t-6 13z" />
    <glyph glyph-name="Iogonek" unicode="&#x12e;" horiz-adv-x="313" 
d="M91 19v662q0 7 5.5 13t13.5 6h93q7 0 13 -6t6 -13v-662q0 -7 -6 -13t-13 -6h-18q-45 -45 -45 -96q0 -27 17.5 -45.5t48.5 -18.5q10 0 46 9q8 2 14 -3t6 -14v-30q0 -13 -14 -19q-40 -10 -66 -10q-55 0 -91 28t-36 82q0 67 55 117h-10q-8 0 -13.5 6t-5.5 13z" />
    <glyph glyph-name="iogonek" unicode="&#x12f;" horiz-adv-x="241" 
d="M119 542q-28 0 -48 20t-20 49t20 49t48 20q29 0 49.5 -20t20.5 -49t-20.5 -49t-49.5 -20zM60 19v362q0 8 5.5 13.5t13.5 5.5h83q8 0 13.5 -5.5t5.5 -13.5v-362q0 -7 -5.5 -13t-13.5 -6h-18q-45 -45 -45 -96q0 -27 17.5 -45.5t48.5 -18.5q10 0 46 9q8 2 14 -3t6 -14v-30
q0 -13 -14 -19q-40 -10 -66 -10q-55 0 -91 28t-36 82q0 67 55 117q-7 0 -13 6t-6 13z" />
    <glyph glyph-name="Idotaccent" unicode="&#x130;" horiz-adv-x="313" 
d="M91 19v662q0 7 5.5 13t13.5 6h93q7 0 13 -6t6 -13v-662q0 -7 -6 -13t-13 -6h-93q-8 0 -13.5 6t-5.5 13zM157 781q-30 0 -51 21t-21 51t21 51t51 21t51 -21t21 -51t-21 -51t-51 -21z" />
    <glyph glyph-name="dotlessi" unicode="&#x131;" horiz-adv-x="241" 
d="M60 19v362q0 8 5.5 13.5t13.5 5.5h83q8 0 13.5 -5.5t5.5 -13.5v-362q0 -7 -5.5 -13t-13.5 -6h-83q-7 0 -13 6t-6 13z" />
    <glyph glyph-name="IJ" unicode="&#x132;" horiz-adv-x="750" 
d="M91 19v662q0 7 5.5 13t13.5 6h93q7 0 13 -6t6 -13v-662q0 -7 -6 -13t-13 -6h-93q-8 0 -13.5 6t-5.5 13zM316 63q-8 13 2 25l52 53q15 14 30 -1q30 -32 66 -32q32 0 56 26.5t24 74.5v472q0 8 5.5 13.5t13.5 5.5h94q8 0 13.5 -5.5t5.5 -13.5v-472q0 -101 -59.5 -160
t-150.5 -59q-93 0 -152 73z" />
    <glyph glyph-name="ij" unicode="&#x133;" 
d="M119 542q-28 0 -48 20t-20 49t20 49t48 20q29 0 49.5 -20t20.5 -49t-20.5 -49t-49.5 -20zM60 19v362q0 8 5.5 13.5t13.5 5.5h83q8 0 13.5 -5.5t5.5 -13.5v-362q0 -7 -5.5 -13t-13.5 -6h-83q-7 0 -13 6t-6 13zM378 542q-28 0 -48 20t-20 49t20 49t48 20q29 0 49.5 -20
t20.5 -49t-20.5 -49t-49.5 -20zM318 -108v489q0 8 5.5 13.5t13.5 5.5h84q8 0 13.5 -5.5t5.5 -13.5v-489q0 -96 -52 -149t-134 -53q-36 0 -69.5 12.5t-48.5 26.5q-12 9 -4 23l33 64q7 14 24 5q33 -20 59 -20q34 0 52 23.5t18 67.5z" />
    <glyph glyph-name="Jcircumflex" unicode="&#x134;" horiz-adv-x="418" 
d="M-16 63q-8 13 2 25l52 53q15 14 30 -1q30 -32 66 -32q32 0 56 26.5t24 74.5v472q0 8 5.5 13.5t13.5 5.5h94q8 0 13.5 -5.5t5.5 -13.5v-472q0 -101 -59.5 -160t-150.5 -59q-93 0 -152 73zM184 766q-14 -8 -23 3l-26 37q-7 10 6 19l130 101q10 8 21 0l130 -101q13 -9 6 -19
l-26 -37q-9 -11 -23 -3l-97 61z" />
    <glyph glyph-name="jcircumflex" unicode="&#x135;" horiz-adv-x="242" 
d="M60 -108v489q0 8 5.5 13.5t13.5 5.5h84q8 0 13.5 -5.5t5.5 -13.5v-489q0 -96 -52 -149t-134 -53q-36 0 -69.5 12.5t-48.5 26.5q-12 9 -4 23l33 64q7 14 24 5q32 -20 59 -20q34 0 52 23.5t18 67.5zM-1 529l-26 37q-7 10 6 19l130 101q10 8 21 0l130 -101q13 -9 6 -19
l-26 -37q-9 -11 -23 -3l-97 61l-98 -61q-14 -8 -23 3z" />
    <glyph glyph-name="Kcommaaccent" unicode="&#x136;" horiz-adv-x="655" 
d="M91 24v652q0 10 7 17t17 7h88q10 0 17 -7t7 -17v-270l252 284q8 10 19 10h100q14 0 20 -12.5t-4 -23.5l-261 -294l280 -335q8 -10 2 -22.5t-20 -12.5h-109q-13 0 -18 7l-261 322v-305q0 -10 -7 -17t-17 -7h-88q-10 0 -17 7t-7 17zM349 -91q33 0 58 -25.5t25 -81.5
q0 -101 -90 -181q-13 -10 -23 1l-15 14q-10 12 3 23q10 7 22.5 19t29 42t16.5 61l-2 -1q-2 0 -4.5 -1t-6.5 -1.5t-8.5 -1t-9.5 -0.5q-27 0 -47 19.5t-20 46.5q0 28 20.5 47.5t51.5 19.5z" />
    <glyph glyph-name="kcommaaccent" unicode="&#x137;" horiz-adv-x="489" 
d="M60 19v662q0 7 6 13t13 6h85q8 0 13.5 -6t5.5 -13v-433l138 140q14 12 25 12h91q12 0 16.5 -10.5t-3.5 -18.5l-149 -152l178 -191q8 -8 3.5 -18t-16.5 -10h-108q-11 0 -17 8l-158 180v-169q0 -7 -5.5 -13t-13.5 -6h-85q-7 0 -13 6t-6 13zM260 -91q33 0 58 -25.5t25 -81.5
q0 -101 -90 -181q-13 -10 -23 1l-15 14q-10 12 3 23q10 7 22.5 19t29 42t16.5 61l-2 -1q-2 0 -4.5 -1t-6.5 -1.5t-8.5 -1t-9.5 -0.5q-27 0 -47 19.5t-20 46.5q0 28 20.5 47.5t51.5 19.5z" />
    <glyph glyph-name="kgreenlandic" unicode="&#x138;" horiz-adv-x="493" 
d="M60 19v362q0 7 6 13t13 6h85q8 0 13.5 -6t5.5 -13v-159l151 166q10 12 25 12h91q12 0 16.5 -10.5t-3.5 -18.5l-166 -176l182 -167q8 -8 3.5 -18t-16.5 -10h-108q-6 0 -17 8l-158 154v-143q0 -7 -5.5 -13t-13.5 -6h-85q-7 0 -13 6t-6 13z" />
    <glyph glyph-name="Lacute" unicode="&#x139;" horiz-adv-x="505" 
d="M91 19v662q0 8 5.5 13.5t13.5 5.5h92q8 0 13.5 -6t5.5 -13v-561h255q8 0 13.5 -5.5t5.5 -13.5v-82q0 -8 -5.5 -13.5t-13.5 -5.5h-366q-8 0 -13.5 5.5t-5.5 13.5zM85 768q-18 -8 -25 7l-18 35q-6 12 6 19l164 98q18 11 26 -3l28 -52q11 -19 -6 -27z" />
    <glyph glyph-name="lacute" unicode="&#x13a;" horiz-adv-x="242" 
d="M60 19v662q0 7 6 13t13 6h84q7 0 13 -6t6 -13v-662q0 -7 -6 -13t-13 -6h-84q-7 0 -13 6t-6 13zM49 745q-19 -7 -26 6l-17 36q-6 11 6 19l163 97q18 12 26 -3l29 -51q9 -19 -6 -27z" />
    <glyph glyph-name="Lcommaaccent" unicode="&#x13b;" horiz-adv-x="506" 
d="M91 19v662q0 8 5.5 13.5t13.5 5.5h92q8 0 13.5 -6t5.5 -13v-561h255q8 0 13.5 -5.5t5.5 -13.5v-82q0 -8 -5.5 -13.5t-13.5 -5.5h-366q-8 0 -13.5 5.5t-5.5 13.5zM292 -91q33 0 58 -25.5t25 -81.5q0 -101 -90 -181q-13 -10 -23 1l-15 14q-10 12 3 23q10 7 22.5 19t29 42
t16.5 61l-2 -1q-2 0 -4.5 -1t-6.5 -1.5t-8.5 -1t-9.5 -0.5q-27 0 -47 19.5t-20 46.5q0 28 20.5 47.5t51.5 19.5z" />
    <glyph glyph-name="lcommaaccent" unicode="&#x13c;" horiz-adv-x="242" 
d="M60 19v662q0 7 6 13t13 6h84q7 0 13 -6t6 -13v-662q0 -7 -6 -13t-13 -6h-84q-7 0 -13 6t-6 13zM117 -91q33 0 58 -25.5t25 -81.5q0 -101 -90 -181q-13 -10 -23 1l-15 14q-10 12 3 23q10 7 22.5 19t29 42t16.5 61l-2 -1q-2 0 -4.5 -1t-6.5 -1.5t-8.5 -1t-9.5 -0.5
q-27 0 -47 19.5t-20 46.5q0 28 20.5 47.5t51.5 19.5z" />
    <glyph glyph-name="Lcaron" unicode="&#x13d;" horiz-adv-x="505" 
d="M91 19v662q0 8 5.5 13.5t13.5 5.5h92q8 0 13.5 -6t5.5 -13v-561h255q8 0 13.5 -5.5t5.5 -13.5v-82q0 -8 -5.5 -13.5t-13.5 -5.5h-366q-8 0 -13.5 5.5t-5.5 13.5zM397 710q33 0 58 -25.5t25 -81.5q0 -101 -90 -181q-13 -10 -23 1l-15 14q-10 12 3 23q10 7 22.5 19t29 42
t16.5 61h-2q-2 -1 -4.5 -1.5t-6.5 -1.5t-8.5 -1.5t-9.5 -0.5q-27 0 -47 19.5t-20 46.5q0 28 20.5 47.5t51.5 19.5z" />
    <glyph glyph-name="lcaron" unicode="&#x13e;" horiz-adv-x="272" 
d="M60 19v662q0 7 6 13t13 6h84q7 0 13 -6t6 -13v-662q0 -7 -6 -13t-13 -6h-84q-7 0 -13 6t-6 13zM318 423l-14 14q-11 11 2 23q10 7 22.5 19t29 42t16.5 61h-2q-2 -1 -4.5 -1.5t-6 -1.5t-8.5 -1.5t-9 -0.5q-28 0 -47.5 19t-19.5 47t20.5 47.5t50.5 19.5q33 0 58 -25.5
t25 -81.5q0 -101 -90 -181q-13 -9 -23 1z" />
    <glyph glyph-name="Ldot" unicode="&#x13f;" horiz-adv-x="577" 
d="M91 19v662q0 8 5.5 13.5t13.5 5.5h92q8 0 13.5 -6t5.5 -13v-561h255q8 0 13.5 -5.5t5.5 -13.5v-82q0 -8 -5.5 -13.5t-13.5 -5.5h-366q-8 0 -13.5 5.5t-5.5 13.5zM481 284q-30 0 -51 21t-21 51t21 51t51 21t51 -21t21 -51t-21 -51t-51 -21z" />
    <glyph glyph-name="ldot" unicode="&#x140;" horiz-adv-x="395" 
d="M60 19v662q0 7 6 13t13 6h84q7 0 13 -6t6 -13v-662q0 -7 -6 -13t-13 -6h-84q-7 0 -13 6t-6 13zM318 288q-30 0 -51 21t-21 51t21 51t51 21t51 -21t21 -51t-21 -51t-51 -21z" />
    <glyph glyph-name="Lslash" unicode="&#x141;" horiz-adv-x="518" 
d="M104 19v287l-23 -12q-6 -4 -13.5 -2t-11.5 9l-7 12q-10 16 6 25l49 27v316q0 8 5.5 13.5t13.5 5.5h92q7 0 13 -6t6 -13v-240l87 51q16 8 26 -7l7 -13q9 -14 -7 -25l-113 -66v-261h255q8 0 13.5 -5.5t5.5 -13.5v-82q0 -8 -5.5 -13.5t-13.5 -5.5h-366q-8 0 -13.5 5.5
t-5.5 13.5z" />
    <glyph glyph-name="lslash" unicode="&#x142;" horiz-adv-x="257" 
d="M74 19v292l-34 -19q-17 -10 -26 7l-6 12q-10 16 6 25l60 34v311q0 7 6 13t13 6h84q7 0 13 -6t6 -13v-239l63 37q17 10 26 -7l7 -13q4 -6 2 -13.5t-9 -11.5l-89 -52v-363q0 -7 -6 -13t-13 -6h-84q-7 0 -13 6t-6 13z" />
    <glyph glyph-name="Nacute" unicode="&#x143;" horiz-adv-x="773" 
d="M91 19v673q0 7 5.5 12.5t13.5 5.5h25l416 -442h1v413q0 8 5.5 13.5t13.5 5.5h92q7 0 13 -6t6 -13v-673q0 -7 -5.5 -12.5t-13.5 -5.5h-24l-418 459h-1v-430q0 -8 -5.5 -13.5t-13.5 -5.5h-91q-8 0 -13.5 6t-5.5 13zM319 768q-18 -8 -25 7l-18 35q-6 12 6 19l164 98
q18 11 26 -3l28 -52q11 -19 -6 -27z" />
    <glyph glyph-name="nacute" unicode="&#x144;" horiz-adv-x="519" 
d="M60 19v362q0 8 5.5 13.5t13.5 5.5h38q12 0 17 -12l14 -37q55 59 141 59q90 0 134 -57t44 -142v-192q0 -7 -5.5 -13t-13.5 -6h-82q-8 0 -13.5 5.5t-5.5 13.5v198q0 39 -19.5 62t-55.5 23t-60.5 -19.5t-33.5 -43.5v-220q0 -19 -25 -19h-74q-7 0 -13 6t-6 13zM198 528
q-19 -7 -26 6l-17 36q-6 11 6 19l163 97q18 12 26 -3l29 -51q9 -20 -6 -27z" />
    <glyph glyph-name="Ncommaaccent" unicode="&#x145;" horiz-adv-x="773" 
d="M91 19v673q0 7 5.5 12.5t13.5 5.5h25l416 -442h1v413q0 8 5.5 13.5t13.5 5.5h92q7 0 13 -6t6 -13v-673q0 -7 -5.5 -12.5t-13.5 -5.5h-24l-418 459h-1v-430q0 -8 -5.5 -13.5t-13.5 -5.5h-91q-8 0 -13.5 6t-5.5 13zM399 -91q33 0 58 -25.5t25 -81.5q0 -101 -90 -181
q-13 -10 -23 1l-15 14q-10 12 3 23q10 7 22.5 19t29 42t16.5 61l-2 -1q-2 0 -4.5 -1t-6.5 -1.5t-8.5 -1t-9.5 -0.5q-27 0 -47 19.5t-20 46.5q0 28 20.5 47.5t51.5 19.5z" />
    <glyph glyph-name="ncommaaccent" unicode="&#x146;" horiz-adv-x="520" 
d="M60 19v362q0 8 5.5 13.5t13.5 5.5h38q12 0 17 -12l14 -37q55 59 141 59q90 0 134 -57t44 -142v-192q0 -7 -5.5 -13t-13.5 -6h-82q-8 0 -13.5 5.5t-5.5 13.5v198q0 39 -19.5 62t-55.5 23t-60.5 -19.5t-33.5 -43.5v-220q0 -19 -25 -19h-74q-7 0 -13 6t-6 13zM259 -91
q33 0 58 -25.5t25 -81.5q0 -101 -90 -181q-13 -10 -23 1l-15 14q-10 12 3 23q10 7 22.5 19t29 42t16.5 61l-2 -1q-2 0 -4.5 -1t-6.5 -1.5t-8.5 -1t-9.5 -0.5q-27 0 -47 19.5t-20 46.5q0 28 20.5 47.5t51.5 19.5z" />
    <glyph glyph-name="Ncaron" unicode="&#x147;" horiz-adv-x="773" 
d="M91 19v673q0 7 5.5 12.5t13.5 5.5h25l416 -442h1v413q0 8 5.5 13.5t13.5 5.5h92q7 0 13 -6t6 -13v-673q0 -7 -5.5 -12.5t-13.5 -5.5h-24l-418 459h-1v-430q0 -8 -5.5 -13.5t-13.5 -5.5h-91q-8 0 -13.5 6t-5.5 13zM374 764l-130 101q-13 9 -6 19l26 37q9 11 23 3l97 -61
l98 61q14 8 23 -3l26 -37q7 -10 -6 -19l-130 -101q-10 -8 -21 0z" />
    <glyph glyph-name="ncaron" unicode="&#x148;" horiz-adv-x="519" 
d="M60 19v362q0 8 5.5 13.5t13.5 5.5h38q12 0 17 -12l14 -37q55 59 141 59q90 0 134 -57t44 -142v-192q0 -7 -5.5 -13t-13.5 -6h-82q-8 0 -13.5 5.5t-5.5 13.5v198q0 39 -19.5 62t-55.5 23t-60.5 -19.5t-33.5 -43.5v-220q0 -19 -25 -19h-74q-7 0 -13 6t-6 13zM259 524
l-130 101q-13 9 -6 19l26 37q9 11 23 3l97 -61l98 61q14 8 23 -3l26 -37q7 -10 -6 -19l-130 -101q-10 -8 -21 0z" />
    <glyph glyph-name="napostrophe" unicode="&#x149;" horiz-adv-x="519" 
d="M60 19v362q0 8 5.5 13.5t13.5 5.5h38q12 0 17 -12l14 -37q55 59 141 59q90 0 134 -57t44 -142v-192q0 -7 -5.5 -13t-13.5 -6h-82q-8 0 -13.5 5.5t-5.5 13.5v198q0 39 -19.5 62t-55.5 23t-60.5 -19.5t-33.5 -43.5v-220q0 -19 -25 -19h-74q-7 0 -13 6t-6 13zM-85 710
q33 0 58 -25.5t25 -81.5q0 -101 -90 -181q-13 -10 -23 1l-15 14q-10 12 3 23q10 7 22.5 19t29 42t16.5 61h-2q-2 -1 -4.5 -1.5t-6.5 -1.5t-8.5 -1.5t-9.5 -0.5q-27 0 -47 19.5t-20 46.5q0 28 20.5 47.5t51.5 19.5z" />
    <glyph glyph-name="Eng" unicode="&#x14a;" horiz-adv-x="773" 
d="M91 19v673q0 7 5.5 12.5t13.5 5.5h25l416 -442h1v413q0 8 5.5 13.5t13.5 5.5h92q7 0 13 -6t6 -13v-789q0 -96 -52 -149t-134 -53q-36 0 -69.5 12.5t-48.5 26.5q-12 9 -4 23l33 64q7 14 24 5q33 -20 59 -20q67 0 67 91v187l-336 370h-1v-430q0 -8 -5.5 -13.5t-13.5 -5.5
h-91q-8 0 -13.5 6t-5.5 13z" />
    <glyph glyph-name="eng" unicode="&#x14b;" horiz-adv-x="519" 
d="M60 19v362q0 8 5.5 13.5t13.5 5.5h38q12 0 17 -12l14 -37q55 59 141 59q90 0 134 -57t44 -142v-319q0 -96 -52 -149t-134 -53q-36 0 -69.5 12.5t-48.5 26.5q-12 9 -4 23l33 64q7 14 24 5q32 -20 59 -20q34 0 53 24t19 67v319q0 39 -19.5 62t-55.5 23t-60.5 -19.5
t-33.5 -43.5v-214q0 -19 -25 -19h-74q-7 0 -13 6t-6 13z" />
    <glyph glyph-name="Omacron" unicode="&#x14c;" horiz-adv-x="800" 
d="M41 349q0 150 104.5 255.5t254.5 105.5t255 -105.5t105 -255.5t-105 -254.5t-255 -104.5t-254.5 104.5t-104.5 254.5zM171 349q0 -95 67.5 -162t161.5 -67q95 0 162.5 67.5t67.5 161.5q0 95 -68 163t-162 68t-161.5 -68t-67.5 -163zM272 808q-8 0 -13.5 5t-5.5 13v34
q0 19 19 19h256q19 0 19 -19v-34q0 -8 -5.5 -13t-13.5 -5h-256z" />
    <glyph glyph-name="omacron" unicode="&#x14d;" horiz-adv-x="468" 
d="M29 201q0 85 60.5 147t144.5 62t144.5 -62t60.5 -147q0 -86 -60 -148.5t-145 -62.5t-145 62.5t-60 148.5zM138 201q0 -43 28 -73t68 -30t68 30t28 73q0 42 -28 71.5t-68 29.5t-68 -29.5t-28 -71.5zM106 570q-8 0 -13.5 5t-5.5 13v34q0 19 19 19h256q19 0 19 -19v-34
q0 -8 -5.5 -13t-13.5 -5h-256z" />
    <glyph glyph-name="Obreve" unicode="&#x14e;" horiz-adv-x="800" 
d="M41 349q0 150 104.5 255.5t254.5 105.5t255 -105.5t105 -255.5t-105 -254.5t-255 -104.5t-254.5 104.5t-104.5 254.5zM171 349q0 -95 67.5 -162t161.5 -67q95 0 162.5 67.5t67.5 161.5q0 95 -68 163t-162 68t-161.5 -68t-67.5 -163zM400 766q-54 0 -93 33.5t-47 84.5
q-2 9 3.5 15t14.5 6h37q13 0 17 -14q8 -23 26 -38t42 -15q21 0 39.5 15.5t26.5 37.5q3 14 17 14h39q9 0 14 -6t4 -15q-8 -51 -47.5 -84.5t-92.5 -33.5z" />
    <glyph glyph-name="obreve" unicode="&#x14f;" horiz-adv-x="468" 
d="M29 201q0 85 60.5 147t144.5 62t144.5 -62t60.5 -147q0 -86 -60 -148.5t-145 -62.5t-145 62.5t-60 148.5zM138 201q0 -43 28 -73t68 -30t68 30t28 73q0 42 -28 71.5t-68 29.5t-68 -29.5t-28 -71.5zM235 528q-54 0 -93 33.5t-47 84.5q-2 9 3 15.5t15 6.5h37q13 0 17 -14
q8 -24 26 -38.5t42 -14.5q22 0 40 15.5t26 37.5q3 14 17 14h39q9 0 14 -6.5t4 -15.5q-8 -51 -47.5 -84.5t-92.5 -33.5z" />
    <glyph glyph-name="Ohungarumlaut" unicode="&#x150;" horiz-adv-x="800" 
d="M41 349q0 150 104.5 255.5t254.5 105.5t255 -105.5t105 -255.5t-105 -254.5t-255 -104.5t-254.5 104.5t-104.5 254.5zM171 349q0 -95 67.5 -162t161.5 -67q95 0 162.5 67.5t67.5 161.5q0 95 -68 163t-162 68t-161.5 -68t-67.5 -163zM479 768q-11 0 -16 5.5t-3 13.5
l37 141q6 19 19 19h76q14 0 19 -8t-1 -17l-78 -139q-8 -15 -18 -15h-35zM313 768q-11 0 -16 5.5t-3 13.5l37 141q6 19 19 19h76q14 0 19 -7.5t-1 -17.5l-78 -139q-8 -15 -18 -15h-35z" />
    <glyph glyph-name="ohungarumlaut" unicode="&#x151;" horiz-adv-x="468" 
d="M29 201q0 85 60.5 147t144.5 62t144.5 -62t60.5 -147q0 -86 -60 -148.5t-145 -62.5t-145 62.5t-60 148.5zM138 201q0 -43 28 -73t68 -30t68 30t28 73q0 42 -28 71.5t-68 29.5t-68 -29.5t-28 -71.5zM304 521q-11 0 -16 5.5t-3 13.5l37 141q6 19 19 19h76q14 0 19 -8
t-1 -17l-78 -139q-7 -15 -18 -15h-35zM138 521q-11 0 -16 5.5t-3 13.5l37 141q6 19 19 19h76q14 0 19 -7.5t-1 -17.5l-78 -139q-7 -15 -18 -15h-35z" />
    <glyph glyph-name="OE" unicode="&#x152;" horiz-adv-x="975" 
d="M41 349q0 150 104.5 255.5t254.5 105.5q24 0 48 -2.5t36 -5.5l13 -2h407q8 0 13.5 -5.5t5.5 -13.5v-82q0 -8 -5.5 -13.5t-13.5 -5.5h-296v-164h247q7 0 13 -6t6 -13v-83q0 -8 -5.5 -13.5t-13.5 -5.5h-247v-175h296q8 0 13.5 -5.5t5.5 -13.5v-82q0 -8 -5.5 -13.5
t-13.5 -5.5h-407q-56 -10 -97 -10q-150 0 -254.5 104.5t-104.5 254.5zM171 349q0 -95 67.5 -163t161.5 -68q46 0 78 13v437q-39 14 -78 14q-94 0 -161.5 -69t-67.5 -164z" />
    <glyph glyph-name="oe" unicode="&#x153;" horiz-adv-x="732" 
d="M29 202q0 85 60.5 146.5t144.5 61.5q83 0 143 -63q57 63 144 63q77 0 132 -52.5t55 -133.5q0 -13 -2 -27q-2 -17 -19 -17h-255q4 -34 30 -61t65 -27q41 0 79 26q17 11 26 0l40 -47q12 -16 -1 -26q-57 -55 -149 -55q-87 0 -145 63q-58 -63 -143 -63q-84 0 -144.5 62.5
t-60.5 149.5zM441 250h150q-1 28 -22.5 47.5t-50.5 19.5q-30 0 -51.5 -19t-25.5 -48zM138 202q0 -43 28 -73.5t68 -30.5t68 30.5t28 73.5q0 42 -28 71t-68 29t-68 -29t-28 -71z" />
    <glyph glyph-name="Racute" unicode="&#x154;" horiz-adv-x="666" 
d="M91 19v662q0 8 5.5 13.5t13.5 5.5h286q90 0 154 -63t64 -152q0 -68 -40.5 -121.5t-107.5 -80.5l137 -254q6 -10 0.5 -19.5t-17.5 -9.5h-105q-11 0 -16 9l-133 265h-111v-255q0 -7 -5.5 -13t-13.5 -6h-92q-8 0 -13.5 5.5t-5.5 13.5zM222 381h163q40 0 69.5 30t29.5 72
q0 40 -29.5 68.5t-69.5 28.5h-163v-199zM258 768q-18 -8 -25 7l-18 35q-6 12 6 19l164 98q18 11 26 -3l28 -52q11 -19 -6 -27z" />
    <glyph glyph-name="racute" unicode="&#x155;" horiz-adv-x="341" 
d="M60 19v362q0 8 5.5 13.5t13.5 5.5h38q13 0 18 -13l14 -39q43 62 113 62q38 0 62 -11t15 -29l-37 -65q-9 -16 -23 -9q-18 6 -29 6q-27 0 -45.5 -13.5t-25.5 -27.5v-242q0 -19 -23 -19h-77q-7 0 -13 6t-6 13zM108 528q-19 -7 -26 6l-17 36q-6 11 6 19l163 97q18 12 26 -3
l29 -51q9 -20 -6 -27z" />
    <glyph glyph-name="Rcommaaccent" unicode="&#x156;" horiz-adv-x="666" 
d="M91 19v662q0 8 5.5 13.5t13.5 5.5h286q90 0 154 -63t64 -152q0 -68 -40.5 -121.5t-107.5 -80.5l137 -254q6 -10 0.5 -19.5t-17.5 -9.5h-105q-11 0 -16 9l-133 265h-111v-255q0 -7 -5.5 -13t-13.5 -6h-92q-8 0 -13.5 5.5t-5.5 13.5zM222 381h163q40 0 69.5 30t29.5 72
q0 40 -29.5 68.5t-69.5 28.5h-163v-199zM338 -91q33 0 58 -25.5t25 -81.5q0 -101 -90 -181q-13 -10 -23 1l-15 14q-10 12 3 23q10 7 22.5 19t29 42t16.5 61l-2 -1q-2 0 -4.5 -1t-6.5 -1.5t-8.5 -1t-9.5 -0.5q-27 0 -47 19.5t-20 46.5q0 28 20.5 47.5t51.5 19.5z" />
    <glyph glyph-name="rcommaaccent" unicode="&#x157;" horiz-adv-x="341" 
d="M60 19v362q0 8 5.5 13.5t13.5 5.5h38q13 0 18 -13l14 -39q43 62 113 62q38 0 62 -11t15 -29l-37 -65q-9 -16 -23 -9q-18 6 -29 6q-27 0 -45.5 -13.5t-25.5 -27.5v-242q0 -19 -23 -19h-77q-7 0 -13 6t-6 13zM113 -91q33 0 58 -25.5t25 -81.5q0 -101 -90 -181
q-13 -10 -23 1l-15 14q-10 12 3 23q10 7 22.5 19t29 42t16.5 61l-2 -1q-2 0 -4.5 -1t-6.5 -1.5t-8.5 -1t-9.5 -0.5q-27 0 -47 19.5t-20 46.5q0 28 20.5 47.5t51.5 19.5z" />
    <glyph glyph-name="Rcaron" unicode="&#x158;" horiz-adv-x="666" 
d="M91 19v662q0 8 5.5 13.5t13.5 5.5h286q90 0 154 -63t64 -152q0 -68 -40.5 -121.5t-107.5 -80.5l137 -254q6 -10 0.5 -19.5t-17.5 -9.5h-105q-11 0 -16 9l-133 265h-111v-255q0 -7 -5.5 -13t-13.5 -6h-92q-8 0 -13.5 5.5t-5.5 13.5zM222 381h163q40 0 69.5 30t29.5 72
q0 40 -29.5 68.5t-69.5 28.5h-163v-199zM313 764l-130 101q-13 9 -6 19l26 37q9 11 23 3l97 -61l98 61q14 8 23 -3l26 -37q7 -10 -6 -19l-130 -101q-10 -8 -21 0z" />
    <glyph glyph-name="rcaron" unicode="&#x159;" horiz-adv-x="341" 
d="M60 19v362q0 8 5.5 13.5t13.5 5.5h38q13 0 18 -13l14 -39q43 62 113 62q38 0 62 -11t15 -29l-37 -65q-9 -16 -23 -9q-18 6 -29 6q-27 0 -45.5 -13.5t-25.5 -27.5v-242q0 -19 -23 -19h-77q-7 0 -13 6t-6 13zM164 524l-130 101q-13 9 -6 19l26 37q9 11 23 3l97 -61l98 61
q14 8 23 -3l26 -37q7 -10 -6 -19l-130 -101q-10 -8 -21 0z" />
    <glyph glyph-name="Sacute" unicode="&#x15a;" horiz-adv-x="542" 
d="M55 68q-14 14 -5 30l36 62q6 10 17 11.5t17 -4.5l5 -3q5 -4 11.5 -8l16.5 -10l20 -11.5t23 -11t25 -9.5t25 -6.5t25 -2.5q39 0 65 22.5t26 54.5q0 37 -31 65.5t-96 54.5q-84 34 -136 85t-52 131q0 76 57.5 134t167.5 58q111 0 200 -67q7 -4 9 -15t-3 -18l-38 -57
q-16 -24 -35 -12q-88 55 -139 55q-40 0 -64 -22t-24 -48q0 -35 28 -61t90 -51q43 -17 74.5 -34.5t65 -44t51.5 -64t18 -83.5q0 -81 -64 -139.5t-166 -58.5q-57 0 -108.5 17t-73.5 31.5t-38 29.5zM203 768q-18 -8 -25 7l-18 35q-6 12 6 19l164 98q18 11 26 -3l28 -52
q11 -19 -6 -27z" />
    <glyph glyph-name="sacute" unicode="&#x15b;" horiz-adv-x="364" 
d="M44 27q-12 10 -6 21l27 54q6 16 23 7q45 -24 91 -24q34 0 34 25q0 14 -14 24t-53 26q-113 44 -113 132q0 50 37.5 84t109.5 34q76 0 123 -31q17 -11 9 -27l-25 -51q-7 -13 -24 -7q-45 21 -83 21q-34 0 -34 -23q0 -12 9.5 -18t38.5 -18q5 -2 7 -3q67 -26 101 -56.5
t34 -84.5q0 -52 -43 -87t-116 -35q-84 0 -133 37zM115 528q-19 -7 -26 6l-17 36q-6 11 6 19l163 97q18 12 26 -3l29 -51q9 -20 -6 -27z" />
    <glyph glyph-name="Scircumflex" unicode="&#x15c;" horiz-adv-x="542" 
d="M55 68q-14 14 -5 30l36 62q6 10 17 11.5t17 -4.5l5 -3q5 -4 11.5 -8l16.5 -10l20 -11.5t23 -11t25 -9.5t25 -6.5t25 -2.5q39 0 65 22.5t26 54.5q0 37 -31 65.5t-96 54.5q-84 34 -136 85t-52 131q0 76 57.5 134t167.5 58q111 0 200 -67q7 -4 9 -15t-3 -18l-38 -57
q-16 -24 -35 -12q-88 55 -139 55q-40 0 -64 -22t-24 -48q0 -35 28 -61t90 -51q43 -17 74.5 -34.5t65 -44t51.5 -64t18 -83.5q0 -81 -64 -139.5t-166 -58.5q-57 0 -108.5 17t-73.5 31.5t-38 29.5zM173 766q-14 -8 -23 3l-26 37q-7 10 6 19l130 101q10 8 21 0l130 -101
q13 -9 6 -19l-26 -37q-9 -11 -23 -3l-97 61z" />
    <glyph glyph-name="scircumflex" unicode="&#x15d;" horiz-adv-x="364" 
d="M44 27q-12 10 -6 21l27 54q6 16 23 7q45 -24 91 -24q34 0 34 25q0 14 -14 24t-53 26q-113 44 -113 132q0 50 37.5 84t109.5 34q76 0 123 -31q17 -11 9 -27l-25 -51q-7 -13 -24 -7q-45 21 -83 21q-34 0 -34 -23q0 -12 9.5 -18t38.5 -18q5 -2 7 -3q67 -26 101 -56.5
t34 -84.5q0 -52 -43 -87t-116 -35q-84 0 -133 37zM60 529l-26 37q-7 10 6 19l130 101q10 8 21 0l130 -101q13 -9 6 -19l-26 -37q-9 -11 -23 -3l-97 61l-98 -61q-14 -8 -23 3z" />
    <glyph glyph-name="Scedilla" unicode="&#x15e;" horiz-adv-x="543" 
d="M55 68q-14 14 -5 30l36 62q6 10 17 11.5t17 -4.5l5 -3q5 -4 11.5 -8l16.5 -10l20 -11.5t23 -11t25 -9.5t25 -6.5t25 -2.5q39 0 65 22.5t26 54.5q0 37 -31 65.5t-96 54.5q-84 34 -136 85t-52 131q0 76 57.5 134t167.5 58q111 0 200 -67q7 -4 9 -15t-3 -18l-38 -57
q-16 -24 -35 -12q-88 55 -139 55q-40 0 -64 -22t-24 -48q0 -35 28 -61t90 -51q43 -17 74.5 -34.5t65 -44t51.5 -64t18 -83.5q0 -80 -62.5 -138.5t-162.5 -59.5v-42q46 -6 71.5 -33.5t25.5 -69.5q0 -44 -31 -74.5t-75 -30.5q-46 0 -76 35q-13 14 3 28l20 17q11 11 21 -1
q11 -12 30 -12q15 0 25 11t10 26q0 43 -73 49q-17 2 -17 18v84q-102 16 -159 73z" />
    <glyph glyph-name="scedilla" unicode="&#x15f;" horiz-adv-x="366" 
d="M45 27q-12 10 -6 21l27 54q6 16 23 7q45 -24 91 -24q34 0 34 25q0 14 -14 24t-53 26q-113 44 -113 132q0 50 37.5 84t109.5 34q77 0 123 -31q17 -11 9 -27l-25 -51q-7 -13 -24 -7q-45 21 -83 21q-34 0 -34 -23q0 -12 9.5 -18t38.5 -18q5 -2 7 -3q67 -26 101 -56.5
t34 -84.5q0 -50 -39.5 -84t-107.5 -37v-43q46 -6 71.5 -33.5t25.5 -69.5q0 -44 -31 -74.5t-75 -30.5q-46 0 -76 35q-13 14 3 28l20 17q11 11 21 -1q11 -12 30 -12q15 0 25 11t10 26q0 43 -73 49q-17 2 -17 18v84q-50 9 -79 32z" />
    <glyph glyph-name="Scaron" unicode="&#x160;" horiz-adv-x="542" 
d="M55 68q-14 14 -5 30l36 62q6 10 17 11.5t17 -4.5l5 -3q5 -4 11.5 -8l16.5 -10l20 -11.5t23 -11t25 -9.5t25 -6.5t25 -2.5q39 0 65 22.5t26 54.5q0 37 -31 65.5t-96 54.5q-84 34 -136 85t-52 131q0 76 57.5 134t167.5 58q111 0 200 -67q7 -4 9 -15t-3 -18l-38 -57
q-16 -24 -35 -12q-88 55 -139 55q-40 0 -64 -22t-24 -48q0 -35 28 -61t90 -51q43 -17 74.5 -34.5t65 -44t51.5 -64t18 -83.5q0 -81 -64 -139.5t-166 -58.5q-57 0 -108.5 17t-73.5 31.5t-38 29.5zM261 764l-130 101q-13 9 -6 19l26 37q9 11 23 3l97 -61l98 61q14 8 23 -3
l26 -37q7 -10 -6 -19l-130 -101q-10 -8 -21 0z" />
    <glyph glyph-name="scaron" unicode="&#x161;" horiz-adv-x="364" 
d="M44 27q-12 10 -6 21l27 54q6 16 23 7q45 -24 91 -24q34 0 34 25q0 14 -14 24t-53 26q-113 44 -113 132q0 50 37.5 84t109.5 34q76 0 123 -31q17 -11 9 -27l-25 -51q-7 -13 -24 -7q-45 21 -83 21q-34 0 -34 -23q0 -12 9.5 -18t38.5 -18q5 -2 7 -3q67 -26 101 -56.5
t34 -84.5q0 -52 -43 -87t-116 -35q-84 0 -133 37zM175 524l-130 101q-13 9 -6 19l26 37q9 11 23 3l97 -61l98 61q14 8 23 -3l26 -37q7 -10 -6 -19l-130 -101q-10 -8 -21 0z" />
    <glyph glyph-name="Tcommaaccent" unicode="&#x162;" horiz-adv-x="501" 
d="M185 19v561h-153q-8 0 -13.5 5.5t-5.5 13.5v82q0 8 5.5 13.5t13.5 5.5h437q8 0 13.5 -5.5t5.5 -13.5v-82q0 -8 -5.5 -13.5t-13.5 -5.5h-153v-561q0 -7 -6 -13t-13 -6h-93q-8 0 -13.5 6t-5.5 13zM245 -91q33 0 58 -25.5t25 -81.5q0 -101 -90 -181q-13 -10 -23 1l-15 14
q-10 12 3 23q10 7 22.5 19t29 42t16.5 61l-2 -1q-2 0 -4.5 -1t-6.5 -1.5t-8.5 -1t-9.5 -0.5q-27 0 -47 19.5t-20 46.5q0 28 20.5 47.5t51.5 19.5z" />
    <glyph glyph-name="tcommaaccent" unicode="&#x163;" horiz-adv-x="346" 
d="M81 119v176h-34q-7 0 -12.5 5.5t-5.5 13.5v67q0 8 5 13.5t13 5.5h34v111q0 7 5.5 13t13.5 6l82 1q7 0 12.5 -5.5t5.5 -13.5v-112h88q19 0 19 -19v-67q0 -8 -5.5 -13.5t-13.5 -5.5h-88v-160q0 -32 31 -32q19 0 49 11q17 6 22 -11l20 -63q7 -17 -11 -24q-4 -2 -21.5 -8
t-46.5 -12t-51 -6q-111 0 -111 129zM193 -91q33 0 58 -25.5t25 -81.5q0 -101 -90 -181q-13 -10 -23 1l-15 14q-10 12 3 23q10 7 22.5 19t29 42t16.5 61l-2 -1q-2 0 -4.5 -1t-6.5 -1.5t-8.5 -1t-9.5 -0.5q-27 0 -47 19.5t-20 46.5q0 28 20.5 47.5t51.5 19.5z" />
    <glyph glyph-name="Tcaron" unicode="&#x164;" horiz-adv-x="501" 
d="M185 19v561h-153q-8 0 -13.5 5.5t-5.5 13.5v82q0 8 5.5 13.5t13.5 5.5h437q8 0 13.5 -5.5t5.5 -13.5v-82q0 -8 -5.5 -13.5t-13.5 -5.5h-153v-561q0 -7 -6 -13t-13 -6h-93q-8 0 -13.5 6t-5.5 13zM239 764l-130 101q-13 9 -6 19l26 37q9 11 23 3l97 -61l98 61q14 8 23 -3
l26 -37q7 -10 -6 -19l-130 -101q-10 -8 -21 0z" />
    <glyph glyph-name="tcaron" unicode="&#x165;" horiz-adv-x="345" 
d="M81 119v176h-34q-7 0 -12.5 5.5t-5.5 13.5v67q0 8 5 13.5t13 5.5h34v111q0 7 5.5 13t13.5 6l82 1q7 0 12.5 -5.5t5.5 -13.5v-112h88q19 0 19 -19v-67q0 -8 -5.5 -13.5t-13.5 -5.5h-88v-160q0 -32 31 -32q19 0 49 11q17 6 22 -11l20 -63q7 -17 -11 -24q-4 -2 -21.5 -8
t-46.5 -12t-51 -6q-111 0 -111 129zM398 423l-14 14q-11 11 2 23q10 7 22.5 19t29 42t16.5 61h-2q-2 -1 -4.5 -1.5t-6 -1.5t-8.5 -1.5t-9 -0.5q-28 0 -47.5 19t-19.5 47t20.5 47.5t50.5 19.5q33 0 58 -25.5t25 -81.5q0 -101 -90 -181q-13 -9 -23 1z" />
    <glyph glyph-name="Tbar" unicode="&#x166;" horiz-adv-x="501" 
d="M185 19v272h-94q-7 0 -12.5 5.5t-5.5 13.5v13q0 8 5.5 13.5t12.5 5.5h94v238h-153q-8 0 -13.5 5.5t-5.5 13.5v82q0 8 5.5 13.5t13.5 5.5h437q8 0 13.5 -5.5t5.5 -13.5v-82q0 -8 -5.5 -13.5t-13.5 -5.5h-153v-238h98q8 0 13.5 -5.5t5.5 -13.5v-14q0 -8 -5.5 -13t-13.5 -5
h-98v-272q0 -7 -6 -13t-13 -6h-93q-8 0 -13.5 6t-5.5 13z" />
    <glyph glyph-name="tbar" unicode="&#x167;" horiz-adv-x="345" 
d="M81 119v51h-31q-7 0 -12.5 5.5t-5.5 13.5v13q0 8 5.5 13.5t12.5 5.5h31v74h-34q-7 0 -12.5 5.5t-5.5 13.5v67q0 8 5 13.5t13 5.5h34v111q0 7 5.5 13t13.5 6l82 1q7 0 12.5 -5.5t5.5 -13.5v-112h88q19 0 19 -19v-67q0 -8 -5.5 -13.5t-13.5 -5.5h-88v-74h81q8 0 13.5 -5.5
t5.5 -13.5v-14q0 -8 -5.5 -13t-13.5 -5h-81v-34q0 -32 31 -32q21 0 49 10q17 6 22 -11l20 -63q5 -18 -11 -24q-4 -2 -21.5 -8t-46.5 -12t-51 -6q-111 0 -111 129z" />
    <glyph glyph-name="Utilde" unicode="&#x168;" horiz-adv-x="721" 
d="M82 265v416q0 7 6 13t13 6h95q8 0 13.5 -5.5t5.5 -13.5v-409q0 -65 40.5 -108.5t104.5 -43.5t105 43.5t41 107.5v410q0 8 5.5 13.5t13.5 5.5h95q8 0 13.5 -6t5.5 -13v-416q0 -115 -80.5 -195t-198.5 -80q-117 0 -197.5 80t-80.5 195zM241 789l-29 21q-12 9 -6 23
q8 15 12.5 22t19 25.5t33 27.5t39.5 9q28 0 59 -27.5t48 -27.5q12 0 21 9.5t13.5 19t13 15t17.5 -2.5l28 -20q13 -10 1 -31q-30 -52 -60 -67q-17 -9 -37 -9q-28 0 -61.5 28t-47.5 28q-15 0 -25 -15t-18 -25.5t-21 -2.5z" />
    <glyph glyph-name="utilde" unicode="&#x169;" horiz-adv-x="503" 
d="M53 187v194q0 8 5.5 13.5t13.5 5.5h82q8 0 13.5 -5.5t5.5 -13.5v-197q0 -40 19.5 -63t53.5 -23q30 0 52.5 23t27.5 52v208q0 11 5 15t17 4h76q8 0 13.5 -5.5t5.5 -13.5v-362q0 -7 -5.5 -13t-13.5 -6h-37q-13 0 -19 15l-12 33q-1 -1 -7.5 -7l-10 -9t-12 -9t-15 -10t-17 -9
t-21 -7.5t-24 -4.5t-27.5 -2q-87 0 -128 56t-41 141zM133 562l-29 21q-12 9 -6 23q8 15 12.5 22t19 25.5t33 27.5t39.5 9q28 0 59 -27.5t48 -27.5q12 0 21 9.5t13.5 19t13 15t17.5 -2.5l28 -20q13 -10 1 -31q-30 -52 -60 -67q-17 -9 -37 -9q-28 0 -61.5 28t-47.5 28
q-15 0 -25 -15t-18 -25.5t-21 -2.5z" />
    <glyph glyph-name="Umacron" unicode="&#x16a;" horiz-adv-x="721" 
d="M82 265v416q0 7 6 13t13 6h95q8 0 13.5 -5.5t5.5 -13.5v-409q0 -65 40.5 -108.5t104.5 -43.5t105 43.5t41 107.5v410q0 8 5.5 13.5t13.5 5.5h95q8 0 13.5 -6t5.5 -13v-416q0 -115 -80.5 -195t-198.5 -80q-117 0 -197.5 80t-80.5 195zM233 808q-8 0 -13.5 5t-5.5 13v34
q0 19 19 19h256q19 0 19 -19v-34q0 -8 -5.5 -13t-13.5 -5h-256z" />
    <glyph glyph-name="umacron" unicode="&#x16b;" horiz-adv-x="503" 
d="M53 187v194q0 8 5.5 13.5t13.5 5.5h82q8 0 13.5 -5.5t5.5 -13.5v-197q0 -40 19.5 -63t53.5 -23q30 0 52.5 23t27.5 52v208q0 11 5 15t17 4h76q8 0 13.5 -5.5t5.5 -13.5v-362q0 -7 -5.5 -13t-13.5 -6h-37q-13 0 -19 15l-12 33q-1 -1 -7.5 -7l-10 -9t-12 -9t-15 -10t-17 -9
t-21 -7.5t-24 -4.5t-27.5 -2q-87 0 -128 56t-41 141zM125 570q-8 0 -13.5 5t-5.5 13v34q0 19 19 19h256q19 0 19 -19v-34q0 -8 -5.5 -13t-13.5 -5h-256z" />
    <glyph glyph-name="Ubreve" unicode="&#x16c;" horiz-adv-x="721" 
d="M82 265v416q0 7 6 13t13 6h95q8 0 13.5 -5.5t5.5 -13.5v-409q0 -65 40.5 -108.5t104.5 -43.5t105 43.5t41 107.5v410q0 8 5.5 13.5t13.5 5.5h95q8 0 13.5 -6t5.5 -13v-416q0 -115 -80.5 -195t-198.5 -80q-117 0 -197.5 80t-80.5 195zM362 766q-54 0 -93 33.5t-47 84.5
q-2 9 3.5 15t14.5 6h37q13 0 17 -14q8 -23 26 -38t42 -15q21 0 39.5 15.5t26.5 37.5q3 14 17 14h39q9 0 14 -6t4 -15q-8 -51 -47.5 -84.5t-92.5 -33.5z" />
    <glyph glyph-name="ubreve" unicode="&#x16d;" horiz-adv-x="503" 
d="M53 187v194q0 8 5.5 13.5t13.5 5.5h82q8 0 13.5 -5.5t5.5 -13.5v-197q0 -40 19.5 -63t53.5 -23q30 0 52.5 23t27.5 52v208q0 11 5 15t17 4h76q8 0 13.5 -5.5t5.5 -13.5v-362q0 -7 -5.5 -13t-13.5 -6h-37q-13 0 -19 15l-12 33q-1 -1 -7.5 -7l-10 -9t-12 -9t-15 -10t-17 -9
t-21 -7.5t-24 -4.5t-27.5 -2q-87 0 -128 56t-41 141zM254 528q-54 0 -93 33.5t-47 84.5q-2 9 3 15.5t15 6.5h37q13 0 17 -14q8 -24 26 -38.5t42 -14.5q22 0 40 15.5t26 37.5q4 14 17 14h39q9 0 14 -6.5t4 -15.5q-8 -51 -47.5 -84.5t-92.5 -33.5z" />
    <glyph glyph-name="Uring" unicode="&#x16e;" horiz-adv-x="721" 
d="M82 265v416q0 7 6 13t13 6h95q8 0 13.5 -5.5t5.5 -13.5v-409q0 -65 40.5 -108.5t104.5 -43.5t105 43.5t41 107.5v410q0 8 5.5 13.5t13.5 5.5h95q8 0 13.5 -6t5.5 -13v-416q0 -115 -80.5 -195t-198.5 -80q-117 0 -197.5 80t-80.5 195zM362 754q-47 0 -80 33t-33 80t33 80
t80 33t80 -33t33 -80t-33 -80t-80 -33zM362 817q19 0 33.5 15t14.5 35q0 19 -14 33.5t-34 14.5t-35 -14.5t-15 -33.5t15 -34.5t35 -15.5z" />
    <glyph glyph-name="uring" unicode="&#x16f;" horiz-adv-x="503" 
d="M53 187v194q0 8 5.5 13.5t13.5 5.5h82q8 0 13.5 -5.5t5.5 -13.5v-197q0 -40 19.5 -63t53.5 -23q30 0 52.5 23t27.5 52v208q0 11 5 15t17 4h76q8 0 13.5 -5.5t5.5 -13.5v-362q0 -7 -5.5 -13t-13.5 -6h-37q-13 0 -19 15l-12 33q-1 -1 -7.5 -7l-10 -9t-12 -9t-15 -10t-17 -9
t-21 -7.5t-24 -4.5t-27.5 -2q-87 0 -128 56t-41 141zM252 484q-47 0 -80 33t-33 80t33 80t80 33t80 -33t33 -80t-33 -80t-80 -33zM252 547q19 0 33.5 15t14.5 35q0 19 -14 33.5t-34 14.5t-35 -14.5t-15 -33.5t15 -34.5t35 -15.5z" />
    <glyph glyph-name="Uhungarumlaut" unicode="&#x170;" horiz-adv-x="721" 
d="M82 265v416q0 7 6 13t13 6h95q8 0 13.5 -5.5t5.5 -13.5v-409q0 -65 40.5 -108.5t104.5 -43.5t105 43.5t41 107.5v410q0 8 5.5 13.5t13.5 5.5h95q8 0 13.5 -6t5.5 -13v-416q0 -115 -80.5 -195t-198.5 -80q-117 0 -197.5 80t-80.5 195zM432 768q-11 0 -16 5.5t-3 13.5
l37 141q6 19 19 19h76q14 0 19 -8t-1 -17l-78 -139q-7 -15 -18 -15h-35zM266 768q-11 0 -16 5.5t-3 13.5l37 141q6 19 19 19h76q14 0 19 -7.5t-1 -17.5l-78 -139q-7 -15 -18 -15h-35z" />
    <glyph glyph-name="uhungarumlaut" unicode="&#x171;" horiz-adv-x="503" 
d="M53 187v194q0 8 5.5 13.5t13.5 5.5h82q8 0 13.5 -5.5t5.5 -13.5v-197q0 -40 19.5 -63t53.5 -23q30 0 52.5 23t27.5 52v208q0 11 5 15t17 4h76q8 0 13.5 -5.5t5.5 -13.5v-362q0 -7 -5.5 -13t-13.5 -6h-37q-13 0 -19 15l-12 33q-1 -1 -7.5 -7l-10 -9t-12 -9t-15 -10t-17 -9
t-21 -7.5t-24 -4.5t-27.5 -2q-87 0 -128 56t-41 141zM325 521q-11 0 -16 5.5t-3 13.5l37 141q6 19 19 19h76q14 0 19 -8t-1 -17l-78 -139q-8 -15 -18 -15h-35zM159 521q-11 0 -16 5.5t-3 13.5l37 141q6 19 19 19h76q14 0 19 -7.5t-1 -17.5l-78 -139q-8 -15 -18 -15h-35z" />
    <glyph glyph-name="Uogonek" unicode="&#x172;" horiz-adv-x="725" 
d="M84 265v416q0 7 6 13t13 6h95q8 0 13.5 -5.5t5.5 -13.5v-409q0 -65 40.5 -108.5t104.5 -43.5t105 43.5t41 107.5v410q0 8 5.5 13.5t13.5 5.5h95q8 0 13.5 -6t5.5 -13v-416q0 -109 -73 -187.5t-183 -86.5q-37 -44 -37 -87q0 -27 17.5 -45.5t48.5 -18.5q10 0 46 9
q8 2 14 -3t6 -14v-30q0 -13 -14 -19q-40 -10 -66 -10q-55 0 -91 28t-36 82q0 60 48 110q-103 14 -170 91t-67 181z" />
    <glyph glyph-name="uogonek" unicode="&#x173;" horiz-adv-x="503" 
d="M53 187v194q0 8 5.5 13.5t13.5 5.5h82q8 0 13.5 -5.5t5.5 -13.5v-191q0 -40 19.5 -63t53.5 -23q30 0 52.5 23t27.5 52v202q0 11 5 15t17 4h76q8 0 13.5 -5.5t5.5 -13.5v-362q0 -7 -5.5 -13t-13.5 -6h-6q-45 -45 -45 -96q0 -27 17.5 -45.5t48.5 -18.5q10 0 46 9q8 2 14 -3
t6 -14v-30q0 -13 -14 -19q-40 -10 -66 -10q-55 0 -91 28t-36 82q0 35 18 67.5t31.5 45t21.5 17.5l-13 35q-1 -1 -7.5 -7l-10 -9t-12 -9t-15 -10t-17 -9t-21 -7.5t-24 -4.5t-27.5 -2q-87 0 -128 56t-41 141z" />
    <glyph glyph-name="Wcircumflex" unicode="&#x174;" horiz-adv-x="899" 
d="M218 4l-189 672q-3 10 2 17t16 7h92q14 0 18 -14l104 -399h4l159 412q4 11 17 11h18q13 0 17 -11l160 -412h4l102 399q4 14 18 14h92q11 0 16 -7t2 -17l-189 -672q-3 -14 -18 -14h-16q-13 0 -17 11l-179 453h-5l-177 -453q-5 -11 -17 -11h-16q-14 0 -18 14zM352 766
q-14 -8 -23 3l-26 37q-7 10 6 19l130 101q10 8 21 0l130 -101q13 -9 6 -19l-26 -37q-9 -11 -23 -3l-97 61z" />
    <glyph glyph-name="wcircumflex" unicode="&#x175;" horiz-adv-x="616" 
d="M143 1l-125 376q-4 10 1 16.5t16 6.5h72q15 0 18 -12l60 -179h1l102 192q4 9 16 9h8q11 0 16 -9l101 -192h1l60 179q4 12 23 12h65q11 0 16.5 -6.5t1.5 -16.5l-125 -376q-4 -11 -18 -11h-4q-11 0 -16 9l-126 233h-1l-125 -233q-5 -9 -16 -9h-5q-13 0 -17 11zM186 529
l-26 37q-7 10 6 19l130 101q10 8 21 0l130 -101q13 -9 6 -19l-26 -37q-9 -11 -23 -3l-97 61l-98 -61q-14 -8 -23 3z" />
    <glyph glyph-name="Ycircumflex" unicode="&#x176;" horiz-adv-x="583" 
d="M225 19v318l-228 334q-6 10 -1 19.5t17 9.5h102q9 0 16 -9l160 -230l160 230q7 9 16 9h103q12 0 17 -9.5t-1 -19.5l-231 -333v-319q0 -7 -5.5 -13t-13.5 -6h-92q-8 0 -13.5 5.5t-5.5 13.5zM194 766q-14 -8 -23 3l-26 37q-7 10 6 19l130 101q10 8 21 0l130 -101
q13 -9 6 -19l-26 -37q-9 -11 -23 -3l-97 61z" />
    <glyph glyph-name="ycircumflex" unicode="&#x177;" horiz-adv-x="463" 
d="M171 28l-163 346q-5 10 0.5 18t16.5 8h90q11 0 17 -11l101 -226h1l100 226q6 11 24 11h80q12 0 17 -8t0 -18l-306 -662q-6 -12 -17 -12h-86q-11 0 -16.5 8.5t-0.5 18.5zM112 529l-26 37q-7 10 6 19l130 101q10 8 21 0l130 -101q13 -9 6 -19l-26 -37q-9 -11 -23 -3l-97 61
l-98 -61q-14 -8 -23 3z" />
    <glyph glyph-name="Ydieresis" unicode="&#x178;" horiz-adv-x="583" 
d="M225 19v318l-228 334q-6 10 -1 19.5t17 9.5h102q9 0 16 -9l160 -230l160 230q7 9 16 9h103q12 0 17 -9.5t-1 -19.5l-231 -333v-319q0 -7 -5.5 -13t-13.5 -6h-92q-8 0 -13.5 5.5t-5.5 13.5zM414 775q-26 0 -44.5 19t-18.5 45t18.5 44.5t44.5 18.5t45 -18.5t19 -44.5
t-19 -45t-45 -19zM167 775q-26 0 -44.5 19t-18.5 45t18.5 44.5t44.5 18.5t45 -18.5t19 -44.5t-19 -45t-45 -19z" />
    <glyph glyph-name="Zacute" unicode="&#x179;" horiz-adv-x="538" 
d="M25 19v18l298 538v4h-250q-7 0 -13 5.5t-6 13.5v83q0 7 6 13t13 6h418q7 0 13 -6t6 -13v-13l-294 -545v-2h255q8 0 13.5 -5.5t5.5 -13.5v-83q0 -8 -5.5 -13.5t-13.5 -5.5h-427q-8 0 -13.5 6t-5.5 13zM214 768q-18 -8 -25 7l-18 35q-6 12 6 19l164 98q18 11 26 -3l28 -52
q11 -19 -6 -27z" />
    <glyph glyph-name="zacute" unicode="&#x17a;" horiz-adv-x="366" 
d="M30 19v10l142 262v2h-114q-7 0 -12.5 5.5t-5.5 13.5v69q0 8 5 13.5t13 5.5h264q11 0 17 -8.5t0 -18.5l-145 -264v-3h108q19 0 19 -19v-68q0 -8 -5.5 -13.5t-13.5 -5.5h-253q-7 0 -13 6t-6 13zM123 528q-19 -7 -26 6l-17 36q-6 11 6 19l163 97q18 12 26 -3l29 -51
q9 -20 -6 -27z" />
    <glyph glyph-name="Zdotaccent" unicode="&#x17b;" horiz-adv-x="538" 
d="M25 19v18l298 538v4h-250q-7 0 -13 5.5t-6 13.5v83q0 7 6 13t13 6h418q7 0 13 -6t6 -13v-13l-294 -545v-2h255q8 0 13.5 -5.5t5.5 -13.5v-83q0 -8 -5.5 -13.5t-13.5 -5.5h-427q-8 0 -13.5 6t-5.5 13zM281 781q-30 0 -51 21t-21 51t21 51t51 21t51 -21t21 -51t-21 -51
t-51 -21z" />
    <glyph glyph-name="zdotaccent" unicode="&#x17c;" horiz-adv-x="366" 
d="M30 19v10l142 262v2h-114q-7 0 -12.5 5.5t-5.5 13.5v69q0 8 5 13.5t13 5.5h264q11 0 17 -8.5t0 -18.5l-145 -264v-3h108q19 0 19 -19v-68q0 -8 -5.5 -13.5t-13.5 -5.5h-253q-7 0 -13 6t-6 13zM195 536q-30 0 -51 21t-21 51t21 51t51 21t51 -21t21 -51t-21 -51t-51 -21z
" />
    <glyph glyph-name="Zcaron" unicode="&#x17d;" horiz-adv-x="538" 
d="M25 19v18l298 538v4h-250q-7 0 -13 5.5t-6 13.5v83q0 7 6 13t13 6h418q7 0 13 -6t6 -13v-13l-294 -545v-2h255q8 0 13.5 -5.5t5.5 -13.5v-83q0 -8 -5.5 -13.5t-13.5 -5.5h-427q-8 0 -13.5 6t-5.5 13zM269 764l-130 101q-13 9 -6 19l26 37q9 11 23 3l97 -61l98 61
q14 8 23 -3l26 -37q7 -10 -6 -19l-130 -101q-10 -8 -21 0z" />
    <glyph glyph-name="zcaron" unicode="&#x17e;" horiz-adv-x="366" 
d="M30 19v10l142 262v2h-114q-7 0 -12.5 5.5t-5.5 13.5v69q0 8 5 13.5t13 5.5h264q11 0 17 -8.5t0 -18.5l-145 -264v-3h108q19 0 19 -19v-68q0 -8 -5.5 -13.5t-13.5 -5.5h-253q-7 0 -13 6t-6 13zM180 524l-130 101q-13 9 -6 19l26 37q9 11 23 3l97 -61l98 61q14 8 23 -3
l26 -37q7 -10 -6 -19l-130 -101q-10 -8 -21 0z" />
    <glyph glyph-name="florin" unicode="&#x192;" horiz-adv-x="371" 
d="M111 -108v404h-75q-8 0 -13.5 5.5t-5.5 13.5v66q0 19 19 19h75v109q0 95 53.5 148t139.5 53q64 0 111 -39q12 -12 4 -24l-37 -62q-10 -14 -24 -5q-5 4 -22.5 10.5t-30.5 6.5q-29 0 -49 -22.5t-20 -66.5v-108h100q19 0 19 -19v-66q0 -8 -5.5 -13.5t-13.5 -5.5h-100v-405
q0 -95 -54 -148t-140 -53q-64 0 -111 39q-11 11 -4 24l38 62q9 14 24 5q4 -4 21.5 -10.5t30.5 -6.5q29 0 49.5 22.5t20.5 66.5z" />
    <glyph glyph-name="Aringacute" unicode="&#x1fa;" horiz-adv-x="663" 
d="M240 886l-18 35q-6 12 6 19l164 98q18 11 26 -3l28 -52q11 -19 -6 -27l-175 -77q-18 -8 -25 7zM17 0q-11 0 -16.5 8t-0.5 18l293 634q-32 12 -51.5 40.5t-19.5 64.5q0 47 33 80t80 33t80 -33t33 -80q0 -36 -21 -65.5t-54 -41.5l290 -632q5 -10 -0.5 -18t-16.5 -8h-87
q-19 0 -29 20l-49 108h-299l-49 -108q-8 -20 -29 -20h-87zM335 715q19 0 33.5 15t14.5 35q0 19 -14.5 33.5t-33.5 14.5q-20 0 -35 -14.5t-15 -33.5t15.5 -34.5t34.5 -15.5zM231 239h201l-100 220h-3z" />
    <glyph glyph-name="aringacute" unicode="&#x1fb;" horiz-adv-x="426" 
d="M31 127q0 55 43 90.5t117 35.5q18 0 36 -2.5t27 -5.5l10 -3q1 38 -11.5 53.5t-40.5 15.5q-63 0 -112 -15q-19 -6 -23 18l-9 52q-4 19 14 25q6 2 24 6t50.5 8.5t61.5 4.5q89 0 121.5 -42.5t32.5 -131.5v-217q0 -7 -6 -13t-13 -6h-36q-11 0 -17 14l-12 27q-56 -51 -122 -51
q-61 0 -98 37t-37 100zM141 127q0 -23 14.5 -37.5t37.5 -14.5q22 0 42.5 14t26.5 25v55q-27 12 -56 12t-47 -15t-18 -39zM219 427q-47 0 -80 33t-33 80t33 80t80 33t80 -33t33 -80t-33 -80t-80 -33zM219 490q19 0 33.5 15t14.5 35t-14.5 34t-33.5 14q-20 0 -35 -14.5
t-15 -33.5q0 -20 15.5 -35t34.5 -15zM148 662q-19 -7 -26 6l-17 36q-6 11 6 19l163 97q18 12 26 -3l29 -51q9 -20 -6 -27z" />
    <glyph glyph-name="AEacute" unicode="&#x1fc;" horiz-adv-x="900" 
d="M1 0q-11 0 -14.5 8t2.5 18l401 643q15 24 25 28q7 3 19 3h395q8 0 13.5 -5.5t5.5 -13.5v-82q0 -8 -5.5 -13.5t-13.5 -5.5h-299v-164h250q8 0 13.5 -6t5.5 -13v-83q0 -8 -5.5 -13.5t-13.5 -5.5h-250v-175h299q8 0 13.5 -5.5t5.5 -13.5v-82q0 -8 -5.5 -13.5t-13.5 -5.5
h-408q-8 0 -13.5 5.5t-5.5 13.5v109h-210l-71 -113q-10 -15 -25 -15h-95zM262 239h140v226zM551 769q-18 -8 -25 7l-18 35q-6 12 6 19l164 98q18 11 26 -3l28 -52q11 -19 -6 -27z" />
    <glyph glyph-name="aeacute" unicode="&#x1fd;" horiz-adv-x="670" 
d="M30 127q0 55 42 90.5t114 35.5q18 0 37 -2t29 -4l10 -2q-2 41 -12.5 57t-42.5 16q-48 0 -109 -16q-19 -2 -23 16l-9 54q-2 16 16 20q74 18 136 18q89 0 121 -41q52 41 120 41q78 0 132.5 -52.5t54.5 -133.5q0 -44 -21 -44h-255q4 -34 30 -61t65 -27q41 0 79 26
q17 11 26 0l40 -47q12 -16 -1 -26q-59 -55 -149 -55q-96 0 -150 65q-18 -23 -55.5 -44t-86.5 -21q-62 0 -100 37t-38 100zM379 251h150q-1 28 -22.5 47.5t-50.5 19.5q-30 0 -51.5 -19t-25.5 -48zM140 130q0 -24 16.5 -39t39.5 -15q20 0 36.5 10.5t23.5 21.5l6 10v52
q-27 13 -62 13q-25 0 -42.5 -15t-17.5 -38zM311 528q-19 -7 -26 6l-17 36q-6 11 6 19l163 97q18 12 26 -3l29 -51q9 -20 -6 -27z" />
    <glyph glyph-name="Oslashacute" unicode="&#x1fe;" horiz-adv-x="799" 
d="M63 23q-13 13 -1 26l65 64q-86 100 -86 236q0 150 104.5 255.5t254.5 105.5q133 0 236 -88l68 67q13 13 26 0l10 -10q12 -12 0 -26l-68 -68q88 -103 88 -235q0 -150 -105 -255t-255 -105q-138 0 -236 87l-65 -65q-13 -12 -26 1zM221 207l323 322q-66 51 -144 51
q-94 0 -161.5 -68t-67.5 -163q0 -79 50 -142zM257 170q63 -50 143 -50q94 0 162 68t68 162q0 81 -51 142zM330 768q-18 -8 -25 7l-18 35q-6 12 6 19l164 98q18 11 26 -3l28 -52q11 -19 -6 -27z" />
    <glyph glyph-name="oslashacute" unicode="&#x1ff;" horiz-adv-x="468" 
d="M163 528q-19 -7 -26 6l-17 36q-6 11 6 19l163 97q18 12 26 -3l29 -51q9 -20 -6 -27zM51 24q-13 14 -1 26l22 22q-42 57 -42 130q0 85 60.5 146.5t144.5 61.5q70 0 126 -46l26 26q12 14 26 0l10 -10q14 -12 0 -26l-26 -26q42 -57 42 -126q0 -87 -60 -149.5t-144 -62.5
q-71 0 -127 45l-21 -22q-5 -5 -13.5 -5t-13.5 6zM150 152l134 135q-21 15 -49 15q-40 0 -68 -29t-28 -71q0 -28 11 -50zM185 112q22 -14 50 -14q40 0 67.5 30.5t27.5 73.5q0 25 -11 47z" />
    <glyph glyph-name="Scommaaccent" unicode="&#x218;" horiz-adv-x="542" 
d="M55 68q-14 14 -5 30l36 62q6 10 17 11.5t17 -4.5l5 -3q5 -4 11.5 -8l16.5 -10l20 -11.5t23 -11t25 -9.5t25 -6.5t25 -2.5q39 0 65 22.5t26 54.5q0 37 -31 65.5t-96 54.5q-84 34 -136 85t-52 131q0 76 57.5 134t167.5 58q111 0 200 -67q7 -4 9 -15t-3 -18l-38 -57
q-16 -24 -35 -12q-88 55 -139 55q-40 0 -64 -22t-24 -48q0 -35 28 -61t90 -51q43 -17 74.5 -34.5t65 -44t51.5 -64t18 -83.5q0 -81 -64 -139.5t-166 -58.5q-57 0 -108.5 17t-73.5 31.5t-38 29.5zM275 -91q33 0 58 -25.5t25 -81.5q0 -101 -90 -181q-13 -10 -23 1l-15 14
q-10 12 3 23q10 7 22.5 19t29 42t16.5 61l-2 -1q-2 0 -4.5 -1t-6.5 -1.5t-8.5 -1t-9.5 -0.5q-27 0 -47 19.5t-20 46.5q0 28 20.5 47.5t51.5 19.5z" />
    <glyph glyph-name="scommaaccent" unicode="&#x219;" horiz-adv-x="364" 
d="M44 27q-12 10 -6 21l27 54q6 16 23 7q45 -24 91 -24q34 0 34 25q0 14 -14 24t-53 26q-113 44 -113 132q0 50 37.5 84t109.5 34q76 0 123 -31q17 -11 9 -27l-25 -51q-7 -13 -24 -7q-45 21 -83 21q-34 0 -34 -23q0 -12 9.5 -18t38.5 -18q5 -2 7 -3q67 -26 101 -56.5
t34 -84.5q0 -52 -43 -87t-116 -35q-84 0 -133 37zM184 -91q33 0 58 -25.5t25 -81.5q0 -101 -90 -181q-13 -10 -23 1l-15 14q-10 12 3 23q10 7 22.5 19t29 42t16.5 61l-2 -1q-2 0 -4.5 -1t-6.5 -1.5t-8.5 -1t-9.5 -0.5q-27 0 -47 19.5t-20 46.5q0 28 20.5 47.5t51.5 19.5z
" />
    <glyph glyph-name="uni021A" unicode="&#x21a;" horiz-adv-x="501" 
d="M185 19v561h-153q-8 0 -13.5 5.5t-5.5 13.5v82q0 8 5.5 13.5t13.5 5.5h437q8 0 13.5 -5.5t5.5 -13.5v-82q0 -8 -5.5 -13.5t-13.5 -5.5h-153v-561q0 -7 -6 -13t-13 -6h-93q-8 0 -13.5 6t-5.5 13zM246 -91q33 0 58 -25.5t25 -81.5q0 -101 -90 -181q-13 -10 -23 1l-15 14
q-10 12 3 23q10 7 22.5 19t29 42t16.5 61l-2 -1q-2 0 -4.5 -1t-6.5 -1.5t-8.5 -1t-9.5 -0.5q-27 0 -47 19.5t-20 46.5q0 28 20.5 47.5t51.5 19.5z" />
    <glyph glyph-name="uni021B" unicode="&#x21b;" horiz-adv-x="346" 
d="M81 119v176h-34q-7 0 -12.5 5.5t-5.5 13.5v67q0 8 5 13.5t13 5.5h34v111q0 7 5.5 13t13.5 6l82 1q7 0 12.5 -5.5t5.5 -13.5v-112h88q19 0 19 -19v-67q0 -8 -5.5 -13.5t-13.5 -5.5h-88v-160q0 -32 31 -32q19 0 49 11q17 6 22 -11l20 -63q7 -17 -11 -24q-4 -2 -21.5 -8
t-46.5 -12t-51 -6q-111 0 -111 129zM193 -91q33 0 58 -25.5t25 -81.5q0 -101 -90 -181q-13 -10 -23 1l-15 14q-10 12 3 23q10 7 22.5 19t29 42t16.5 61l-2 -1q-2 0 -4.5 -1t-6.5 -1.5t-8.5 -1t-9.5 -0.5q-27 0 -47 19.5t-20 46.5q0 28 20.5 47.5t51.5 19.5z" />
    <glyph glyph-name="dotlessj" unicode="&#x237;" horiz-adv-x="242" 
d="M60 -108v489q0 8 5.5 13.5t13.5 5.5h84q8 0 13.5 -5.5t5.5 -13.5v-489q0 -96 -52 -149t-134 -53q-36 0 -69.5 12.5t-48.5 26.5q-12 9 -4 23l33 64q7 14 24 5q32 -20 59 -20q34 0 52 23.5t18 67.5z" />
    <glyph glyph-name="circumflex" unicode="&#x2c6;" horiz-adv-x="373" 
d="M63 529l-26 37q-7 10 6 19l130 101q10 8 21 0l130 -101q13 -9 6 -19l-26 -37q-9 -11 -23 -3l-97 61l-98 -61q-14 -8 -23 3z" />
    <glyph glyph-name="caron" unicode="&#x2c7;" horiz-adv-x="373" 
d="M174 524l-130 101q-13 9 -6 19l26 37q9 11 23 3l97 -61l98 61q14 8 23 -3l26 -37q7 -10 -6 -19l-130 -101q-10 -8 -21 0z" />
    <glyph glyph-name="uni02C9" unicode="&#x2c9;" horiz-adv-x="414" 
d="M79 570q-8 0 -13.5 5t-5.5 13v34q0 19 19 19h256q19 0 19 -19v-34q0 -8 -5.5 -13t-13.5 -5h-256z" />
    <glyph glyph-name="breve" unicode="&#x2d8;" horiz-adv-x="346" 
d="M173 528q-54 0 -93 33.5t-47 84.5q-2 9 3 15.5t15 6.5h37q13 0 17 -14q8 -24 26 -38.5t42 -14.5q22 0 40 15.5t26 37.5q3 14 17 14h39q9 0 14 -6.5t4 -15.5q-8 -51 -47.5 -84.5t-92.5 -33.5z" />
    <glyph glyph-name="dotaccent" unicode="&#x2d9;" horiz-adv-x="219" 
d="M109 536q-30 0 -51 21t-21 51t21 51t51 21t51 -21t21 -51t-21 -51t-51 -21z" />
    <glyph glyph-name="ring" unicode="&#x2da;" horiz-adv-x="290" 
d="M145 484q-47 0 -80 33t-33 80t33 80t80 33t80 -33t33 -80t-33 -80t-80 -33zM145 547q19 0 33.5 15t14.5 35q0 19 -14.5 33.5t-33.5 14.5q-20 0 -35 -14.5t-15 -33.5t15.5 -34.5t34.5 -15.5z" />
    <glyph glyph-name="ogonek" unicode="&#x2db;" horiz-adv-x="276" 
d="M107 14h64q-7 -5 -17 -15t-27 -38.5t-17 -56.5q0 -27 17.5 -45.5t48.5 -18.5q10 0 46 9q8 2 14 -3t6 -14v-30q0 -13 -14 -19q-40 -10 -66 -10q-55 0 -91 28t-36 82q0 23 7.5 44.5t18 36.5t21 27t18.5 17z" />
    <glyph glyph-name="tilde" unicode="&#x2dc;" horiz-adv-x="380" 
d="M70 562l-29 21q-12 9 -6 23q8 15 12.5 22t19 25.5t33 27.5t39.5 9q28 0 59 -27.5t48 -27.5q12 0 21 9.5t13.5 19t13 15t17.5 -2.5l28 -20q13 -10 1 -31q-30 -52 -60 -67q-17 -9 -37 -9q-28 0 -61.5 28t-47.5 28q-15 0 -25 -15t-18 -25.5t-21 -2.5z" />
    <glyph glyph-name="hungarumlaut" unicode="&#x2dd;" horiz-adv-x="392" 
d="M224 521q-11 0 -16 5.5t-3 13.5l37 141q6 19 19 19h76q14 0 19 -8t-1 -17l-78 -139q-7 -15 -18 -15h-35zM58 521q-11 0 -16 5.5t-3 13.5l37 141q6 19 19 19h76q14 0 19 -7.5t-1 -17.5l-78 -139q-7 -15 -18 -15h-35z" />
    <glyph glyph-name="uni0394" unicode="&#x394;" horiz-adv-x="703" 
d="M29 43l303 658q5 10 16 10h9q11 0 16 -10l302 -660q8 -15 3 -28t-23 -13h-600q-20 0 -27.5 10.5t1.5 32.5zM200 119h304l-153 340h-1z" />
    <glyph glyph-name="uni03A9" unicode="&#x3a9;" horiz-adv-x="781" 
d="M33 18v88q0 7 5.5 12.5t12.5 5.5h86q-47 32 -77 98t-30 134q0 149 104.5 251.5t255.5 102.5t255.5 -102.5t104.5 -251.5q0 -68 -30.5 -134t-78.5 -98h88q7 0 12.5 -5.5t5.5 -12.5v-88q0 -8 -5.5 -13t-12.5 -5h-270q-17 0 -17 18v54q0 12 3.5 19.5t6.5 10t14 8.5
q70 34 111 100.5t41 138.5q0 93 -67.5 161.5t-160.5 68.5t-161 -68.5t-68 -161.5q0 -72 41 -138t111 -101q11 -6 14.5 -8.5t7 -9.5t3.5 -20v-54q0 -18 -18 -18h-269q-7 0 -12.5 5t-5.5 13z" />
    <glyph glyph-name="uni03BC" unicode="&#x3bc;" horiz-adv-x="524" 
d="M181 -4v-277q0 -7 -5.5 -13t-13.5 -6h-82q-8 0 -13.5 6t-5.5 13v662q0 8 5.5 13.5t13.5 5.5h82q8 0 13.5 -5.5t5.5 -13.5v-199q2 -37 21 -57.5t52 -20.5q30 0 52.5 23t27.5 52v202q0 11 5 15t17 4h76q8 0 13.5 -5.5t5.5 -13.5v-362q0 -7 -5.5 -13t-13.5 -6h-37
q-13 0 -19 15l-12 33q-1 -1 -7.5 -7l-10 -9t-12 -9t-15 -10t-17 -9t-21 -7.5t-24 -4.5t-27.5 -2q-26 0 -49 6z" />
    <glyph glyph-name="pi" unicode="&#x3c0;" horiz-adv-x="681" 
d="M121 18v277h-77q-7 0 -12.5 5.5t-5.5 12.5v69q0 8 5 13t13 5h573q17 0 17 -17v-70q0 -18 -17 -18h-83v-277q0 -8 -5 -13t-13 -5h-89q-7 0 -12.5 5.5t-5.5 12.5v277h-163v-277q0 -7 -5.5 -12.5t-12.5 -5.5h-89q-7 0 -12.5 5t-5.5 13z" />
    <glyph glyph-name="Wgrave" unicode="&#x1e80;" horiz-adv-x="899" 
d="M218 4l-189 672q-3 10 2 17t16 7h92q14 0 18 -14l104 -399h4l159 412q4 11 17 11h18q13 0 17 -11l160 -412h4l102 399q4 14 18 14h92q11 0 16 -7t2 -17l-189 -672q-3 -14 -18 -14h-16q-13 0 -17 11l-179 453h-5l-177 -453q-5 -11 -17 -11h-16q-14 0 -18 14zM520 768
l-175 77q-17 8 -6 27l28 52q8 14 26 3l164 -98q12 -7 6 -19l-18 -35q-7 -15 -25 -7z" />
    <glyph glyph-name="wgrave" unicode="&#x1e81;" horiz-adv-x="616" 
d="M143 1l-125 376q-4 10 1 16.5t16 6.5h72q15 0 18 -12l60 -179h1l102 192q4 9 16 9h8q11 0 16 -9l101 -192h1l60 179q4 12 23 12h65q11 0 16.5 -6.5t1.5 -16.5l-125 -376q-4 -11 -18 -11h-4q-11 0 -16 9l-126 233h-1l-125 -233q-5 -9 -16 -9h-5q-13 0 -17 11zM377 528
l-175 77q-16 8 -6 27l28 51q8 15 26 3l164 -97q12 -6 6 -19l-18 -36q-6 -14 -25 -6z" />
    <glyph glyph-name="Wacute" unicode="&#x1e82;" horiz-adv-x="899" 
d="M218 4l-189 672q-3 10 2 17t16 7h92q14 0 18 -14l104 -399h4l159 412q4 11 17 11h18q13 0 17 -11l160 -412h4l102 399q4 14 18 14h92q11 0 16 -7t2 -17l-189 -672q-3 -14 -18 -14h-16q-13 0 -17 11l-179 453h-5l-177 -453q-5 -11 -17 -11h-16q-14 0 -18 14zM379 768
q-18 -8 -25 7l-18 35q-6 12 6 19l164 98q18 11 26 -3l28 -52q11 -19 -6 -27z" />
    <glyph glyph-name="wacute" unicode="&#x1e83;" horiz-adv-x="616" 
d="M143 1l-125 376q-4 10 1 16.5t16 6.5h72q15 0 18 -12l60 -179h1l102 192q4 9 16 9h8q11 0 16 -9l101 -192h1l60 179q4 12 23 12h65q11 0 16.5 -6.5t1.5 -16.5l-125 -376q-4 -11 -18 -11h-4q-11 0 -16 9l-126 233h-1l-125 -233q-5 -9 -16 -9h-5q-13 0 -17 11zM237 528
q-19 -7 -26 6l-17 36q-6 11 6 19l163 97q18 12 26 -3l29 -51q9 -20 -6 -27z" />
    <glyph glyph-name="Wdieresis" unicode="&#x1e84;" horiz-adv-x="899" 
d="M218 4l-189 672q-3 10 2 17t16 7h92q14 0 18 -14l104 -399h4l159 412q4 11 17 11h18q13 0 17 -11l160 -412h4l102 399q4 14 18 14h92q11 0 16 -7t2 -17l-189 -672q-3 -14 -18 -14h-16q-13 0 -17 11l-179 453h-5l-177 -453q-5 -11 -17 -11h-16q-14 0 -18 14zM572 775
q-26 0 -44.5 19t-18.5 45t18.5 44.5t44.5 18.5t45 -18.5t19 -44.5t-19 -45t-45 -19zM325 775q-26 0 -44.5 19t-18.5 45t18.5 44.5t44.5 18.5t45 -18.5t19 -44.5t-19 -45t-45 -19z" />
    <glyph glyph-name="wdieresis" unicode="&#x1e85;" horiz-adv-x="616" 
d="M143 1l-125 376q-4 10 1 16.5t16 6.5h72q15 0 18 -12l60 -179h1l102 192q4 9 16 9h8q11 0 16 -9l101 -192h1l60 179q4 12 23 12h65q11 0 16.5 -6.5t1.5 -16.5l-125 -376q-4 -11 -18 -11h-4q-11 0 -16 9l-126 233h-1l-125 -233q-5 -9 -16 -9h-5q-13 0 -17 11zM407 551
q-26 0 -44.5 19t-18.5 45t18.5 44.5t44.5 18.5t45 -18.5t19 -44.5t-19 -45t-45 -19zM206 551q-26 0 -44.5 19t-18.5 45t18.5 44.5t44.5 18.5t45 -18.5t19 -44.5t-19 -45t-45 -19z" />
    <glyph glyph-name="Ygrave" unicode="&#x1ef2;" horiz-adv-x="583" 
d="M225 19v318l-228 334q-6 10 -1 19.5t17 9.5h102q9 0 16 -9l160 -230l160 230q7 9 16 9h103q12 0 17 -9.5t-1 -19.5l-231 -333v-319q0 -7 -5.5 -13t-13.5 -6h-92q-8 0 -13.5 5.5t-5.5 13.5zM362 768l-175 77q-17 8 -6 27l28 52q8 14 26 3l164 -98q12 -7 6 -19l-18 -35
q-7 -15 -25 -7z" />
    <glyph glyph-name="ygrave" unicode="&#x1ef3;" horiz-adv-x="463" 
d="M171 28l-163 346q-5 10 0.5 18t16.5 8h90q11 0 17 -11l101 -226h1l100 226q6 11 24 11h80q12 0 17 -8t0 -18l-306 -662q-6 -12 -17 -12h-86q-11 0 -16.5 8.5t-0.5 18.5zM303 528l-175 77q-16 8 -6 27l28 51q8 15 26 3l164 -97q12 -6 6 -19l-18 -36q-6 -14 -25 -6z" />
    <glyph glyph-name="endash" unicode="&#x2013;" horiz-adv-x="539" 
d="M72 210q-8 0 -13.5 5t-5.5 13v37q0 19 19 19h395q19 0 19 -19v-37q0 -8 -5.5 -13t-13.5 -5h-395z" />
    <glyph glyph-name="emdash" unicode="&#x2014;" horiz-adv-x="759" 
d="M72 210q-8 0 -13.5 5t-5.5 13v37q0 19 19 19h615q19 0 19 -19v-37q0 -8 -5.5 -13t-13.5 -5h-615z" />
    <glyph glyph-name="quoteleft" unicode="&#x2018;" horiz-adv-x="198" 
d="M106 414q-32 0 -57 26t-25 82q0 101 90 181q13 10 22 -1l15 -15q10 -12 -3 -22l-5 -5q-5 -4 -8 -7l-9 -9t-10.5 -11.5t-10 -13.5t-9.5 -16t-8 -17.5t-6 -20.5t-2 -22l4 1q5 2 12.5 3t14.5 1q27 0 47 -19.5t20 -47.5q0 -27 -21 -47t-51 -20z" />
    <glyph glyph-name="quoteright" unicode="&#x2019;" horiz-adv-x="196" 
d="M62 423l-14 14q-11 11 2 23q10 7 22.5 19t29 42t16.5 61h-2q-2 -1 -4.5 -1.5t-6 -1.5t-8.5 -1.5t-9 -0.5q-28 0 -47.5 19t-19.5 47t20.5 47.5t50.5 19.5q33 0 58 -25.5t25 -81.5q0 -101 -90 -181q-13 -9 -23 1z" />
    <glyph glyph-name="quotesinglbase" unicode="&#x201a;" horiz-adv-x="228" 
d="M37 57q0 27 21 47t51 20q32 0 57.5 -26t25.5 -82q0 -101 -90 -181q-13 -10 -23 1l-15 15q-10 11 3 22q10 7 22.5 19.5t29 42t16.5 60.5l-2 -1q-2 0 -4.5 -1t-6.5 -1.5t-8.5 -1t-9.5 -0.5q-27 0 -47 19.5t-20 47.5z" />
    <glyph glyph-name="quotedblleft" unicode="&#x201c;" horiz-adv-x="392" 
d="M299 416q-33 0 -58 25.5t-25 81.5q0 101 90 181q13 10 23 -1l15 -14q10 -12 -3 -23q-67 -55 -68 -122h2q2 1 4.5 1.5t6.5 1.5t8.5 1.5t9.5 0.5q27 0 47 -19.5t20 -46.5q0 -28 -20.5 -47.5t-51.5 -19.5zM106 416q-32 0 -57 25.5t-25 81.5q0 101 90 181q13 10 22 -1l15 -14
q11 -13 -3 -23q-67 -55 -68 -122l4 1l12.5 2.5t14.5 1.5q27 0 47 -19.5t20 -46.5q0 -28 -20.5 -47.5t-51.5 -19.5z" />
    <glyph glyph-name="quotedblright" unicode="&#x201d;" horiz-adv-x="389" 
d="M255 423l-15 14q-10 12 3 23q10 7 22.5 19t29 42t16.5 61h-2q-2 -1 -4.5 -1.5t-6.5 -1.5t-8.5 -1.5t-9.5 -0.5q-27 0 -47 19.5t-20 46.5q0 28 20.5 47.5t51.5 19.5q33 0 58 -25.5t25 -81.5q0 -101 -90 -181q-13 -10 -23 1zM62 423l-14 14q-11 11 2 23q10 7 22.5 19t29 42
t16.5 61h-2q-2 -1 -4.5 -1.5t-6 -1.5t-8.5 -1.5t-9 -0.5q-28 0 -47.5 19t-19.5 47t20.5 47.5t50.5 19.5q33 0 58 -25.5t25 -81.5q0 -101 -90 -181q-13 -9 -23 1z" />
    <glyph glyph-name="quotedblbase" unicode="&#x201e;" horiz-adv-x="421" 
d="M230 57q0 27 21 47t51 20q32 0 57.5 -26t25.5 -82q0 -101 -90 -181q-13 -10 -23 1l-15 15q-10 11 3 22q10 7 22.5 19.5t29 42t16.5 60.5l-2 -1q-2 0 -4.5 -1t-6.5 -1.5t-8.5 -1t-9.5 -0.5q-27 0 -47 19.5t-20 47.5zM38 57q0 27 20.5 47t50.5 20q32 0 57.5 -26t25.5 -82
q0 -101 -90 -181q-13 -9 -23 1l-14 15q-11 11 2 22q10 7 23 19.5t29 42t16 60.5l-5 -1q-4 -2 -11 -3t-14 -1q-28 0 -47.5 19.5t-19.5 47.5z" />
    <glyph glyph-name="dagger" unicode="&#x2020;" horiz-adv-x="618" 
d="M69 286q-7 0 -13 6t-6 13v76q0 7 6 13t13 6h170v281q0 7 5.5 13t13.5 6h96q8 0 13.5 -6t5.5 -13v-281h177q7 0 12.5 -5.5t5.5 -13.5v-76q0 -8 -5.5 -13.5t-12.5 -5.5h-184l-32 -570q0 -6 -6 -11t-13 -5h-18q-7 0 -13 5t-6 11l-32 570h-177z" />
    <glyph glyph-name="daggerdbl" unicode="&#x2021;" horiz-adv-x="618" 
d="M80 20v75q0 7 6 13t13 6h155l-15 284v1h-170q-7 0 -13 5.5t-6 13.5v76q0 8 6 13.5t13 5.5h170v168q0 7 5.5 13t13.5 6h96q8 0 13.5 -6t5.5 -13v-168h177q7 0 12.5 -5.5t5.5 -13.5v-76q0 -8 -5.5 -13.5t-12.5 -5.5h-177l-15 -285h162q7 0 12.5 -5.5t5.5 -13.5v-75
q0 -8 -5.5 -13.5t-12.5 -5.5h-170l-16 -285q0 -6 -6 -11t-13 -5h-18q-7 0 -13 5t-6 11l-17 285h-162q-7 0 -13 5.5t-6 13.5z" />
    <glyph glyph-name="bullet" unicode="&#x2022;" horiz-adv-x="389" 
d="M192 95q-52 0 -90.5 38.5t-38.5 90.5q0 54 38.5 93.5t90.5 39.5q55 0 94 -39t39 -94q0 -53 -39 -91t-94 -38z" />
    <glyph glyph-name="ellipsis" unicode="&#x2026;" horiz-adv-x="668" 
d="M477 62q0 30 21 51t51 21t51 -21t21 -51q0 -29 -21 -50.5t-51 -21.5t-51 21.5t-21 50.5zM264 62q0 30 21 51t50 21q30 0 51.5 -21t21.5 -51q0 -29 -21.5 -50.5t-51.5 -21.5q-29 0 -50 21.5t-21 50.5zM47 62q0 30 21 51t50 21q30 0 51.5 -21t21.5 -51q0 -29 -21.5 -50.5
t-51.5 -21.5q-29 0 -50 21.5t-21 50.5z" />
    <glyph glyph-name="perthousand" unicode="&#x2030;" horiz-adv-x="986" 
d="M178 440q-56 0 -95.5 39.5t-39.5 95.5t39.5 95.5t95.5 39.5t95.5 -39.5t39.5 -95.5t-39.5 -95.5t-95.5 -39.5zM125 27l343 663q5 10 17 10h50q11 0 16.5 -8.5t0.5 -18.5l-345 -663q-5 -10 -17 -10h-48q-11 0 -16.5 8.5t-0.5 18.5zM178 526q20 0 34 14.5t14 34.5
q0 19 -14 33.5t-34 14.5t-34.5 -14t-14.5 -34t14.5 -34.5t34.5 -14.5zM675 125q0 56 39.5 95.5t95.5 39.5t96 -39.5t40 -95.5t-40 -95.5t-96 -39.5t-95.5 39.5t-39.5 95.5zM372 125q0 56 39.5 95.5t95.5 39.5t96 -39.5t40 -95.5t-40 -95.5t-96 -39.5t-95.5 39.5t-39.5 95.5z
M762 125q0 -20 14 -34.5t34 -14.5t34.5 14.5t14.5 34.5t-14.5 34t-34.5 14t-34 -14.5t-14 -33.5zM458 125q0 -20 14.5 -34.5t34.5 -14.5t34.5 14.5t14.5 34.5q0 19 -14.5 33.5t-34.5 14.5t-34.5 -14t-14.5 -34z" />
    <glyph glyph-name="guilsinglleft" unicode="&#x2039;" horiz-adv-x="271" 
d="M130 39l-104 155q-8 11 0 24l109 148q7 12 18 12h57q13 0 17 -9.5t-2 -21.5l-68 -139l65 -147q6 -12 1.5 -21t-16.5 -9h-62q-9 0 -15 8z" />
    <glyph glyph-name="guilsinglright" unicode="&#x203a;" horiz-adv-x="271" 
d="M63 31q-12 0 -16.5 9t1.5 21l65 147l-68 139q-6 12 -2 21.5t17 9.5h57q11 0 18 -12l109 -148q8 -13 0 -24l-104 -155q-6 -8 -15 -8h-62z" />
    <glyph glyph-name="fraction" unicode="&#x2044;" horiz-adv-x="123" 
d="M-60 10q-5 -10 -17 -10h-48q-11 0 -16.5 8.5t-0.5 18.5l343 663q5 10 17 10h50q11 0 16.5 -8.5t0.5 -18.5z" />
    <glyph glyph-name="zerosuperior" unicode="&#x2070;" horiz-adv-x="357" 
d="M179 494q-61 0 -94 42t-33 116q0 75 32.5 116.5t94.5 41.5q61 0 93 -41.5t32 -116.5t-32 -116.5t-93 -41.5zM179 564q44 0 44 88t-44 88t-44 -88t44 -88z" />
    <glyph glyph-name="foursuperior" unicode="&#x2074;" horiz-adv-x="370" 
d="M206 504q-10 0 -10 9v48h-137q-9 0 -9 8v51l163 177q3 3 8 3h41q9 0 9 -9v-170h40q9 0 9 -8v-43q0 -9 -9 -9h-40v-48q0 -9 -9 -9h-56zM123 620h74v83z" />
    <glyph glyph-name="fivesuperior" unicode="&#x2075;" horiz-adv-x="326" 
d="M152 494q-63 0 -96 38q-7 7 -1 15l27 33q7 10 15 2q21 -21 57 -21q18 0 31.5 11t13.5 27q0 17 -13 27t-35 10h-74q-15 0 -15 16v139q0 9 9 9h160q9 0 9 -9v-44q0 -9 -9 -9h-103v-39h35q54 0 84 -26t30 -73q0 -46 -34.5 -76t-90.5 -30z" />
    <glyph glyph-name="sixsuperior" unicode="&#x2076;" horiz-adv-x="334" 
d="M170 494q-56 0 -88 35t-32 89q0 46 20 83.5t50.5 60t53.5 34.5t42 18q13 4 18 -8l13 -34q4 -12 -9 -16q-27 -8 -60.5 -28t-43.5 -46q26 13 55 13q38 0 66.5 -25.5t28.5 -71.5q0 -43 -33.5 -73.5t-80.5 -30.5zM170 563q17 0 28.5 11t11.5 27t-11.5 27.5t-28.5 11.5
q-15 0 -28 -9.5t-17 -20.5q1 -18 13.5 -32.5t31.5 -14.5z" />
    <glyph glyph-name="sevensuperior" unicode="&#x2077;" horiz-adv-x="322" 
d="M68 504q-11 0 -11 8v6l116 218h-109q-10 0 -10 8v47q0 9 10 9h199q9 0 9 -9v-14l-132 -264q-5 -9 -15 -9h-57z" />
    <glyph glyph-name="eightsuperior" unicode="&#x2078;" horiz-adv-x="342" 
d="M170 494q-53 0 -86.5 24.5t-33.5 61.5q0 21 14.5 39.5t26 26t19.5 10.5v1q-19 8 -35 26t-16 44q0 37 32 60t79 23q48 0 80.5 -23t32.5 -60q0 -26 -16.5 -44t-35.5 -26v-1q23 -7 42 -26.5t19 -49.5q0 -37 -33.5 -61.5t-88.5 -24.5zM171 686q15 1 23.5 10t8.5 21t-9.5 21.5
t-23.5 9.5q-13 0 -22.5 -9.5t-9.5 -21.5q0 -28 33 -31zM171 556q16 0 27 9t11 23q0 13 -10.5 24t-27.5 12q-17 -1 -28 -12t-11 -24q0 -14 11.5 -23t27.5 -9z" />
    <glyph glyph-name="ninesuperior" unicode="&#x2079;" horiz-adv-x="334" 
d="M118 488q-13 -4 -18 8l-13 34q-4 12 9 16q27 8 60.5 28t43.5 46q-26 -13 -55 -13q-38 0 -66.5 25.5t-28.5 71.5q0 43 33.5 73.5t80.5 30.5q56 0 88 -35t32 -89q0 -46 -20 -83.5t-50.5 -60t-53.5 -34.5t-42 -18zM164 662q15 0 28 9.5t17 20.5q-1 18 -13.5 32.5t-31.5 14.5
q-17 0 -28.5 -11t-11.5 -27t11.5 -27.5t28.5 -11.5z" />
    <glyph glyph-name="zeroinferior" unicode="&#x2080;" horiz-adv-x="357" 
d="M52 -2q0 75 32.5 116.5t94.5 41.5q61 0 93 -41.5t32 -116.5t-32 -116.5t-93 -41.5t-94 42t-33 116zM135 -2q0 -88 44 -88t44 88t-44 88t-44 -88z" />
    <glyph glyph-name="oneinferior" unicode="&#x2081;" horiz-adv-x="241" 
d="M52 57l-2 31q0 5 7 11l74 47h51q9 0 9 -9v-278q0 -9 -9 -9h-62q-10 0 -10 9v193l-49 -4q-9 0 -9 9z" />
    <glyph glyph-name="twoinferior" unicode="&#x2082;" horiz-adv-x="316" 
d="M85 70l-22 31q-9 12 3 21q41 34 94 34q47 0 76.5 -25.5t29.5 -66.5t-37 -86l-54 -64h80q9 0 9 -9v-46q0 -9 -9 -9h-195q-10 0 -10 9v17l110 126q25 28 25 50q0 15 -11 25t-29 10q-26 0 -44 -20q-9 -6 -16 3z" />
    <glyph glyph-name="threeinferior" unicode="&#x2083;" horiz-adv-x="317" 
d="M91 15q0 14 15 14h29q19 0 30 8.5t11 22.5q0 13 -10.5 21.5t-27.5 8.5q-21 0 -39 -16q-9 -5 -15 3l-24 29q-11 11 1 18q33 32 89 32q48 0 78 -22.5t30 -60.5q0 -25 -15.5 -43t-35.5 -27v-1q60 -23 60 -76q0 -40 -33.5 -63t-83.5 -23q-58 0 -95 33q-8 8 -1 18l22 29
q6 9 17 2l3 -2q2 -1 6.5 -3.5t10 -5t13 -4t14.5 -1.5q42 0 42 31q0 33 -47 33h-29q-15 0 -15 14v31z" />
    <glyph glyph-name="fourinferior" unicode="&#x2084;" horiz-adv-x="370" 
d="M50 -34l163 177q3 3 8 3h41q9 0 9 -9v-170h40q9 0 9 -8v-43q0 -9 -9 -9h-40v-48q0 -9 -9 -9h-56q-10 0 -10 9v48h-137q-9 0 -9 8v51zM123 -34h74v83z" />
    <glyph glyph-name="fiveinferior" unicode="&#x2085;" horiz-adv-x="326" 
d="M62 -2v139q0 9 9 9h160q9 0 9 -9v-44q0 -9 -9 -9h-103v-39h35q54 0 84 -26t30 -73q0 -46 -34.5 -76t-90.5 -30q-63 0 -96 38q-7 7 -1 15l27 33q7 10 15 2q21 -21 57 -21q18 0 31.5 11t13.5 27q0 17 -13 27t-35 10h-74q-15 0 -15 16z" />
    <glyph glyph-name="sixinferior" unicode="&#x2086;" horiz-adv-x="334" 
d="M50 -36q0 46 20 83.5t50.5 60t53.5 34.5t42 18q13 4 18 -8l13 -34q4 -12 -9 -16q-27 -8 -60.5 -28t-43.5 -46q26 13 55 13q38 0 66.5 -25.5t28.5 -71.5q0 -43 -33.5 -73.5t-80.5 -30.5q-56 0 -88 35t-32 89zM125 -44q1 -18 13.5 -32.5t31.5 -14.5q17 0 28.5 11t11.5 27
t-11.5 27.5t-28.5 11.5q-15 0 -28 -9.5t-17 -20.5z" />
    <glyph glyph-name="seveninferior" unicode="&#x2087;" horiz-adv-x="322" 
d="M64 82q-10 0 -10 8v47q0 9 10 9h199q9 0 9 -9v-14l-132 -264q-5 -9 -15 -9h-57q-11 0 -11 8v6l116 218h-109z" />
    <glyph glyph-name="eightinferior" unicode="&#x2088;" horiz-adv-x="342" 
d="M50 -74q0 21 14.5 39.5t26 26t19.5 10.5v1q-19 8 -35 26t-16 44q0 37 32 60t79 23q48 0 80.5 -23t32.5 -60q0 -26 -16.5 -44t-35.5 -26v-1q23 -7 42 -26.5t19 -49.5q0 -37 -33.5 -61.5t-88.5 -24.5q-53 0 -86.5 24.5t-33.5 61.5zM138 63q0 -28 33 -31q15 1 23.5 10
t8.5 21t-9.5 21.5t-23.5 9.5q-13 0 -22.5 -9.5t-9.5 -21.5zM132 -66q0 -14 11.5 -23t27.5 -9t27 9t11 23q0 13 -10.5 24t-27.5 12q-17 -1 -28 -12t-11 -24z" />
    <glyph glyph-name="nineinferior" unicode="&#x2089;" horiz-adv-x="334" 
d="M50 50q0 43 33.5 73.5t80.5 30.5q56 0 88 -35t32 -89q0 -46 -20 -83.5t-50.5 -60t-53.5 -34.5t-42 -18q-13 -4 -18 8l-13 34q-4 12 9 16q27 8 60.5 28t43.5 46q-26 -13 -55 -13q-38 0 -66.5 25.5t-28.5 71.5zM124 47q0 -16 11.5 -27.5t28.5 -11.5q15 0 28 9.5t17 20.5
q-1 18 -13.5 32.5t-31.5 14.5q-17 0 -28.5 -11t-11.5 -27z" />
    <glyph glyph-name="Euro" unicode="&#x20ac;" horiz-adv-x="718" 
d="M38 250q-7 0 -12.5 5.5t-5.5 13.5v13q0 8 5.5 13.5t12.5 5.5h39q-3 24 -3 48q0 14 1 21h-37q-7 0 -12.5 5.5t-5.5 13.5v13q0 8 5.5 13.5t12.5 5.5h43q25 125 124.5 207t229.5 82q138 0 242 -93q15 -14 1 -28l-60 -62q-13 -14 -27 0q-64 58 -153 58q-76 0 -134 -46
t-79 -118h233q8 0 13.5 -5.5t5.5 -13.5v-15q0 -8 -5.5 -13t-13.5 -5h-243v-17q0 -30 5 -51h198q8 0 13.5 -5.5t5.5 -13.5v-14q0 -8 -5.5 -13t-13.5 -5h-180q27 -58 80.5 -93.5t120.5 -35.5q83 0 153 57q13 12 25 0l62 -64q6 -6 5.5 -13.5t-6.5 -13.5q-100 -97 -243 -97
q-123 0 -218.5 73t-128.5 187h-50z" />
    <glyph glyph-name="afii61289" unicode="&#x2113;" horiz-adv-x="505" 
d="M94 154q0 18 4 56q-29 -8 -44 -11q-14 -2 -15 11l-5 38q-2 17 15 20q44 8 64 15q8 46 16 85q34 171 83 256.5t124 85.5q54 0 84.5 -37.5t30.5 -101.5q0 -121 -79.5 -206t-201.5 -131q-9 -45 -9 -78q0 -42 18.5 -70t56.5 -28q76 0 147 44q17 10 26 -5l14 -21q7 -9 7 -14
t-9 -13q-10 -8 -31 -20t-65.5 -25.5t-88.5 -13.5q-72 0 -107 47t-35 117zM183 304q91 40 146 107.5t55 159.5q0 32 -13 51t-35 19q-90 0 -143 -284z" />
    <glyph glyph-name="trademark" unicode="&#x2122;" horiz-adv-x="721" 
d="M338 385q-10 0 -15.5 7t-3.5 16l52 282q2 15 19 15h4q13 0 17 -11l87 -185l89 185q5 11 17 11h4q17 0 19 -15l53 -283q1 -9 -4.5 -15.5t-14.5 -6.5h-39q-15 0 -19 17l-22 125l-64 -136q-4 -9 -16 -9h-6q-12 0 -17 10l-61 135l-24 -126q-1 -6 -7 -11t-12 -5h-36zM145 385
q-8 0 -13.5 5.5t-5.5 13.5v222h-64q-8 0 -13.5 5.5t-5.5 13.5v36q0 7 5.5 13t13.5 6h205q8 0 13.5 -5.5t5.5 -13.5v-36q0 -19 -19 -19h-64v-222q0 -8 -5.5 -13.5t-13.5 -5.5h-39z" />
    <glyph glyph-name="Omega" unicode="&#x2126;" horiz-adv-x="781" 
d="M33 18v88q0 7 5.5 12.5t12.5 5.5h86q-47 32 -77 98t-30 134q0 149 104.5 251.5t255.5 102.5t255.5 -102.5t104.5 -251.5q0 -68 -30.5 -134t-78.5 -98h88q7 0 12.5 -5.5t5.5 -12.5v-88q0 -8 -5.5 -13t-12.5 -5h-270q-17 0 -17 18v54q0 12 3.5 19.5t6.5 10t14 8.5
q70 34 111 100.5t41 138.5q0 93 -67.5 161.5t-160.5 68.5t-161 -68.5t-68 -161.5q0 -72 41 -138t111 -101q11 -6 14.5 -8.5t7 -9.5t3.5 -20v-54q0 -18 -18 -18h-269q-7 0 -12.5 5t-5.5 13z" />
    <glyph glyph-name="estimated" unicode="&#x212e;" horiz-adv-x="823" 
d="M150 168q37 -52 101.5 -82.5t135.5 -30.5q108 0 202 81q15 15 28 2l21 -22q11 -12 -6 -29q-104 -97 -245 -97q-152 0 -257.5 104t-105.5 255q0 152 105.5 256.5t257.5 104.5q151 0 256.5 -106t107.5 -258q0 -29 -24 -29h-577v-149zM150 380h476v150q-41 53 -103.5 83.5
t-135.5 30.5q-152 0 -237 -112v-152z" />
    <glyph glyph-name="onethird" unicode="&#x2153;" horiz-adv-x="686" 
d="M118 27l343 663q5 10 17 10h50q11 0 16.5 -8.5t0.5 -18.5l-345 -663q-5 -10 -17 -10h-48q-11 0 -16.5 8.5t-0.5 18.5zM120 404q-10 0 -10 9v193l-49 -4q-9 0 -9 9l-2 31q0 5 7 11l74 47h51q9 0 9 -9v-278q0 -9 -9 -9h-62zM432 23q-8 8 -1 18l22 29q6 9 17 2l2 -2
q3 -1 7.5 -3.5t10 -5t13 -4t14.5 -1.5q42 0 42 31q0 33 -47 33h-29q-15 0 -15 14v31q0 14 15 14h29q19 0 30 8.5t11 22.5q0 13 -10.5 21.5t-27.5 8.5q-21 0 -39 -16q-9 -5 -15 3l-24 29q-11 11 1 18q33 32 89 32q48 0 78 -22.5t30 -60.5q0 -25 -15.5 -43t-35.5 -27v-1
q60 -23 60 -76q0 -40 -33.5 -63t-83.5 -23q-58 0 -95 33z" />
    <glyph glyph-name="twothirds" unicode="&#x2154;" horiz-adv-x="686" 
d="M17 404q-10 0 -10 9v17l110 126q25 28 25 50q0 15 -11 25t-29 10q-26 0 -44 -20q-9 -6 -16 3l-22 31q-9 12 3 21q41 34 94 34q47 0 76.5 -25.5t29.5 -66.5t-37 -86l-54 -64h80q9 0 9 -9v-46q0 -9 -9 -9h-195zM118 27l343 663q5 10 17 10h50q11 0 16.5 -8.5t0.5 -18.5
l-345 -663q-5 -10 -17 -10h-48q-11 0 -16.5 8.5t-0.5 18.5zM432 23q-8 8 -1 18l22 29q6 9 17 2l2 -2q3 -1 7.5 -3.5t10 -5t13 -4t14.5 -1.5q42 0 42 31q0 33 -47 33h-29q-15 0 -15 14v31q0 14 15 14h29q19 0 30 8.5t11 22.5q0 13 -10.5 21.5t-27.5 8.5q-21 0 -39 -16
q-9 -5 -15 3l-24 29q-11 11 1 18q33 32 89 32q48 0 78 -22.5t30 -60.5q0 -25 -15.5 -43t-35.5 -27v-1q60 -23 60 -76q0 -40 -33.5 -63t-83.5 -23q-58 0 -95 33z" />
    <glyph glyph-name="oneeighth" unicode="&#x215b;" horiz-adv-x="700" 
d="M118 27l343 663q5 10 17 10h50q11 0 16.5 -8.5t0.5 -18.5l-345 -663q-5 -10 -17 -10h-48q-11 0 -16.5 8.5t-0.5 18.5zM120 404q-10 0 -10 9v193l-49 -4q-9 0 -9 9l-2 31q0 5 7 11l74 47h51q9 0 9 -9v-278q0 -9 -9 -9h-62zM430 76q0 21 14.5 39.5t26 26t19.5 10.5v1
q-19 8 -35 26t-16 44q0 37 32 60t79 23q48 0 80.5 -23t32.5 -60q0 -26 -16.5 -44t-35.5 -26v-1q23 -7 42 -26.5t19 -49.5q0 -37 -33.5 -61.5t-88.5 -24.5q-53 0 -86.5 24.5t-33.5 61.5zM518 213q0 -28 33 -31q15 1 23.5 10t8.5 21t-9.5 21.5t-23.5 9.5q-13 0 -22.5 -9.5
t-9.5 -21.5zM512 84q0 -14 11.5 -23t27.5 -9t27 9t11 23q0 13 -10.5 24t-27.5 12q-17 -1 -28 -12t-11 -24z" />
    <glyph glyph-name="threeeighths" unicode="&#x215c;" horiz-adv-x="700" 
d="M120 394q-58 0 -95 33q-8 8 -1 18l22 29q6 9 17 2l3 -2q2 -1 6.5 -3.5t10 -5t13 -4t14.5 -1.5q42 0 42 31q0 33 -47 33h-29q-15 0 -15 14v31q0 14 15 14h29q19 0 30 8.5t11 22.5q0 13 -10.5 21.5t-27.5 8.5q-21 0 -39 -16q-9 -5 -15 3l-24 29q-11 11 1 18q33 32 89 32
q48 0 78 -22.5t30 -60.5q0 -25 -15.5 -43t-35.5 -27v-1q60 -23 60 -76q0 -40 -33.5 -63t-83.5 -23zM118 27l343 663q5 10 17 10h50q11 0 16.5 -8.5t0.5 -18.5l-345 -663q-5 -10 -17 -10h-48q-11 0 -16.5 8.5t-0.5 18.5zM430 76q0 21 14.5 39.5t26 26t19.5 10.5v1
q-19 8 -35 26t-16 44q0 37 32 60t79 23q48 0 80.5 -23t32.5 -60q0 -26 -16.5 -44t-35.5 -26v-1q23 -7 42 -26.5t19 -49.5q0 -37 -33.5 -61.5t-88.5 -24.5q-53 0 -86.5 24.5t-33.5 61.5zM518 213q0 -28 33 -31q15 1 23.5 10t8.5 21t-9.5 21.5t-23.5 9.5q-13 0 -22.5 -9.5
t-9.5 -21.5zM512 84q0 -14 11.5 -23t27.5 -9t27 9t11 23q0 13 -10.5 24t-27.5 12q-17 -1 -28 -12t-11 -24z" />
    <glyph glyph-name="fiveeighths" unicode="&#x215d;" horiz-adv-x="700" 
d="M119 27l343 663q5 10 17 10h50q11 0 16.5 -8.5t0.5 -18.5l-345 -663q-5 -10 -17 -10h-48q-11 0 -16.5 8.5t-0.5 18.5zM121 394q-63 0 -96 38q-7 7 -1 15l27 33q7 10 15 2q21 -21 57 -21q18 0 31.5 11t13.5 27q0 17 -13 27t-35 10h-74q-15 0 -15 16v139q0 9 9 9h160
q9 0 9 -9v-44q0 -9 -9 -9h-103v-39h35q54 0 84 -26t30 -73q0 -46 -34.5 -76t-90.5 -30zM431 76q0 21 14.5 39.5t26 26t19.5 10.5v1q-19 8 -35 26t-16 44q0 37 32 60t79 23q48 0 80.5 -23t32.5 -60q0 -26 -16.5 -44t-35.5 -26v-1q23 -7 42 -26.5t19 -49.5q0 -37 -33.5 -61.5
t-88.5 -24.5q-53 0 -86.5 24.5t-33.5 61.5zM519 213q0 -28 33 -31q15 1 23.5 10t8.5 21t-9.5 21.5t-23.5 9.5q-13 0 -22.5 -9.5t-9.5 -21.5zM513 84q0 -14 11.5 -23t27.5 -9t27 9t11 23q0 13 -10.5 24t-27.5 12q-17 -1 -28 -12t-11 -24z" />
    <glyph glyph-name="seveneighths" unicode="&#x215e;" horiz-adv-x="700" 
d="M118 27l343 663q5 10 17 10h50q11 0 16.5 -8.5t0.5 -18.5l-345 -663q-5 -10 -17 -10h-48q-11 0 -16.5 8.5t-0.5 18.5zM75 404q-11 0 -11 8v6l116 218h-109q-10 0 -10 8v47q0 9 10 9h199q9 0 9 -9v-14l-132 -264q-5 -9 -15 -9h-57zM430 76q0 21 14.5 39.5t26 26t19.5 10.5
v1q-19 8 -35 26t-16 44q0 37 32 60t79 23q48 0 80.5 -23t32.5 -60q0 -26 -16.5 -44t-35.5 -26v-1q23 -7 42 -26.5t19 -49.5q0 -37 -33.5 -61.5t-88.5 -24.5q-53 0 -86.5 24.5t-33.5 61.5zM518 213q0 -28 33 -31q15 1 23.5 10t8.5 21t-9.5 21.5t-23.5 9.5q-13 0 -22.5 -9.5
t-9.5 -21.5zM512 84q0 -14 11.5 -23t27.5 -9t27 9t11 23q0 13 -10.5 24t-27.5 12q-17 -1 -28 -12t-11 -24z" />
    <glyph glyph-name="partialdiff" unicode="&#x2202;" horiz-adv-x="570" 
d="M53 219q0 101 61.5 159t142.5 58q66 0 114 -28q-11 38 -40 73.5t-64.5 59t-64.5 38t-51 21.5q-27 8 -18 29l23 59q6 20 28 14q33 -11 68.5 -28t85 -54t87.5 -82.5t65 -117t27 -154.5q0 -118 -62.5 -197t-175.5 -79q-92 0 -159 67.5t-67 161.5zM166 221q0 -48 33.5 -82.5
t80.5 -34.5q56 0 86.5 45t30.5 102q-10 33 -40.5 60t-75.5 27q-48 0 -81.5 -34.5t-33.5 -82.5z" />
    <glyph glyph-name="Delta" unicode="&#x2206;" horiz-adv-x="703" 
d="M29 43l303 658q5 10 16 10h9q11 0 16 -10l302 -660q8 -15 3 -28t-23 -13h-600q-20 0 -27.5 10.5t1.5 32.5zM200 119h304l-153 340h-1z" />
    <glyph glyph-name="product" unicode="&#x220f;" horiz-adv-x="686" 
d="M49 18v664q0 8 5.5 13t12.5 5h552q7 0 12 -5.5t5 -12.5v-664q0 -7 -5 -12.5t-12 -5.5h-98q-17 0 -17 18v558h-322v-558q0 -8 -5 -13t-13 -5h-97q-7 0 -12.5 5t-5.5 13z" />
    <glyph glyph-name="summation" unicode="&#x2211;" horiz-adv-x="546" 
d="M50 18v40l278 296l-278 294v34q0 18 17 18h411q8 0 13 -5t5 -13v-88q0 -8 -5 -13t-13 -5h-216l167 -157q18 -15 18 -36v-56q0 -16 -18 -34l-167 -169h216q8 0 13 -5t5 -13v-88q0 -8 -5 -13t-13 -5h-411q-17 0 -17 18z" />
    <glyph glyph-name="minus" unicode="&#x2212;" horiz-adv-x="532" 
d="M69 300q-7 0 -13 6t-6 13v56q0 7 6 13t13 6h394q7 0 12.5 -5.5t5.5 -13.5v-56q0 -8 -5.5 -13.5t-12.5 -5.5h-394z" />
    <glyph glyph-name="uni2215" unicode="&#x2215;" horiz-adv-x="123" 
d="M-60 10q-5 -10 -17 -10h-48q-11 0 -16.5 8.5t-0.5 18.5l343 663q5 10 17 10h50q11 0 16.5 -8.5t0.5 -18.5z" />
    <glyph glyph-name="uni2219" unicode="&#x2219;" horiz-adv-x="389" 
d="M193 167q-36 0 -62.5 26.5t-26.5 62.5q0 38 26.5 65t62.5 27q38 0 65 -27t27 -65q0 -36 -27 -62.5t-65 -26.5z" />
    <glyph glyph-name="radical" unicode="&#x221a;" horiz-adv-x="687" 
d="M232 1l-172 376q-5 9 0 16t15 7h94q13 0 15 -10l67 -153h5l204 452q4 11 17 11h188q17 0 17 -18v-72q0 -18 -17 -18h-119l-273 -591q-5 -11 -16 -11h-9q-10 0 -16 11z" />
    <glyph glyph-name="infinity" unicode="&#x221e;" horiz-adv-x="593" 
d="M190 156q-58 0 -99 41t-41 99t41 99t99 41q61 0 105 -55q48 55 107 55t100 -41t41 -99t-41.5 -99t-99.5 -41q-61 0 -107 55q-43 -55 -105 -55zM346 296q0 -22 15 -37t37 -15t37.5 15t15.5 37t-15.5 37t-37.5 15t-37 -15t-15 -37zM193 244q22 0 37.5 15t15.5 37t-15.5 37
t-37.5 15q-21 0 -36 -15t-15 -37t15 -37t36 -15z" />
    <glyph glyph-name="integral" unicode="&#x222b;" horiz-adv-x="393" 
d="M121 -108v617q0 95 53.5 148t139.5 53q64 0 111 -39q12 -12 4 -24l-37 -62q-10 -14 -24 -5q-5 4 -22.5 10.5t-30.5 6.5q-29 0 -49 -22.5t-20 -66.5v-617q0 -95 -54 -148t-140 -53q-64 0 -111 39q-11 11 -4 24l38 62q9 14 24 5q4 -4 21.5 -10.5t30.5 -6.5q29 0 49.5 22.5
t20.5 66.5z" />
    <glyph glyph-name="approxequal" unicode="&#x2248;" horiz-adv-x="463" 
d="M82 314l-39 33q-12 10 -2 20q2 3 6.5 9t17.5 20t26.5 25t33.5 20t38 9q10 0 19.5 -2t18.5 -7l14 -8t15 -10t12 -9q38 -25 57 -25q29 0 57 47q9 12 23 2l37 -32q10 -10 1 -21q-2 -3 -6 -8.5t-17 -20t-26.5 -25t-33 -19.5t-37.5 -9q-11 0 -21 2.5t-19.5 7.5t-15 8.5t-15 11
t-12.5 9.5q-31 21 -51 21q-30 0 -59 -46q-4 -6 -11 -7t-11 4zM82 116l-39 33q-10 10 -2 20q2 3 6.5 8.5t17.5 20t26.5 25t33.5 19.5t38 9q7 0 14 -1t14 -3.5t11.5 -4.5t11.5 -6.5t9.5 -6.5t10 -7.5t8.5 -6.5q38 -25 57 -25q28 0 57 47q9 12 23 2l37 -32q10 -10 1 -21
q-2 -3 -6 -8.5t-17 -20t-26.5 -25t-33 -19.5t-37.5 -9q-11 0 -21 2.5t-19.5 7.5t-15 8.5t-15 11t-12.5 9.5q-31 21 -51 21q-32 0 -59 -46q-4 -7 -11 -7t-11 5z" />
    <glyph glyph-name="notequal" unicode="&#x2260;" horiz-adv-x="464" 
d="M123 51q-17 8 -10 24l24 52h-68q-8 0 -13.5 5.5t-5.5 13.5v57q0 8 5.5 13.5t13.5 5.5h113l53 116h-166q-8 0 -13.5 5.5t-5.5 13.5v56q0 8 5.5 13.5t13.5 5.5h210l35 75q7 17 25 9l12 -6q8 -3 10.5 -10t-1.5 -14l-25 -54h60q8 0 13.5 -5.5t5.5 -13.5v-56q0 -8 -5.5 -13.5
t-13.5 -5.5h-104l-53 -116h157q8 0 13.5 -5.5t5.5 -13.5v-57q0 -8 -5.5 -13.5t-13.5 -5.5h-201l-34 -74q-7 -16 -25 -8z" />
    <glyph glyph-name="lessequal" unicode="&#x2264;" horiz-adv-x="456" 
d="M23 381q-10 5 -10 17v12q0 11 10 16l395 188q10 5 17.5 0.5t7.5 -15.5v-72q0 -11 -8 -14l-250 -106l250 -102q8 -5 8 -14v-73q0 -11 -8 -15.5t-17 0.5zM30 47q-8 0 -13.5 5.5t-5.5 13.5v56q0 8 5.5 13.5t13.5 5.5h394q7 0 12.5 -5.5t5.5 -13.5v-56q0 -8 -5.5 -13.5
t-12.5 -5.5h-394z" />
    <glyph glyph-name="greaterequal" unicode="&#x2265;" horiz-adv-x="456" 
d="M36 203q-9 -5 -17 -0.5t-8 15.5v73q0 9 8 14l250 102l-250 106q-8 3 -8 14v72q0 11 7.5 15.5t17.5 -0.5l395 -188q10 -5 10 -16v-12q0 -12 -10 -17zM30 47q-7 0 -12.5 5.5t-5.5 13.5v56q0 8 5.5 13.5t12.5 5.5h394q8 0 13.5 -5.5t5.5 -13.5v-56q0 -8 -5.5 -13.5
t-13.5 -5.5h-394z" />
    <glyph glyph-name="lozenge" unicode="&#x25ca;" horiz-adv-x="703" 
d="M92 312q-19 25 -13 55q4 15 18 35l235 299q5 10 16 10h9q11 0 16 -10l235 -298q23 -30 18 -58q-2 -15 -19 -38l-234 -297q-5 -10 -16 -10h-9q-10 0 -16 10zM351 167h2l143 188l-143 190h-2l-143 -190z" />
    <glyph glyph-name="uniF8FF" unicode="&#xf8ff;" horiz-adv-x="599" 
d="M50 30v640q0 30 30 30h439q30 0 30 -30v-640q0 -30 -30 -30h-439q-30 0 -30 30zM262 314q0 -12 14 -12h36q15 0 15 13v26q0 16 16.5 32t36 28.5t36 36.5t16.5 53q0 48 -35.5 79.5t-89.5 31.5q-24 0 -46.5 -6.5t-37 -15t-25.5 -17.5t-16 -15l-5 -7q-8 -12 0 -18l22 -22
q9 -6 17 0q1 1 7.5 7t9.5 9t11.5 8.5t15.5 8.5t18 5.5t22 2.5q29 0 45 -15t16 -37q0 -21 -15.5 -39t-34 -30t-34 -32.5t-15.5 -45.5v-29zM245 156q0 -20 14.5 -34t33.5 -14q20 0 34.5 14t14.5 34t-14.5 34t-34.5 14q-19 0 -33.5 -14t-14.5 -34z" />
    <glyph glyph-name="CR" horiz-adv-x="0" 
 />
    <glyph glyph-name="grave.cap" horiz-adv-x="302" 
d="M224 768l-175 77q-17 8 -6 27l28 52q8 14 26 3l164 -98q12 -7 6 -19l-18 -35q-7 -15 -25 -7z" />
    <glyph glyph-name="acute.cap" horiz-adv-x="302" 
d="M84 768q-18 -8 -25 7l-18 35q-6 12 6 19l164 98q18 11 26 -3l28 -52q11 -19 -6 -27z" />
    <glyph glyph-name="circumflex.cap" horiz-adv-x="373" 
d="M86 766q-14 -8 -23 3l-26 37q-7 10 6 19l130 101q10 8 21 0l130 -101q13 -9 6 -19l-26 -37q-9 -11 -23 -3l-97 61z" />
    <glyph glyph-name="caron.cap" horiz-adv-x="373" 
d="M174 764l-130 101q-13 9 -6 19l26 37q9 11 23 3l97 -61l98 61q14 8 23 -3l26 -37q7 -10 -6 -19l-130 -101q-10 -8 -21 0z" />
    <glyph glyph-name="caron.alt" horiz-adv-x="373" 
d="M179 710q33 0 58 -25.5t25 -81.5q0 -101 -90 -181q-13 -10 -23 1l-15 14q-10 12 3 23q10 7 22.5 19t29 42t16.5 61h-2q-2 -1 -4.5 -1.5t-6.5 -1.5t-8.5 -1.5t-9.5 -0.5q-27 0 -47 19.5t-20 46.5q0 28 20.5 47.5t51.5 19.5z" />
    <glyph glyph-name="tilde.cap" horiz-adv-x="380" 
d="M70 789l-29 21q-12 9 -6 23q8 15 12.5 22t19 25.5t33 27.5t39.5 9q28 0 59 -27.5t48 -27.5q12 0 21 9.5t13.5 19t13 15t17.5 -2.5l28 -20q13 -10 1 -31q-30 -52 -60 -67q-17 -9 -37 -9q-28 0 -61.5 28t-47.5 28q-15 0 -25 -15t-18 -25.5t-21 -2.5z" />
    <glyph glyph-name="dieresis.cap" horiz-adv-x="474" 
d="M360 775q-26 0 -44.5 19t-18.5 45t18.5 44.5t44.5 18.5t45 -18.5t19 -44.5t-19 -45t-45 -19zM113 775q-26 0 -44.5 19t-18.5 45t18.5 44.5t44.5 18.5t45 -18.5t19 -44.5t-19 -45t-45 -19z" />
    <glyph glyph-name="macron.cap" horiz-adv-x="414" 
d="M79 808q-8 0 -13.5 5t-5.5 13v34q0 19 19 19h256q19 0 19 -19v-34q0 -8 -5.5 -13t-13.5 -5h-256z" />
    <glyph glyph-name="breve.cap" horiz-adv-x="346" 
d="M173 766q-54 0 -93 33.5t-47 84.5q-2 9 3.5 15t14.5 6h37q13 0 17 -14q8 -23 26 -38t42 -15q21 0 39.5 15.5t26.5 37.5q3 14 17 14h39q9 0 14 -6t4 -15q-8 -51 -47.5 -84.5t-92.5 -33.5z" />
    <glyph glyph-name="ring.cap" horiz-adv-x="290" 
d="M145 754q-47 0 -80 33t-33 80t33 80t80 33t80 -33t33 -80t-33 -80t-80 -33zM145 817q19 0 33.5 15t14.5 35q0 19 -14.5 33.5t-33.5 14.5q-20 0 -35 -14.5t-15 -33.5t15.5 -34.5t34.5 -15.5z" />
    <glyph glyph-name="hungarumlaut.cap" horiz-adv-x="392" 
d="M220 768q-11 0 -16 5.5t-3 13.5l37 141q6 19 19 19h76q14 0 19 -8t-1 -17l-78 -139q-7 -15 -18 -15h-35zM54 768q-11 0 -16 5.5t-3 13.5l37 141q6 19 19 19h76q14 0 19 -7.5t-1 -17.5l-78 -139q-7 -15 -18 -15h-35z" />
    <glyph glyph-name="dotaccent.cap" horiz-adv-x="219" 
d="M109 781q-30 0 -51 21t-21 51t21 51t51 21t51 -21t21 -51t-21 -51t-51 -21z" />
    <glyph glyph-name="cedilla.cap" horiz-adv-x="247" 
d="M54 0h66v-52q46 -6 71.5 -33.5t25.5 -69.5q0 -44 -31 -74.5t-75 -30.5q-46 0 -76 35q-13 14 3 28l20 17q11 11 21 -1q11 -12 30 -12q15 0 25 11t10 26q0 43 -73 49q-17 2 -17 18v89z" />
    <glyph glyph-name="ogonek.cap" horiz-adv-x="276" 
d="M107 14h64q-7 -5 -17 -15t-27 -38.5t-17 -56.5q0 -27 17.5 -45.5t48.5 -18.5q10 0 46 9q8 2 14 -3t6 -14v-30q0 -13 -14 -19q-40 -10 -66 -10q-55 0 -91 28t-36 82q0 23 7.5 44.5t18 36.5t21 27t18.5 17z" />
    <glyph glyph-name="commaaccent" horiz-adv-x="292" 
d="M146 -91q33 0 58 -25.5t25 -81.5q0 -101 -90 -181q-13 -10 -23 1l-15 14q-10 12 3 23q10 7 22.5 19t29 42t16.5 61l-2 -1q-2 0 -4.5 -1t-6.5 -1.5t-8.5 -1t-9.5 -0.5q-27 0 -47 19.5t-20 46.5q0 28 20.5 47.5t51.5 19.5z" />
    <glyph glyph-name="commaaccent.alt" horiz-adv-x="292" 
d="M146 -91q33 0 58 -25.5t25 -81.5q0 -101 -90 -181q-13 -10 -23 1l-15 14q-10 12 3 23q10 7 22.5 19t29 42t16.5 61l-2 -1q-2 0 -4.5 -1t-6.5 -1.5t-8.5 -1t-9.5 -0.5q-27 0 -47 19.5t-20 46.5q0 28 20.5 47.5t51.5 19.5z" />
    <glyph glyph-name="commaaccent.cap" horiz-adv-x="292" 
d="M146 -91q33 0 58 -25.5t25 -81.5q0 -101 -90 -181q-13 -10 -23 1l-15 14q-10 12 3 23q10 7 22.5 19t29 42t16.5 61l-2 -1q-2 0 -4.5 -1t-6.5 -1.5t-8.5 -1t-9.5 -0.5q-27 0 -47 19.5t-20 46.5q0 28 20.5 47.5t51.5 19.5z" />
    <glyph glyph-name="brokenbar.case" horiz-adv-x="315" 
d="M151 512q-8 0 -13.5 5.5t-5.5 12.5v331q0 8 5.5 13.5t13.5 5.5h13q8 0 13 -5.5t5 -13.5v-331q0 -7 -5.5 -12.5t-13.5 -5.5h-12zM132 169q0 8 5.5 13.5t13.5 5.5h13q8 0 13 -5.5t5 -13.5v-331q0 -7 -5.5 -12.5t-13.5 -5.5h-12q-8 0 -13.5 5.5t-5.5 12.5v331z" />
    <glyph glyph-name="zero.tf" horiz-adv-x="604" 
d="M302 -10q-120 0 -186 92.5t-66 257.5t66 257.5t186 92.5t186 -92.5t66 -257.5t-66 -257.5t-186 -92.5zM302 108q58 0 89.5 60t31.5 172q0 111 -31.5 171.5t-89.5 60.5t-89.5 -60.5t-31.5 -171.5q0 -112 31.5 -172t89.5 -60z" />
    <glyph glyph-name="one.tf" horiz-adv-x="604" 
d="M130 0q-8 0 -13.5 5t-5.5 13v71q0 19 19 19h128v390l-88 -19q-7 -2 -13 2t-7 11l-6 49q-1 12 5 18l144 121h70q7 0 12.5 -5.5t5.5 -13.5v-553h108q19 0 19 -19v-71q0 -8 -5.5 -13t-13.5 -5h-359z" />
    <glyph glyph-name="two.tf" horiz-adv-x="604" 
d="M71 19v23q95 115 259 333q51 63 51 111q0 37 -27.5 64t-78.5 27q-58 0 -112 -59q-13 -14 -27 0l-48 48q-13 13 -1 26q3 4 9 10.5t26 23.5t41.5 30t54.5 23.5t66 10.5q103 0 163 -57t60 -142q0 -31 -10 -60t-21.5 -48t-35.5 -54q-30 -42 -172 -222h216q8 0 13.5 -5.5
t5.5 -13.5v-69q0 -7 -5.5 -13t-13.5 -6h-394q-8 0 -13.5 5.5t-5.5 13.5z" />
    <glyph glyph-name="three.tf" horiz-adv-x="604" 
d="M75 79q-10 12 1 25l51 49q14 12 26 0q3 -4 19 -16t46.5 -25t57.5 -13q42 0 74 27t32 67q0 41 -36.5 70t-101.5 29h-56q-19 0 -19 20v63q0 20 19 20h56q59 0 91.5 26t32.5 66t-29 66t-68 26q-60 0 -101 -48q-12 -14 -27 -1l-49 46q-14 12 0 26q3 4 9 9.5t25 21t39.5 27
t52 21t62.5 9.5q90 0 151.5 -50.5t61.5 -132.5q0 -53 -32 -95.5t-71 -60.5v-3q46 -19 83.5 -61t37.5 -102q0 -85 -63.5 -140t-166.5 -55q-133 0 -208 89z" />
    <glyph glyph-name="four.tf" horiz-adv-x="604" 
d="M43 145q-8 0 -13.5 5.5t-5.5 13.5v83l360 438q6 6 15 6h54q8 0 13.5 -5.5t5.5 -13.5v-426h80q8 0 13.5 -5t5.5 -13v-62q0 -8 -5.5 -13.5t-13.5 -5.5h-80l1 -128q0 -7 -5.5 -13t-13.5 -6h-83q-7 0 -13 6t-6 13v126h-309zM156 249h200v240z" />
    <glyph glyph-name="five.tf" horiz-adv-x="604" 
d="M95 73q-17 19 -2 34l50 49q13 11 24 1q6 -6 20 -16.5t46.5 -25t62.5 -14.5q50 0 83 35t33 83q0 49 -32 80.5t-89 31.5h-154q-14 0 -22.5 11t-8.5 24v295q0 8 5.5 13.5t13.5 5.5h316q8 0 13.5 -5.5t5.5 -13.5v-68q0 -8 -5.5 -13.5t-13.5 -5.5h-222v-133h86
q105 0 167 -61.5t62 -160.5q0 -95 -70 -162t-172 -67q-71 0 -121 26t-76 57z" />
    <glyph glyph-name="six.tf" horiz-adv-x="604" 
d="M74 266q0 83 27 154.5t65 117t87.5 82.5t85 54t68.5 28q22 6 28 -14l23 -59q9 -21 -18 -29q-22 -7 -51 -21.5t-64.5 -38t-64.5 -59t-40 -73.5q48 28 114 28q81 0 142.5 -58t61.5 -159q0 -94 -67 -161.5t-159 -67.5q-113 0 -175.5 79t-62.5 197zM194 251q0 -57 30.5 -102
t86.5 -45q47 0 80.5 34.5t33.5 82.5t-33.5 82.5t-81.5 34.5q-45 0 -75.5 -27t-40.5 -60z" />
    <glyph glyph-name="seven.tf" horiz-adv-x="604" 
d="M113 19v11l260 542h-264q-7 0 -13 6t-6 13v70q0 7 6 13t13 6h416q7 0 13 -6t6 -13v-7l-298 -627q-12 -27 -34 -27h-74q-25 0 -25 19z" />
    <glyph glyph-name="eight.tf" horiz-adv-x="604" 
d="M64 182q0 56 42.5 102.5t78.5 64.5v3q-39 21 -71 61.5t-32 93.5q0 82 62 132.5t155 50.5q95 0 158 -50.5t63 -132.5q0 -51 -31.5 -91t-71.5 -63v-4q45 -23 83 -66.5t38 -100.5q0 -83 -65.5 -137.5t-173.5 -54.5q-106 0 -170.5 54.5t-64.5 137.5zM301 407q45 10 68 35.5
t23 59.5q0 36 -27 60.5t-66 24.5q-36 0 -62.5 -24.5t-26.5 -60.5q0 -73 91 -95zM197 184q0 -40 31 -66t73 -26q43 0 73.5 26t30.5 66q0 35 -28 65t-76 41q-48 -11 -76 -41t-28 -65z" />
    <glyph glyph-name="nine.tf" horiz-adv-x="604" 
d="M145 57q-9 21 18 29q22 7 51 21.5t64.5 38t64.5 59t40 73.5q-48 -28 -114 -28q-81 0 -142.5 58t-61.5 159q0 94 67 161.5t159 67.5q113 0 175.5 -79t62.5 -197q0 -83 -27 -154.5t-65 -117t-87.5 -82.5t-85 -54t-68.5 -28q-22 -6 -28 14zM293 348q45 0 75.5 27t40.5 60
q0 57 -30.5 102t-86.5 45q-47 0 -80.5 -34.5t-33.5 -82.5t33.5 -82.5t81.5 -34.5z" />
    <glyph glyph-name="zero.denom" horiz-adv-x="357" 
d="M52 148q0 75 32.5 116.5t94.5 41.5q61 0 93 -41.5t32 -116.5t-32 -116.5t-93 -41.5t-94 42t-33 116zM179 60q44 0 44 88t-44 88t-44 -88t44 -88z" />
    <glyph glyph-name="one.denom" horiz-adv-x="241" 
d="M110 9v193l-49 -4q-9 0 -9 9l-2 31q0 5 7 11l74 47h51q9 0 9 -9v-278q0 -9 -9 -9h-62q-10 0 -10 9z" />
    <glyph glyph-name="two.denom" horiz-adv-x="316" 
d="M50 9v17l110 126q25 28 25 50q0 15 -11 25t-29 10q-26 0 -44 -20q-9 -6 -16 3l-22 31q-9 12 3 21q41 34 94 34q47 0 76.5 -25.5t29.5 -66.5t-37 -86l-54 -64h80q9 0 9 -9v-46q0 -9 -9 -9h-195q-10 0 -10 9z" />
    <glyph glyph-name="three.denom" horiz-adv-x="317" 
d="M55 23q-8 8 -1 18l22 29q6 9 17 2l3 -2q2 -1 6.5 -3.5t10 -5t13 -4t14.5 -1.5q42 0 42 31q0 33 -47 33h-29q-15 0 -15 14v31q0 14 15 14h29q19 0 30 8.5t11 22.5q0 13 -10.5 21.5t-27.5 8.5q-21 0 -39 -16q-9 -5 -15 3l-24 29q-11 11 1 18q33 32 89 32q48 0 78 -22.5
t30 -60.5q0 -25 -15.5 -43t-35.5 -27v-1q60 -23 60 -76q0 -40 -33.5 -63t-83.5 -23q-58 0 -95 33z" />
    <glyph glyph-name="four.denom" horiz-adv-x="370" 
d="M50 65v51l163 177q3 3 8 3h41q9 0 9 -9v-170h40q9 0 9 -8v-43q0 -9 -9 -9h-40v-48q0 -9 -9 -9h-56q-10 0 -10 9v48h-137q-9 0 -9 8zM123 116h74v83z" />
    <glyph glyph-name="five.denom" horiz-adv-x="326" 
d="M56 28q-7 7 -1 15l27 33q7 10 15 2q21 -21 57 -21q18 0 31.5 11t13.5 27q0 17 -13 27t-35 10h-74q-15 0 -15 16v139q0 9 9 9h160q9 0 9 -9v-44q0 -9 -9 -9h-103v-39h35q54 0 84 -26t30 -73q0 -46 -34.5 -76t-90.5 -30q-63 0 -96 38z" />
    <glyph glyph-name="six.denom" horiz-adv-x="334" 
d="M50 114q0 46 20 83.5t50.5 60t53.5 34.5t42 18q13 4 18 -8l13 -34q4 -12 -9 -16q-27 -8 -60.5 -28t-43.5 -46q26 13 55 13q38 0 66.5 -25.5t28.5 -71.5q0 -43 -33.5 -73.5t-80.5 -30.5q-56 0 -88 35t-32 89zM125 106q1 -18 13.5 -32.5t31.5 -14.5q17 0 28.5 11t11.5 27
t-11.5 27.5t-28.5 11.5q-15 0 -28 -9.5t-17 -20.5z" />
    <glyph glyph-name="seven.denom" horiz-adv-x="322" 
d="M57 8v6l116 218h-109q-10 0 -10 8v47q0 9 10 9h199q9 0 9 -9v-14l-132 -264q-5 -9 -15 -9h-57q-11 0 -11 8z" />
    <glyph glyph-name="eight.denom" horiz-adv-x="342" 
d="M50 76q0 21 14.5 39.5t26 26t19.5 10.5v1q-19 8 -35 26t-16 44q0 37 32 60t79 23q48 0 80.5 -23t32.5 -60q0 -26 -16.5 -44t-35.5 -26v-1q23 -7 42 -26.5t19 -49.5q0 -37 -33.5 -61.5t-88.5 -24.5q-53 0 -86.5 24.5t-33.5 61.5zM171 182q15 1 23.5 10t8.5 21t-9.5 21.5
t-23.5 9.5q-13 0 -22.5 -9.5t-9.5 -21.5q0 -28 33 -31zM132 84q0 -14 11.5 -23t27.5 -9t27 9t11 23q0 13 -10.5 24t-27.5 12q-17 -1 -28 -12t-11 -24z" />
    <glyph glyph-name="nine.denom" horiz-adv-x="334" 
d="M87 26q-4 12 9 16q27 8 60.5 28t43.5 46q-26 -13 -55 -13q-38 0 -66.5 25.5t-28.5 71.5q0 43 33.5 73.5t80.5 30.5q56 0 88 -35t32 -89q0 -46 -20 -83.5t-50.5 -60t-53.5 -34.5t-42 -18q-13 -4 -18 8zM164 158q15 0 28 9.5t17 20.5q-1 18 -13.5 32.5t-31.5 14.5
q-17 0 -28.5 -11t-11.5 -27t11.5 -27.5t28.5 -11.5z" />
    <glyph glyph-name="zero.num" horiz-adv-x="357" 
d="M179 394q-61 0 -94 42t-33 116q0 75 32.5 116.5t94.5 41.5q61 0 93 -41.5t32 -116.5t-32 -116.5t-93 -41.5zM179 464q44 0 44 88t-44 88t-44 -88t44 -88z" />
    <glyph glyph-name="one.num" horiz-adv-x="241" 
d="M120 404q-10 0 -10 9v193l-49 -4q-9 0 -9 9l-2 31q0 5 7 11l74 47h51q9 0 9 -9v-278q0 -9 -9 -9h-62z" />
    <glyph glyph-name="two.num" horiz-adv-x="316" 
d="M60 404q-10 0 -10 9v17l110 126q25 28 25 50q0 15 -11 25t-29 10q-26 0 -44 -20q-9 -6 -16 3l-22 31q-9 12 3 21q41 34 94 34q47 0 76.5 -25.5t29.5 -66.5t-37 -86l-54 -64h80q9 0 9 -9v-46q0 -9 -9 -9h-195z" />
    <glyph glyph-name="three.num" horiz-adv-x="317" 
d="M150 394q-58 0 -95 33q-8 8 -1 18l22 29q6 9 17 2l3 -2q2 -1 6.5 -3.5t10 -5t13 -4t14.5 -1.5q42 0 42 31q0 33 -47 33h-29q-15 0 -15 14v31q0 14 15 14h29q19 0 30 8.5t11 22.5q0 13 -10.5 21.5t-27.5 8.5q-21 0 -39 -16q-9 -5 -15 3l-24 29q-11 11 1 18q33 32 89 32
q48 0 78 -22.5t30 -60.5q0 -25 -15.5 -43t-35.5 -27v-1q60 -23 60 -76q0 -40 -33.5 -63t-83.5 -23z" />
    <glyph glyph-name="four.num" horiz-adv-x="370" 
d="M206 404q-10 0 -10 9v48h-137q-9 0 -9 8v51l163 177q3 3 8 3h41q9 0 9 -9v-170h40q9 0 9 -8v-43q0 -9 -9 -9h-40v-48q0 -9 -9 -9h-56zM123 520h74v83z" />
    <glyph glyph-name="five.num" horiz-adv-x="326" 
d="M152 394q-63 0 -96 38q-7 7 -1 15l27 33q7 10 15 2q21 -21 57 -21q18 0 31.5 11t13.5 27q0 17 -13 27t-35 10h-74q-15 0 -15 16v139q0 9 9 9h160q9 0 9 -9v-44q0 -9 -9 -9h-103v-39h35q54 0 84 -26t30 -73q0 -46 -34.5 -76t-90.5 -30z" />
    <glyph glyph-name="six.num" horiz-adv-x="334" 
d="M170 394q-56 0 -88 35t-32 89q0 46 20 83.5t50.5 60t53.5 34.5t42 18q13 4 18 -8l13 -34q4 -12 -9 -16q-27 -8 -60.5 -28t-43.5 -46q26 13 55 13q38 0 66.5 -25.5t28.5 -71.5q0 -43 -33.5 -73.5t-80.5 -30.5zM170 463q17 0 28.5 11t11.5 27t-11.5 27.5t-28.5 11.5
q-15 0 -28 -9.5t-17 -20.5q1 -18 13.5 -32.5t31.5 -14.5z" />
    <glyph glyph-name="seven.num" horiz-adv-x="322" 
d="M68 404q-11 0 -11 8v6l116 218h-109q-10 0 -10 8v47q0 9 10 9h199q9 0 9 -9v-14l-132 -264q-5 -9 -15 -9h-57z" />
    <glyph glyph-name="eight.num" horiz-adv-x="342" 
d="M170 394q-53 0 -86.5 24.5t-33.5 61.5q0 21 14.5 39.5t26 26t19.5 10.5v1q-19 8 -35 26t-16 44q0 37 32 60t79 23q48 0 80.5 -23t32.5 -60q0 -26 -16.5 -44t-35.5 -26v-1q23 -7 42 -26.5t19 -49.5q0 -37 -33.5 -61.5t-88.5 -24.5zM171 586q15 1 23.5 10t8.5 21t-9.5 21.5
t-23.5 9.5q-13 0 -22.5 -9.5t-9.5 -21.5q0 -28 33 -31zM171 456q16 0 27 9t11 23q0 13 -10.5 24t-27.5 12q-17 -1 -28 -12t-11 -24q0 -14 11.5 -23t27.5 -9z" />
    <glyph glyph-name="nine.num" horiz-adv-x="334" 
d="M118 388q-13 -4 -18 8l-13 34q-4 12 9 16q27 8 60.5 28t43.5 46q-26 -13 -55 -13q-38 0 -66.5 25.5t-28.5 71.5q0 43 33.5 73.5t80.5 30.5q56 0 88 -35t32 -89q0 -46 -20 -83.5t-50.5 -60t-53.5 -34.5t-42 -18zM164 562q15 0 28 9.5t17 20.5q-1 18 -13.5 32.5t-31.5 14.5
q-17 0 -28.5 -11t-11.5 -27t11.5 -27.5t28.5 -11.5z" />
    <glyph glyph-name="parenright.case" horiz-adv-x="343" 
d="M29 32q-2 16 12 19q72 19 103.5 92t31.5 202t-32 202.5t-103 92.5q-5 1 -9 6.5t-3 11.5l3 66q0 7 5.5 11.5t13.5 3.5q48 -3 88 -21t78 -59.5t60 -121.5t22 -192t-22 -192t-60 -121t-78 -59.5t-88 -21.5q-17 0 -19 16z" />
    <glyph glyph-name="hyphen.case" horiz-adv-x="369" 
d="M73 282q-8 0 -13.5 5t-5.5 13v67q0 19 19 19h223q19 0 19 -19v-67q0 -8 -5.5 -13t-13.5 -5h-223z" />
    <glyph glyph-name="bracketleft.case" horiz-adv-x="349" 
d="M181 -80h130q8 0 13.5 -5.5t5.5 -12.5v-63q0 -7 -6 -13t-13 -6h-226q-7 0 -13 6t-6 13v962q0 7 6 13t13 6h226q7 0 13 -6t6 -13v-62q0 -8 -5.5 -13.5t-13.5 -5.5h-130v-800z" />
    <glyph glyph-name="bracketright.case" horiz-adv-x="349" 
d="M38 -80h130v800h-130q-8 0 -13.5 5.5t-5.5 13.5v62q0 7 5.5 13t13.5 6h226q8 0 13.5 -6t5.5 -13v-962q0 -7 -5.5 -13t-13.5 -6h-226q-8 0 -13.5 6t-5.5 13v63q0 7 5.5 12.5t13.5 5.5z" />
    <glyph glyph-name="braceleft.case" horiz-adv-x="394" 
d="M103 84v123q0 30 -22.5 47t-46.5 21q-15 2 -15 18v49q0 13 14 17q8 2 22.5 9t31 24t16.5 36v127q0 78 23.5 134.5t63 85t78.5 41t83 14.5q18 2 20 -17l4 -63q1 -16 -14 -18q-61 -13 -97.5 -58t-36.5 -119v-105q0 -30 -11 -55.5t-27.5 -41t-27 -23t-17.5 -10.5v-4
q83 -34 83 -125v-107q0 -74 36.5 -118t97.5 -57q15 -4 14 -19l-4 -63q-1 -8 -7 -13t-13 -4q-44 2 -83 14.5t-78.5 41t-63 84.5t-23.5 134z" />
    <glyph glyph-name="bar.case" horiz-adv-x="180" 
d="M65 -162v1023q0 8 5.5 13.5t13.5 5.5h13q8 0 13 -5.5t5 -13.5v-1023q0 -7 -5.5 -12.5t-13.5 -5.5h-12q-8 0 -13.5 5.5t-5.5 12.5z" />
    <glyph glyph-name="braceright.case" horiz-adv-x="394" 
d="M167 84v107q0 91 83 125v4q-7 3 -17.5 10.5t-27 23t-27.5 41t-11 55.5v105q0 74 -36.5 119t-97.5 58q-15 2 -14 18l4 63q2 19 20 17q44 -2 83 -14.5t78.5 -41t63 -85t23.5 -134.5v-127q0 -27 26.5 -46t43.5 -23q14 -4 14 -17v-49q0 -16 -15 -18q-24 -4 -46.5 -21
t-22.5 -47v-123q0 -78 -23.5 -134t-63 -84.5t-78.5 -41t-83 -14.5q-7 -1 -13 4t-7 13l-4 63q-1 15 14 19q61 13 97.5 57t36.5 118z" />
    <glyph glyph-name="guilsinglleft.case" horiz-adv-x="271" 
d="M130 159l-104 155q-8 11 0 24l109 148q7 12 18 12h57q13 0 17 -9.5t-2 -21.5l-68 -139l65 -147q6 -12 1.5 -21t-16.5 -9h-62q-9 0 -15 8z" />
    <glyph glyph-name="guilsinglright.case" horiz-adv-x="271" 
d="M63 151q-12 0 -16.5 9t1.5 21l65 147l-68 139q-6 12 -2 21.5t17 9.5h57q11 0 18 -12l109 -148q8 -13 0 -24l-104 -155q-6 -8 -15 -8h-62z" />
    <glyph glyph-name="guillemotleft.case" horiz-adv-x="471" 
d="M226 314q-8 11 0 24l109 148q7 12 18 12h57q13 0 17 -9.5t-2 -21.5l-68 -139l65 -147q6 -12 1.5 -21t-16.5 -9h-62q-9 0 -15 8zM130 159l-104 155q-8 11 0 24l109 148q7 12 18 12h57q13 0 17 -9.5t-2 -21.5l-68 -139l65 -147q6 -12 1.5 -21t-16.5 -9h-62q-9 0 -15 8z" />
    <glyph glyph-name="guillemotright.case" horiz-adv-x="471" 
d="M248 181l65 147l-68 139q-6 12 -2 21.5t17 9.5h57q11 0 18 -12l109 -148q8 -13 0 -24l-104 -155q-6 -8 -15 -8h-62q-12 0 -16.5 9t1.5 21zM63 151q-12 0 -16.5 9t1.5 21l65 147l-68 139q-6 12 -2 21.5t17 9.5h57q11 0 18 -12l109 -148q8 -13 0 -24l-104 -155
q-6 -8 -15 -8h-62z" />
    <glyph glyph-name="endash.case" horiz-adv-x="539" 
d="M72 300q-8 0 -13.5 5t-5.5 13v37q0 19 19 19h395q19 0 19 -19v-37q0 -8 -5.5 -13t-13.5 -5h-395z" />
    <glyph glyph-name="emdash.case" horiz-adv-x="759" 
d="M72 300q-8 0 -13.5 5t-5.5 13v37q0 19 19 19h615q19 0 19 -19v-37q0 -8 -5.5 -13t-13.5 -5h-615z" />
    <glyph glyph-name="bullet.case" horiz-adv-x="389" 
d="M192 185q-52 0 -90.5 38.5t-38.5 90.5q0 54 38.5 93.5t90.5 39.5q55 0 94 -39t39 -94q0 -53 -39 -91t-94 -38z" />
    <glyph glyph-name="periodcentered.case" horiz-adv-x="258" 
d="M128 257q-36 0 -62.5 26.5t-26.5 62.5q0 38 26.5 65t62.5 27q38 0 65 -27t27 -65q0 -36 -27 -62.5t-65 -26.5z" />
    <glyph glyph-name="parenleft.case" horiz-adv-x="342" 
d="M291 -49q-48 3 -88 21.5t-78 59.5t-60 121t-22 192t22 192t60 121.5t78 59.5t88 21q8 1 13.5 -3.5t5.5 -11.5l3 -66q1 -6 -3 -11.5t-9 -6.5q-71 -19 -103 -92.5t-32 -202.5t31.5 -202t103.5 -92q14 -3 12 -19l-3 -65q-2 -16 -19 -16z" />
    <glyph glyph-name="a.alt" 
d="M440 381v-362q0 -7 -6 -13t-13 -6h-39q-14 0 -19 19l-10 31q-5 -7 -15.5 -17t-44.5 -26.5t-71 -16.5q-81 0 -136.5 61.5t-55.5 148.5t55.5 148.5t137.5 61.5q44 0 79.5 -18t49.5 -37l13 33q5 12 17 12h39q8 0 13.5 -5.5t5.5 -13.5zM321 163v78q-6 22 -26.5 41.5
t-54.5 19.5q-40 0 -66.5 -30.5t-26.5 -73.5t25.5 -71.5t64.5 -28.5q35 0 56 20.5t28 44.5z" />
    <glyph glyph-name="agrave.alt" 
d="M440 381v-362q0 -7 -6 -13t-13 -6h-39q-14 0 -19 19l-10 31q-5 -7 -15.5 -17t-44.5 -26.5t-71 -16.5q-81 0 -136.5 61.5t-55.5 148.5t55.5 148.5t137.5 61.5q44 0 79.5 -18t49.5 -37l13 33q5 12 17 12h39q8 0 13.5 -5.5t5.5 -13.5zM321 163v78q-6 22 -26.5 41.5
t-54.5 19.5q-40 0 -66.5 -30.5t-26.5 -73.5t25.5 -71.5t64.5 -28.5q35 0 56 20.5t28 44.5zM337 528l-175 77q-16 8 -6 27l28 51q8 15 26 3l164 -97q12 -6 6 -19l-18 -36q-6 -14 -25 -6z" />
    <glyph glyph-name="aacute.alt" 
d="M440 381v-362q0 -7 -6 -13t-13 -6h-39q-14 0 -19 19l-10 31q-5 -7 -15.5 -17t-44.5 -26.5t-71 -16.5q-81 0 -136.5 61.5t-55.5 148.5t55.5 148.5t137.5 61.5q44 0 79.5 -18t49.5 -37l13 33q5 12 17 12h39q8 0 13.5 -5.5t5.5 -13.5zM321 163v78q-6 22 -26.5 41.5
t-54.5 19.5q-40 0 -66.5 -30.5t-26.5 -73.5t25.5 -71.5t64.5 -28.5q35 0 56 20.5t28 44.5zM176 528q-19 -7 -26 6l-17 36q-6 11 6 19l163 97q18 12 26 -3l29 -51q9 -20 -6 -27z" />
    <glyph glyph-name="acircumflex.alt" 
d="M440 381v-362q0 -7 -6 -13t-13 -6h-39q-14 0 -19 19l-10 31q-5 -7 -15.5 -17t-44.5 -26.5t-71 -16.5q-81 0 -136.5 61.5t-55.5 148.5t55.5 148.5t137.5 61.5q44 0 79.5 -18t49.5 -37l13 33q5 12 17 12h39q8 0 13.5 -5.5t5.5 -13.5zM321 163v78q-6 22 -26.5 41.5
t-54.5 19.5q-40 0 -66.5 -30.5t-26.5 -73.5t25.5 -71.5t64.5 -28.5q35 0 56 20.5t28 44.5zM129 529l-26 37q-7 10 6 19l130 101q10 8 21 0l130 -101q13 -9 6 -19l-26 -37q-9 -11 -23 -3l-97 61l-98 -61q-14 -8 -23 3z" />
    <glyph glyph-name="atilde.alt" 
d="M440 381v-362q0 -7 -6 -13t-13 -6h-39q-14 0 -19 19l-10 31q-5 -7 -15.5 -17t-44.5 -26.5t-71 -16.5q-81 0 -136.5 61.5t-55.5 148.5t55.5 148.5t137.5 61.5q44 0 79.5 -18t49.5 -37l13 33q5 12 17 12h39q8 0 13.5 -5.5t5.5 -13.5zM321 163v78q-6 22 -26.5 41.5
t-54.5 19.5q-40 0 -66.5 -30.5t-26.5 -73.5t25.5 -71.5t64.5 -28.5q35 0 56 20.5t28 44.5zM127 562l-29 21q-12 9 -6 23q8 15 12.5 22t19 25.5t33 27.5t39.5 9q28 0 59 -27.5t48 -27.5q12 0 21 9.5t13.5 19t13 15t17.5 -2.5l28 -20q13 -10 1 -31q-30 -52 -60 -67
q-17 -9 -37 -9q-28 0 -61.5 28t-47.5 28q-15 0 -25 -15t-18 -25.5t-21 -2.5z" />
    <glyph glyph-name="adieresis.alt" 
d="M440 381v-362q0 -7 -6 -13t-13 -6h-39q-14 0 -19 19l-10 31q-5 -7 -15.5 -17t-44.5 -26.5t-71 -16.5q-81 0 -136.5 61.5t-55.5 148.5t55.5 148.5t137.5 61.5q44 0 79.5 -18t49.5 -37l13 33q5 12 17 12h39q8 0 13.5 -5.5t5.5 -13.5zM321 163v78q-6 22 -26.5 41.5
t-54.5 19.5q-40 0 -66.5 -30.5t-26.5 -73.5t25.5 -71.5t64.5 -28.5q35 0 56 20.5t28 44.5zM348 551q-26 0 -44.5 19t-18.5 45t18.5 44.5t44.5 18.5t45 -18.5t19 -44.5t-19 -45t-45 -19zM147 551q-26 0 -44.5 19t-18.5 45t18.5 44.5t44.5 18.5t45 -18.5t19 -44.5t-19 -45
t-45 -19z" />
    <glyph glyph-name="amacron.alt" 
d="M440 381v-362q0 -7 -6 -13t-13 -6h-39q-14 0 -19 19l-10 31q-5 -7 -15.5 -17t-44.5 -26.5t-71 -16.5q-81 0 -136.5 61.5t-55.5 148.5t55.5 148.5t137.5 61.5q44 0 79.5 -18t49.5 -37l13 33q5 12 17 12h39q8 0 13.5 -5.5t5.5 -13.5zM321 163v78q-6 22 -26.5 41.5
t-54.5 19.5q-40 0 -66.5 -30.5t-26.5 -73.5t25.5 -71.5t64.5 -28.5q35 0 56 20.5t28 44.5zM122 570q-8 0 -13.5 5t-5.5 13v34q0 19 19 19h256q19 0 19 -19v-34q0 -8 -5.5 -13t-13.5 -5h-256z" />
    <glyph glyph-name="abreve.alt" 
d="M440 381v-362q0 -7 -6 -13t-13 -6h-39q-14 0 -19 19l-10 31q-5 -7 -15.5 -17t-44.5 -26.5t-71 -16.5q-81 0 -136.5 61.5t-55.5 148.5t55.5 148.5t137.5 61.5q44 0 79.5 -18t49.5 -37l13 33q5 12 17 12h39q8 0 13.5 -5.5t5.5 -13.5zM321 163v78q-6 22 -26.5 41.5
t-54.5 19.5q-40 0 -66.5 -30.5t-26.5 -73.5t25.5 -71.5t64.5 -28.5q35 0 56 20.5t28 44.5zM249 528q-54 0 -93 33.5t-47 84.5q-2 9 3 15.5t15 6.5h37q13 0 17 -14q8 -24 26 -38.5t42 -14.5q22 0 40 15.5t26 37.5q3 14 17 14h39q9 0 14 -6.5t4 -15.5q-8 -51 -47.5 -84.5
t-92.5 -33.5z" />
    <glyph glyph-name="aring.alt" 
d="M440 381v-362q0 -7 -6 -13t-13 -6h-39q-14 0 -19 19l-10 31q-5 -7 -15.5 -17t-44.5 -26.5t-71 -16.5q-81 0 -136.5 61.5t-55.5 148.5t55.5 148.5t137.5 61.5q44 0 79.5 -18t49.5 -37l13 33q5 12 17 12h39q8 0 13.5 -5.5t5.5 -13.5zM321 163v78q-6 22 -26.5 41.5
t-54.5 19.5q-40 0 -66.5 -30.5t-26.5 -73.5t25.5 -71.5t64.5 -28.5q35 0 56 20.5t28 44.5zM247 484q-47 0 -80 33t-33 80t33 80t80 33t80 -33t33 -80t-33 -80t-80 -33zM247 547q19 0 33.5 15t14.5 35q0 19 -14.5 33.5t-33.5 14.5q-20 0 -35 -14.5t-15 -33.5t15.5 -34.5
t34.5 -15.5z" />
    <glyph glyph-name="aringacute.alt" 
d="M440 381v-362q0 -7 -6 -13t-13 -6h-39q-14 0 -19 19l-10 31q-5 -7 -15.5 -17t-44.5 -26.5t-71 -16.5q-81 0 -136.5 61.5t-55.5 148.5t55.5 148.5t137.5 61.5q44 0 79.5 -18t49.5 -37l13 33q5 12 17 12h39q8 0 13.5 -5.5t5.5 -13.5zM321 163v78q-6 22 -26.5 41.5
t-54.5 19.5q-40 0 -66.5 -30.5t-26.5 -73.5t25.5 -71.5t64.5 -28.5q35 0 56 20.5t28 44.5zM249 434q-47 0 -80 33t-33 80t33 80t80 33t80 -33t33 -80t-33 -80t-80 -33zM249 497q19 0 33.5 15t14.5 35q0 19 -14.5 33.5t-33.5 14.5q-20 0 -35 -14.5t-15 -33.5t15.5 -34.5
t34.5 -15.5zM178 662q-19 -7 -26 6l-17 36q-6 11 6 19l163 97q18 12 26 -3l29 -51q9 -20 -6 -27z" />
    <glyph glyph-name="aogonek.alt" 
d="M440 381v-362q0 -7 -6 -13t-13 -6h-7q-45 -45 -45 -96q0 -27 17.5 -45.5t48.5 -18.5q10 0 46 9q8 2 14 -3t6 -14v-30q0 -13 -14 -19q-40 -10 -66 -10q-55 0 -91 28t-36 82q0 35 18 67.5t31.5 45t21.5 17.5l-12 37q-5 -7 -15.5 -17t-44.5 -26.5t-71 -16.5
q-81 0 -136.5 61.5t-55.5 148.5t55.5 148.5t137.5 61.5q44 0 79.5 -18t49.5 -37l13 33q5 12 17 12h39q8 0 13.5 -5.5t5.5 -13.5zM321 163v78q-6 22 -26.5 41.5t-54.5 19.5q-40 0 -66.5 -30.5t-26.5 -73.5t25.5 -71.5t64.5 -28.5q35 0 56 20.5t28 44.5z" />
    </font>
</defs>
</svg>
