<?xml version="1.0" standalone="no"?>
<!DOCTYPE svg PUBLIC "-//W3C//DTD SVG 1.1//EN" "http://www.w3.org/Graphics/SVG/1.1/DTD/svg11.dtd" >
<svg>
<metadata>
Created by FontForge 20090622 at Tue Aug 28 05:35:18 2018
 By deploy user
&#194;&#169; 2015 Apple Inc. All rights reserved.
</metadata>
<defs>
<font id="SFUIDisplay-Bold" horiz-adv-x="0" >
  <font-face 
    font-family="SF UI Display"
    font-weight="700"
    font-stretch="normal"
    units-per-em="2048"
    panose-1="0 0 8 0 0 0 0 0 0 0"
    ascent="1638"
    descent="-410"
    x-height="1101"
    cap-height="1443"
    bbox="-583 -882 2641 2178"
    underline-thickness="190"
    underline-position="-185"
    unicode-range="U+0020-U+FB02"
  />
<missing-glyph horiz-adv-x="2048" 
d="M100 -494v206h1848v-206h-1848zM100 -46v206h1848v-206h-1848zM100 401v206h1848v-206h-1848zM100 849v206h1848v-206h-1848zM100 1296v206h1848v-206h-1848zM100 1744v206h1848v-206h-1848z" />
    <glyph glyph-name=".notdef" horiz-adv-x="2048" 
d="M100 -494v206h1848v-206h-1848zM100 -46v206h1848v-206h-1848zM100 401v206h1848v-206h-1848zM100 849v206h1848v-206h-1848zM100 1296v206h1848v-206h-1848zM100 1744v206h1848v-206h-1848z" />
    <glyph glyph-name=".null" 
 />
    <glyph glyph-name="nonmarkingreturn" 
 />
    <glyph glyph-name="space" unicode=" " horiz-adv-x="440" 
 />
    <glyph glyph-name="exclam" unicode="!" horiz-adv-x="648" 
d="M174 1443h300l-24 -968h-252zM324 -25q-68 0 -115.5 45.5t-47.5 111.5t47.5 111.5t115.5 45.5t115.5 -45.5t47.5 -111.5t-47.5 -111.5t-115.5 -45.5z" />
    <glyph glyph-name="quotedbl" unicode="&#x22;" horiz-adv-x="929" 
d="M358 880h-250v563h250v-563zM821 880h-250v563h250v-563z" />
    <glyph glyph-name="numbersign" unicode="#" horiz-adv-x="1271" 
d="M1223 861h-220l-53 -260h210l-40 -216h-212l-77 -385h-222l77 385h-234l-78 -385h-220l76 385h-206l41 216h208l52 260h-199l41 214h201l75 369h220l-73 -369h234l74 369h222l-74 -369h217zM536 879l-60 -297h262l61 297h-263z" />
    <glyph glyph-name="dollar" unicode="$" horiz-adv-x="1326" 
d="M741 -137h-141v128q-236 14 -370.5 125.5t-135.5 295.5h286q5 -78 65 -131t155 -63v390l-106 25q-181 42 -275.5 144.5t-94.5 258.5q0 184 125.5 296.5t350.5 130.5v137h141v-138q210 -19 335.5 -132.5t128.5 -286.5h-278q-2 71 -54 124t-132 64v-373l107 -21
q384 -84 384 -406q0 -190 -127.5 -304.5t-363.5 -134.5v-129zM949 399q0 73 -51 118t-157 66v-366q98 6 153 54t55 128zM413 1061q0 -134 187 -174v345q-82 -5 -134.5 -52.5t-52.5 -118.5z" />
    <glyph glyph-name="percent" unicode="%" horiz-adv-x="1621" 
d="M1576 354q0 -172 -89 -273.5t-240 -101.5t-240 101.5t-89 273.5q0 171 88.5 271t240.5 100t240.5 -100t88.5 -271zM1247 154q49 0 77 53.5t28 146.5t-27.5 144.5t-77.5 51.5q-49 0 -77 -52.5t-28 -144.5t28 -145.5t77 -53.5zM703 1112q0 -172 -89 -273.5t-240 -101.5
t-240 101.5t-89 273.5q0 171 88.5 271t240.5 100t240.5 -100t88.5 -271zM374 912q49 0 77 53.5t28 146.5t-27.5 144.5t-77.5 51.5q-49 0 -77 -52.5t-28 -144.5t28 -145.5t77 -53.5zM404 0h-257l1054 1443h256z" />
    <glyph glyph-name="ampersand" unicode="&#x26;" horiz-adv-x="1437" 
d="M1129 0l-111 120q-80 -69 -198 -107.5t-249 -38.5q-229 0 -366 110t-137 294q0 123 64.5 215.5t202.5 168.5l22 11.5l28.5 15.5t14.5 8q-98 101 -138.5 176t-40.5 154q0 145 116.5 240t292.5 95q177 0 289.5 -92.5t112.5 -237.5q0 -111 -71 -202t-221 -173l274 -296
q52 92 52 273v76h243v-93q0 -267 -122 -436l269 -281h-327zM494 623q-82 -52 -117.5 -103.5t-35.5 -118.5q0 -97 72 -156t188 -59q78 0 150 27t114 73l-331 358zM605 893q98 51 141 102.5t43 116.5q0 69 -44 112.5t-114 43.5t-115 -44t-45 -112q0 -50 30 -98.5t104 -120.5z
" />
    <glyph glyph-name="quotesingle" unicode="'" horiz-adv-x="466" 
d="M358 880h-250v563h250v-563z" />
    <glyph glyph-name="parenleft" unicode="(" horiz-adv-x="710" 
d="M679 -277h-276q-118 148 -194 371.5t-76 505.5q0 147 20 271t60 226t87 182t113 164h269q-98 -113 -173 -341t-75 -500q0 -265 65 -471.5t180 -407.5z" />
    <glyph glyph-name="parenright" unicode=")" horiz-adv-x="710" 
d="M31 -277q115 201 180 407.5t65 471.5q0 272 -75 499.5t-172 341.5h268q66 -84 113.5 -164t87.5 -182t60 -226t20 -271q0 -282 -76.5 -506t-195.5 -371h-275z" />
    <glyph glyph-name="asterisk" unicode="*" horiz-adv-x="994" 
d="M789 833l-231 179l39 -289h-200l39 289l-231 -179l-99 173l271 111l-271 110l99 174l233 -182l-41 293h200l-40 -293l232 182l99 -174l-270 -110l270 -111z" />
    <glyph glyph-name="plus" unicode="+" horiz-adv-x="1326" 
d="M794 451v-437h-262v437h-408v255h408v432h262v-432h408v-255h-408z" />
    <glyph glyph-name="comma" unicode="," horiz-adv-x="569" 
d="M308 -271h-221l83 541h275z" />
    <glyph glyph-name="hyphen" unicode="-" horiz-adv-x="905" 
d="M781 451h-657v255h657v-255z" />
    <glyph glyph-name="hyphen" unicode="&#x2011;" horiz-adv-x="905" 
d="M781 451h-657v255h657v-255z" />
    <glyph glyph-name="period" unicode="." horiz-adv-x="569" 
d="M285 -12q-67 0 -114 47t-47 114t47 114t114 47t114 -47t47 -114t-47 -114t-114 -47z" />
    <glyph glyph-name="slash" unicode="/" horiz-adv-x="687" 
d="M267 -293h-267l415 1737h272z" />
    <glyph glyph-name="zero" unicode="0" horiz-adv-x="1333" 
d="M667 -32q-272 0 -428 202.5t-156 553.5q0 349 156.5 550.5t427.5 201.5t427 -201t156 -550q0 -350 -155.5 -553.5t-427.5 -203.5zM667 210q130 0 203 134.5t73 379.5q0 243 -73.5 376.5t-202.5 133.5t-203 -134t-74 -376q0 -244 73.5 -379t203.5 -135z" />
    <glyph glyph-name="one" unicode="1" horiz-adv-x="983" 
d="M463 0v1166h-6l-368 -254v272l373 259h300v-1443h-299z" />
    <glyph glyph-name="two" unicode="2" horiz-adv-x="1235" 
d="M85 1009q0 205 148.5 335.5t384.5 130.5q227 0 370 -117.5t143 -299.5q0 -65 -19.5 -125.5t-62 -121t-85.5 -109t-112 -117.5l-352 -339v-6h651v-240h-1049v203l544 524q110 110 150.5 177t40.5 142q0 82 -65 138t-164 56q-105 0 -174 -65.5t-69 -165.5v-5h-280v5z" />
    <glyph glyph-name="three" unicode="3" horiz-adv-x="1290" 
d="M453 630v218h175q103 0 167 56t64 145t-61 141.5t-172 52.5q-105 0 -170 -57t-71 -152h-278q8 201 153 321t379 120q226 0 365.5 -106t139.5 -279q0 -131 -82 -222t-216 -115v-6q163 -14 258.5 -106.5t95.5 -241.5q0 -193 -158.5 -312t-409.5 -119q-243 0 -392.5 122
t-160.5 323h289q7 -92 78.5 -147t189.5 -55q113 0 185 58t72 149q0 99 -70 155.5t-192 56.5h-178z" />
    <glyph glyph-name="four" unicode="4" horiz-adv-x="1327" 
d="M790 0v257h-718v257q176 336 579 929h426v-944h188v-242h-188v-257h-287zM337 498v-8h459v739h-6q-167 -244 -268 -406.5t-185 -324.5z" />
    <glyph glyph-name="five" unicode="5" horiz-adv-x="1280" 
d="M657 -32q-232 0 -383.5 124.5t-158.5 320.5h279q13 -92 86.5 -149t178.5 -57q118 0 192.5 74.5t74.5 192.5q0 120 -74 196t-191 76q-82 0 -148.5 -35.5t-104.5 -97.5h-270l71 830h918v-240h-681l-33 -395h6q45 74 128.5 116t192.5 42q207 0 340.5 -136.5t133.5 -347.5
q0 -229 -154.5 -371.5t-402.5 -142.5z" />
    <glyph glyph-name="six" unicode="6" horiz-adv-x="1317" 
d="M684 -33q-156 0 -279.5 68.5t-199.5 197.5q-121 185 -121 477q0 357 162 561.5t443 204.5q206 0 353 -111t177 -288h-297q-22 72 -86 116t-149 44q-152 0 -236.5 -138t-79.5 -381h6q44 107 146 171t238 64q206 0 341.5 -135.5t135.5 -340.5q0 -223 -156 -366.5
t-398 -143.5zM681 208q110 0 186.5 75.5t76.5 184.5q0 112 -74.5 185t-187.5 73t-188.5 -73t-75.5 -182q0 -110 76 -186.5t187 -76.5z" />
    <glyph glyph-name="seven" unicode="7" horiz-adv-x="1172" 
d="M177 0l621 1197v6h-734v240h1032v-243l-602 -1200h-317z" />
    <glyph glyph-name="eight" unicode="8" horiz-adv-x="1336" 
d="M668 -32q-262 0 -423.5 117.5t-161.5 305.5q0 142 94 243.5t245 126.5v6q-126 29 -203.5 118.5t-77.5 208.5q0 166 148 273.5t379 107.5q232 0 379 -107.5t147 -274.5q0 -117 -77 -206.5t-203 -119.5v-6q152 -26 245.5 -127.5t93.5 -243.5q0 -188 -162.5 -305
t-422.5 -117zM668 188q119 0 194 63.5t75 161.5t-75 161.5t-194 63.5t-194.5 -63.5t-75.5 -161.5t75.5 -161.5t194.5 -63.5zM668 858q100 0 164 56.5t64 142.5q0 87 -64 143.5t-164 56.5t-164 -56.5t-64 -143.5t64 -143t164 -56z" />
    <glyph glyph-name="nine" unicode="9" horiz-adv-x="1321" 
d="M631 -32q-207 0 -355 111.5t-178 288.5h298q22 -73 87.5 -117t152.5 -44q151 0 234.5 137t77.5 383h-3h-2h-1q-40 -108 -142 -172t-242 -64q-205 0 -342 135.5t-137 340.5q0 222 157 365.5t399 143.5q157 0 281.5 -68t199.5 -196q121 -186 121 -478q0 -359 -160.5 -562.5
t-445.5 -203.5zM637 718q113 0 188.5 73.5t75.5 182.5q0 110 -76 185.5t-186 75.5q-111 0 -188 -75t-77 -184q0 -111 75 -184.5t188 -73.5z" />
    <glyph glyph-name="colon" unicode=":" horiz-adv-x="569" 
d="M285 -12q-67 0 -114 47t-47 114t47 114t114 47t114 -47t47 -114t-47 -114t-114 -47zM285 703q-67 0 -114 47t-47 114q0 68 47 114.5t114 46.5t114 -46.5t47 -114.5q0 -67 -47 -114t-114 -47z" />
    <glyph glyph-name="semicolon" unicode=";" horiz-adv-x="569" 
d="M285 703q-67 0 -114 47t-47 114q0 68 47 114.5t114 46.5t114 -46.5t47 -114.5q0 -67 -47 -114t-114 -47zM276 -271h-221l82 541h276z" />
    <glyph glyph-name="less" unicode="&#x3c;" horiz-adv-x="1326" 
d="M1140 906l-657 -319v-10l657 -309v-291l-953 489v225l953 506v-291z" />
    <glyph glyph-name="equal" unicode="=" horiz-adv-x="1326" 
d="M1187 220h-1048v251h1048v-251zM1187 687h-1048v251h1048v-251z" />
    <glyph glyph-name="greater" unicode="&#x3e;" horiz-adv-x="1326" 
d="M187 907v290l953 -505v-226l-953 -488v291l656 308v10z" />
    <glyph glyph-name="question" unicode="?" horiz-adv-x="1093" 
d="M54 1038q4 189 132 303.5t354 114.5q213 0 344 -107.5t131 -279.5q0 -111 -53 -193.5t-161 -145.5q-100 -58 -135 -104t-35 -120v-53h-265l-2 58q-10 116 32.5 191t147.5 137q97 58 132.5 104t35.5 117q0 72 -52.5 118t-137.5 46q-86 0 -139 -50.5t-58 -135.5h-271z
M502 -25q-68 0 -115.5 45.5t-47.5 111.5t47.5 111.5t115.5 45.5t116 -45.5t48 -111.5t-48 -111.5t-116 -45.5z" />
    <glyph glyph-name="at" unicode="@" horiz-adv-x="1810" 
d="M893 841q-79 0 -124 -61.5t-45 -171.5q0 -109 44.5 -171t123.5 -62q81 0 128 62.5t47 170.5t-47 170.5t-127 62.5zM926 1449q235 0 418.5 -92.5t286 -262t102.5 -388.5q0 -237 -105.5 -377.5t-287.5 -140.5q-94 0 -159.5 42.5t-81.5 114.5h-14q-63 -154 -241 -154
q-156 0 -251.5 116.5t-95.5 306.5q0 182 93.5 295.5t243.5 113.5q81 0 144.5 -38t92.5 -104h14v120h203v-535q0 -53 24.5 -83t70.5 -30q75 0 120.5 90.5t45.5 247.5q0 272 -172.5 435.5t-457.5 163.5q-289 0 -472 -189.5t-183 -490.5q0 -311 189.5 -489t503.5 -178
q178 0 273 35v-160q-125 -37 -288 -37q-189 0 -348 58t-273 164.5t-177.5 263.5t-63.5 348q0 245 107 435t299.5 294.5t439.5 104.5z" />
    <glyph glyph-name="A" unicode="A" horiz-adv-x="1413" 
d="M1065 0l-110 350h-507l-110 -350h-310l501 1443h355l502 -1443h-321zM698 1167l-185 -591h377l-185 591h-7z" />
    <glyph glyph-name="B" unicode="B" horiz-adv-x="1319" 
d="M768 0h-648v1443h637q203 0 322 -97t119 -263q0 -118 -77.5 -207t-193.5 -106v-8q148 -11 244 -109t96 -240q0 -191 -134 -302t-365 -111zM422 1218v-375h226q121 0 187 50.5t66 142.5q0 87 -58 134.5t-164 47.5h-257zM422 225h269q131 0 199.5 54.5t68.5 157.5
q0 101 -70.5 154t-204.5 53h-262v-419z" />
    <glyph glyph-name="C" unicode="C" horiz-adv-x="1459" 
d="M758 -25q-316 0 -499.5 199.5t-183.5 547.5q0 347 184 546.5t499 199.5q172 0 312.5 -68t225.5 -192t96 -283h-294q-21 133 -114.5 213t-225.5 80q-171 0 -273 -134t-102 -361q0 -231 101 -364.5t275 -133.5q134 0 225 74t115 202h294q-25 -241 -197 -383.5t-438 -142.5z
" />
    <glyph glyph-name="D" unicode="D" horiz-adv-x="1438" 
d="M120 1443h556q326 0 507 -187t181 -529q0 -343 -181.5 -535t-506.5 -192h-556v1443zM422 1194v-944h218q203 0 309.5 121.5t106.5 354.5q0 226 -108 347t-308 121h-218z" />
    <glyph glyph-name="E" unicode="E" horiz-adv-x="1174" 
d="M1076 250v-250h-956v1443h956v-249h-654v-348h617v-232h-617v-364h654z" />
    <glyph glyph-name="F" unicode="F" horiz-adv-x="1123" 
d="M422 0h-302v1443h945v-249h-643v-387h587v-239h-587v-568z" />
    <glyph glyph-name="G" unicode="G" horiz-adv-x="1489" 
d="M1410 606q0 -295 -169.5 -463t-470.5 -168q-324 0 -509.5 200t-185.5 551q0 346 184.5 544t503.5 198q252 0 427 -136t207 -355h-303q-33 113 -120.5 177t-209.5 64q-179 0 -280 -129t-101 -359q0 -234 105.5 -369t286.5 -135q148 0 241.5 83t98.5 217l1 23h-314v220h608
v-163z" />
    <glyph glyph-name="H" unicode="H" horiz-adv-x="1494" 
d="M1374 0h-302v608h-650v-608h-302v1443h302v-586h650v586h302v-1443z" />
    <glyph glyph-name="I" unicode="I" horiz-adv-x="542" 
d="M422 0h-302v1443h302v-1443z" />
    <glyph glyph-name="J" unicode="J" horiz-adv-x="1143" 
d="M31 425h293q2 -88 54.5 -141t137.5 -53q95 0 144.5 57t49.5 166v989h302v-991q0 -229 -130 -355.5t-363 -126.5q-221 0 -354.5 124t-133.5 331z" />
    <glyph glyph-name="K" unicode="K" horiz-adv-x="1353" 
d="M422 0h-302v1443h302v-658h9l542 658h336l-534 -640l571 -803h-361l-428 603l-135 -162v-441z" />
    <glyph glyph-name="L" unicode="L" horiz-adv-x="1112" 
d="M1053 250v-250h-933v1443h302v-1193h631z" />
    <glyph glyph-name="M" unicode="M" horiz-adv-x="1768" 
d="M1648 1443v-1443h-269v974h-8l-392 -960h-190l-392 960h-8v-974h-269v1443h350l410 -1023h8l410 1023h350z" />
    <glyph glyph-name="N" unicode="N" horiz-adv-x="1463" 
d="M409 0h-289v1443h252l674 -940h8v940h289v-1443h-250l-675 945h-9v-945z" />
    <glyph glyph-name="O" unicode="O" horiz-adv-x="1541" 
d="M771 1468q321 0 508.5 -201t187.5 -546q0 -344 -188 -545t-508 -201q-321 0 -508.5 201t-187.5 545q0 345 187.5 546t508.5 201zM771 1216q-177 0 -282.5 -134t-105.5 -361q0 -226 105 -359.5t283 -133.5q177 0 282 133.5t105 359.5q0 227 -105 361t-282 134z" />
    <glyph glyph-name="P" unicode="P" horiz-adv-x="1280" 
d="M120 1443h602q223 0 361.5 -136t138.5 -358q0 -221 -143 -357.5t-372 -136.5h-285v-455h-302v1443zM422 1204v-513h219q130 0 202 67t72 190t-71.5 189.5t-201.5 66.5h-220z" />
    <glyph glyph-name="Q" unicode="Q" horiz-adv-x="1541" 
d="M1419 -136h-293l-103 151q-114 -40 -252 -40q-322 0 -509 200t-187 546q0 344 187.5 545.5t508.5 201.5q320 0 507.5 -201.5t187.5 -545.5q0 -190 -59 -339.5t-171 -241.5zM771 225q53 0 103 14l-158 236h273l63 -86q106 122 106 332q0 227 -105 362.5t-282 135.5
q-178 0 -283 -135.5t-105 -362.5t105 -361.5t283 -134.5z" />
    <glyph glyph-name="R" unicode="R" horiz-adv-x="1316" 
d="M422 1207v-460h265q114 0 177.5 61t63.5 169q0 105 -66 167.5t-178 62.5h-262zM422 528v-528h-302v1443h596q247 0 384.5 -122.5t137.5 -337.5q0 -141 -69.5 -251.5t-192.5 -158.5l304 -573h-342l-269 528h-247z" />
    <glyph glyph-name="S" unicode="S" horiz-adv-x="1293" 
d="M66 411h291q10 -88 93.5 -142.5t204.5 -54.5q120 0 195.5 51.5t75.5 131.5q0 70 -56 113t-187 72l-188 41q-397 85 -397 403q0 198 154.5 320t397.5 122q250 0 399 -118.5t153 -315.5h-283q-7 91 -80.5 143.5t-187.5 52.5q-112 0 -180.5 -49t-68.5 -129q0 -66 55.5 -107
t180.5 -70l175 -37q217 -46 316 -143.5t99 -262.5q0 -210 -158 -333.5t-427 -123.5q-261 0 -415.5 116.5t-161.5 319.5z" />
    <glyph glyph-name="T" unicode="T" horiz-adv-x="1242" 
d="M772 0h-302v1194h-422v249h1147v-249h-423v-1194z" />
    <glyph glyph-name="U" unicode="U" horiz-adv-x="1449" 
d="M422 1443v-903q0 -141 79.5 -223.5t223.5 -82.5q143 0 222.5 82.5t79.5 223.5v903h302v-933q0 -240 -164.5 -387.5t-439.5 -147.5q-276 0 -440.5 147.5t-164.5 387.5v933h302z" />
    <glyph glyph-name="V" unicode="V" horiz-adv-x="1389" 
d="M877 0h-364l-485 1443h338l330 -1132h7l330 1132h329z" />
    <glyph glyph-name="W" unicode="W" horiz-adv-x="1977" 
d="M984 986l-274 -986h-285l-382 1443h313l227 -1045h8l270 1045h255l270 -1045h8l228 1045h313l-383 -1443h-285l-274 986h-9z" />
    <glyph glyph-name="X" unicode="X" horiz-adv-x="1404" 
d="M43 0l458 723v8l-455 712h355l306 -520h8l309 520h337l-472 -718v-7l466 -718h-344l-316 505h-8l-318 -505h-326z" />
    <glyph glyph-name="Y" unicode="Y" horiz-adv-x="1362" 
d="M832 0h-302v539l-502 904h329l323 -616h7l324 616h324l-503 -904v-539z" />
    <glyph glyph-name="Z" unicode="Z" horiz-adv-x="1292" 
d="M89 0v197l733 989v8h-716v249h1077v-196l-730 -990v-7h750v-250h-1114z" />
    <glyph glyph-name="bracketleft" unicode="[" horiz-adv-x="755" 
d="M148 1444h574v-215h-294v-1255h307v-214h-587v1684z" />
    <glyph glyph-name="backslash" unicode="\" horiz-adv-x="687" 
d="M421 -294l-421 1738h272l415 -1738h-266z" />
    <glyph glyph-name="bracketright" unicode="]" horiz-adv-x="755" 
d="M608 1444v-1684h-587v214h307v1255h-294v215h574z" />
    <glyph glyph-name="asciicircum" unicode="^" horiz-adv-x="978" 
d="M480 1193l-184 -382h-251l316 612h259l314 -612h-258l-179 382h-17z" />
    <glyph glyph-name="underscore" unicode="_" horiz-adv-x="857" 
d="M903 -325h-949v218h949v-218z" />
    <glyph glyph-name="grave" unicode="`" horiz-adv-x="1010" 
d="M751 1263h-231l-263 310h273z" />
    <glyph glyph-name="a" unicode="a" horiz-adv-x="1147" 
d="M520 200q103 0 173 57.5t70 146.5v81l-231 -16q-91 -6 -139 -41t-48 -96t47.5 -96.5t127.5 -35.5zM425 -13q-161 0 -266 92t-105 238q0 149 111 233t323 97l275 17v73q0 79 -51 121.5t-142 42.5q-78 0 -130.5 -37.5t-63.5 -98.5h-267q6 158 136.5 256.5t336.5 98.5
q212 0 340 -100t128 -265v-755h-282v170h-6q-44 -85 -136.5 -134t-200.5 -49z" />
    <glyph glyph-name="b" unicode="b" horiz-adv-x="1252" 
d="M746 -13q-120 0 -210 52.5t-136 148.5h-6v-188h-287v1512h292v-599h6q46 96 134.5 148.5t205.5 52.5q209 0 329 -150.5t120 -412.5t-120 -413t-328 -151zM647 878q-112 0 -180.5 -90t-69.5 -238q1 -148 69.5 -237.5t180.5 -89.5q113 0 180.5 89t67.5 239q0 149 -67.5 238
t-180.5 89z" />
    <glyph glyph-name="c" unicode="c" horiz-adv-x="1142" 
d="M1094 695h-272q-12 88 -71 141.5t-152 53.5q-113 0 -179 -90.5t-66 -248.5q0 -160 66 -249.5t180 -89.5q93 0 151 49t72 139h272q-13 -192 -147.5 -305.5t-350.5 -113.5q-248 0 -393.5 153t-145.5 417q0 261 145.5 415t391.5 154q218 0 353 -119t146 -306z" />
    <glyph glyph-name="d" unicode="d" horiz-adv-x="1249" 
d="M509 -13q-206 0 -328.5 152.5t-122.5 412.5q0 258 123 410t329 152q118 0 206.5 -54t130.5 -147h6v599h292v-1512h-288v188h-5q-41 -92 -132 -146.5t-211 -54.5zM606 878q-114 0 -181.5 -88.5t-67.5 -238.5q0 -151 67.5 -239.5t181.5 -88.5q113 0 181 89t68 238
t-68 238.5t-181 89.5z" />
    <glyph glyph-name="e" unicode="e" horiz-adv-x="1164" 
d="M590 902q-100 0 -166.5 -66t-74.5 -172h475q-4 108 -68 173t-166 65zM828 336h269q-24 -160 -161 -257.5t-338 -97.5q-251 0 -395.5 151t-144.5 414t143.5 418.5t385.5 155.5q238 0 378.5 -148t140.5 -399v-90h-760v-18q0 -119 71 -192.5t186 -73.5q83 0 143.5 36.5
t81.5 100.5z" />
    <glyph glyph-name="f" unicode="f" horiz-adv-x="734" 
d="M177 0v880h-149v221h149v98q0 159 82.5 229t273.5 70q68 0 135 -10v-203q-37 7 -80 7q-66 0 -95 -26t-30 -84v-81h206v-221h-200v-880h-292z" />
    <glyph glyph-name="g" unicode="g" horiz-adv-x="1244" 
d="M604 233q114 0 182 86t68 233q0 149 -68 237.5t-182 88.5q-113 0 -180 -88t-67 -237t66.5 -234.5t180.5 -85.5zM601 -403q-218 0 -357 88.5t-150 236.5h288q14 -54 76.5 -86.5t149.5 -32.5q112 0 178.5 54t66.5 146v197h-6q-40 -89 -131 -141t-210 -52
q-203 0 -325.5 147.5t-122.5 399.5q0 259 122 409.5t331 150.5q117 0 207 -54t134 -147h5v188h288v-1076q0 -196 -147.5 -312t-396.5 -116z" />
    <glyph glyph-name="h" unicode="h" horiz-adv-x="1225" 
d="M107 0v1512h287v-608h6q95 213 346 213q182 0 283.5 -110.5t101.5 -302.5v-704h-292v643q0 110 -54 170.5t-157 60.5q-107 0 -168 -68t-61 -181v-625h-292z" />
    <glyph glyph-name="i" unicode="i" horiz-adv-x="500" 
d="M104 0v1101h292v-1101h-292zM250 1221q-65 0 -111 44t-46 109t46 108.5t111 43.5q66 0 112 -43.5t46 -108.5t-46 -109t-112 -44z" />
    <glyph glyph-name="j" unicode="j" horiz-adv-x="500" 
d="M396 1101v-1137q0 -168 -99 -253.5t-292 -85.5q-60 0 -78 3v216q6 -1 37 -1q76 0 108 29.5t32 98.5v1130h292zM250 1221q-65 0 -111 44t-46 109t46 108.5t111 43.5q66 0 112 -43.5t46 -108.5t-46 -109t-112 -44z" />
    <glyph glyph-name="k" unicode="k" horiz-adv-x="1126" 
d="M403 656l381 445h332l-424 -473l444 -628h-336l-322 452l-79 -85v-367h-292v1512h292v-856h4z" />
    <glyph glyph-name="l" unicode="l" horiz-adv-x="505" 
d="M107 0v1512h292v-1512h-292z" />
    <glyph glyph-name="m" unicode="m" horiz-adv-x="1811" 
d="M99 0v1101h282v-200h6q35 100 119.5 158t194.5 58q119 0 199 -58.5t108 -166.5h6q38 104 130 164.5t212 60.5q162 0 261.5 -101.5t99.5 -267.5v-748h-292v675q0 97 -47.5 148.5t-136.5 51.5q-86 0 -139 -57.5t-53 -151.5v-666h-282v686q0 88 -48 138.5t-133 50.5
q-86 0 -140.5 -59.5t-54.5 -153.5v-662h-292z" />
    <glyph glyph-name="n" unicode="n" horiz-adv-x="1207" 
d="M99 0v1101h282v-197h6q97 213 344 213q182 0 282 -108.5t100 -302.5v-706h-292v645q0 111 -52 170t-154 59q-104 0 -164 -67.5t-60 -178.5v-628h-292z" />
    <glyph glyph-name="o" unicode="o" horiz-adv-x="1201" 
d="M601 -19q-251 0 -397 152t-146 418q0 263 147 416t396 153q250 0 396.5 -152.5t146.5 -416.5q0 -267 -145.5 -418.5t-397.5 -151.5zM601 206q116 0 181 90.5t65 254.5q0 162 -65.5 253.5t-180.5 91.5q-116 0 -181.5 -91.5t-65.5 -253.5q0 -164 65.5 -254.5t181.5 -90.5z
" />
    <glyph glyph-name="p" unicode="p" horiz-adv-x="1244" 
d="M735 1114q210 0 331 -150.5t121 -412.5t-120.5 -413t-327.5 -151q-119 0 -208 52t-134 146h-6v-545h-292v1461h288v-188h6q44 93 135 147t207 54zM638 223q114 0 182 89t68 239q0 148 -68.5 237.5t-181.5 89.5q-112 0 -180 -90t-68 -238t68 -237.5t180 -89.5z" />
    <glyph glyph-name="q" unicode="q" horiz-adv-x="1244" 
d="M511 1114q118 0 208 -54t133 -147h5v188h288v-1461h-292v545h-6q-40 -90 -131.5 -144t-209.5 -54q-206 0 -327 152.5t-121 412.5q0 259 122 410.5t331 151.5zM604 223q114 0 182 89t68 238t-68.5 238.5t-181.5 89.5t-180 -88.5t-67 -238.5q0 -151 66.5 -239.5
t180.5 -88.5z" />
    <glyph glyph-name="r" unicode="r" horiz-adv-x="759" 
d="M99 0v1101h282v-197h6q28 101 96 155.5t166 54.5q52 0 85 -11v-258q-43 17 -108 17q-111 0 -173 -65t-62 -181v-616h-292z" />
    <glyph glyph-name="s" unicode="s" horiz-adv-x="1078" 
d="M80 777q0 155 126 249t335 94q204 0 329 -95.5t128 -253.5h-270q-5 65 -56 103.5t-135 38.5q-79 0 -127 -32.5t-48 -85.5q0 -81 147 -115l207 -45q166 -38 237.5 -107t71.5 -192q0 -160 -134 -257.5t-351 -97.5q-215 0 -345.5 95.5t-141.5 256.5h285q11 -70 65 -107.5
t145 -37.5q87 0 137 31.5t50 85.5q0 43 -31.5 68t-106.5 43l-203 46q-314 71 -314 315z" />
    <glyph glyph-name="t" unicode="t" horiz-adv-x="741" 
d="M177 1346h292v-245h204v-221h-204v-535q0 -126 131 -126q43 0 73 5v-216q-60 -12 -141 -12q-191 0 -273 70t-82 231v583h-149v221h149v245z" />
    <glyph glyph-name="u" unicode="u" horiz-adv-x="1207" 
d="M1108 1101v-1101h-282v199h-6q-87 -215 -331 -215q-180 0 -287.5 110t-107.5 301v706h292v-645q0 -112 54 -170.5t155 -58.5q102 0 161.5 67.5t59.5 179.5v627h292z" />
    <glyph glyph-name="v" unicode="v" horiz-adv-x="1106" 
d="M1098 1101l-380 -1101h-328l-382 1101h312l234 -840h6l233 840h305z" />
    <glyph glyph-name="w" unicode="w" horiz-adv-x="1654" 
d="M1634 1101l-293 -1101h-310l-203 784h-6l-201 -784h-307l-294 1101h294l170 -822h6l199 822h280l200 -822h6l171 822h288z" />
    <glyph glyph-name="x" unicode="x" horiz-adv-x="1104" 
d="M548 385h-6l-211 -385h-308l348 549l-345 552h329l202 -375h6l201 375h317l-346 -545l344 -556h-319z" />
    <glyph glyph-name="y" unicode="y" horiz-adv-x="1136" 
d="M239 -402q-89 0 -111 4v226q15 -3 66 -3q83 0 130.5 30.5t64.5 95.5l10 42l-386 1108h320l238 -864h6l239 864h308l-381 -1123q-70 -210 -183.5 -295t-320.5 -85z" />
    <glyph glyph-name="z" unicode="z" horiz-adv-x="1059" 
d="M78 0v168l553 704v5h-545v224h883v-186l-521 -685v-6h534v-224h-904z" />
    <glyph glyph-name="braceleft" unicode="{" horiz-adv-x="837" 
d="M361 595q207 -18 207 -248v-266q0 -118 46.5 -162.5t168.5 -44.5h44v-212h-104q-228 0 -330.5 90t-102.5 292v225q0 117 -36.5 162t-131.5 45v269q95 0 131.5 45.5t36.5 163.5v191q0 197 102 285t331 88h104v-212h-44q-123 0 -169 -44.5t-46 -162.5v-242q0 -110 -50 -166
t-157 -66v-30z" />
    <glyph glyph-name="bar" unicode="|" horiz-adv-x="603" 
d="M438 -293h-273v1736h273v-1736z" />
    <glyph glyph-name="braceright" unicode="}" horiz-adv-x="837" 
d="M478 595v30q-108 10 -158.5 66.5t-50.5 165.5v242q0 118 -46 162.5t-168 44.5h-45v212h105q229 0 330.5 -87.5t101.5 -285.5v-191q0 -118 37 -163.5t132 -45.5v-269q-95 0 -132 -45t-37 -162v-225q0 -202 -102 -292t-330 -90h-105v212h45q122 0 168 44.5t46 162.5v266
q0 230 209 248z" />
    <glyph glyph-name="asciitilde" unicode="~" horiz-adv-x="1199" 
d="M553 624q-46 46 -76.5 64t-63.5 18q-111 0 -116 -178h-228q-9 195 77.5 309.5t243.5 114.5q130 0 260 -130q43 -45 73.5 -63t63.5 -18q111 0 116 178h228q9 -195 -77.5 -309.5t-243.5 -114.5q-68 0 -128.5 30.5t-128.5 98.5z" />
    <glyph glyph-name="nonbreakingspace" unicode="&#xa0;" horiz-adv-x="440" 
 />
    <glyph glyph-name="exclamdown" unicode="&#xa1;" horiz-adv-x="648" 
d="M174 -324l24 969h252l24 -969h-300zM324 833q-68 0 -115.5 45.5t-47.5 110.5q0 67 47.5 112t115.5 45t115.5 -45t47.5 -112q0 -65 -47.5 -110.5t-115.5 -45.5z" />
    <glyph glyph-name="cent" unicode="&#xa2;" horiz-adv-x="1326" 
d="M1212 542q-14 -162 -127.5 -271.5t-288.5 -135.5v-182h-242v187q-202 38 -320.5 188t-118.5 375q0 222 119 371.5t320 186.5v187h242v-183q174 -26 289.5 -140t126.5 -273h-272q-17 86 -85.5 138.5t-165.5 52.5q-124 0 -202.5 -93t-78.5 -247q0 -156 78.5 -250.5
t201.5 -94.5q103 0 168.5 46.5t83.5 137.5h272z" />
    <glyph glyph-name="sterling" unicode="&#xa3;" horiz-adv-x="1326" 
d="M516 248h714v-248h-1124v232q134 20 218.5 111t84.5 215q0 32 -7 76h-292v207h224q-59 148 -59 244q0 187 146.5 291t411.5 104q90 0 184 -14.5t146 -35.5v-236q-49 22 -131.5 36.5t-160.5 14.5q-139 0 -216 -53.5t-77 -150.5q0 -76 45 -200h414v-207h-349q4 -38 4 -57
q0 -102 -50 -188t-126 -133v-8z" />
    <glyph glyph-name="currency" unicode="&#xa4;" horiz-adv-x="1351" 
d="M442 649q0 -96 69 -165.5t165 -69.5t165 69.5t69 165.5t-69 166t-165 70t-165 -70t-69 -166zM1215 1023l-149 -149q60 -104 60 -225t-60 -225l149 -149l-166 -166l-150 150q-103 -60 -223 -60t-224 60l-150 -150l-166 166l150 150q-60 104 -60 224t60 224l-150 150
l166 166l149 -149q106 60 225 60q120 0 224 -60l149 149z" />
    <glyph glyph-name="yen" unicode="&#xa5;" horiz-adv-x="1326" 
d="M1086 212h-271v-212h-302v212h-271v166h271v136h-271v166h195l-427 763h327l323 -613h9l320 613h327l-425 -763h195v-166h-271v-136h271v-166z" />
    <glyph glyph-name="brokenbar" unicode="&#xa6;" horiz-adv-x="604" 
d="M439 774h-273v669h273v-669zM439 -293h-273v670h273v-670z" />
    <glyph glyph-name="section" unicode="&#xa7;" horiz-adv-x="994" 
d="M445 449l109 -36q59 8 99 49t40 94q0 49 -37 85.5t-104 55.5l-109 37q-58 -8 -99 -50t-41 -93q0 -48 37.5 -85.5t104.5 -56.5zM496 -284q-187 0 -308 92t-128 240h253q7 -57 59.5 -92t127.5 -35q78 0 126 36t48 94q0 43 -35 73t-114 54l-175 58q-158 51 -229.5 122
t-71.5 178q0 94 57.5 165t157.5 102v18q-107 49 -156 114.5t-49 159.5q0 151 120 243t318 92q184 0 301.5 -89t128.5 -237h-251q-7 55 -57 88.5t-124 33.5q-77 0 -124 -35.5t-47 -93.5q0 -43 34 -72.5t113 -55.5l171 -58q160 -53 232 -123t72 -173q0 -98 -63.5 -174
t-167.5 -104v-18q116 -43 169.5 -106.5t53.5 -159.5q0 -151 -122 -244t-320 -93z" />
    <glyph glyph-name="dieresis" unicode="&#xa8;" horiz-adv-x="1010" 
d="M296 1259q-57 0 -96 38.5t-39 92.5t39 92.5t96 38.5t96 -38.5t39 -92.5t-39 -92.5t-96 -38.5zM715 1259q-57 0 -96 38.5t-39 92.5t39 92.5t96 38.5t96 -38.5t39 -92.5t-39 -92.5t-96 -38.5z" />
    <glyph glyph-name="copyright" unicode="&#xa9;" horiz-adv-x="1697" 
d="M849 -139q-162 0 -308 62t-251.5 167t-167.5 251.5t-62 308.5q0 163 62 309.5t167.5 251.5t251.5 166.5t308 61.5q216 0 397 -104t286 -285.5t105 -399.5q0 -163 -62 -309t-167 -251.5t-251 -167t-308 -61.5zM849 25q171 0 314.5 82.5t226.5 226t83 316.5
q0 130 -49 246.5t-132.5 199.5t-199 131.5t-243.5 48.5q-171 0 -314.5 -82t-227 -226.5t-83.5 -317.5t83.5 -316.5t227 -226t314.5 -82.5zM1216 760h-188q-12 58 -54.5 93.5t-107.5 35.5q-84 0 -133 -63t-49 -174q0 -113 48.5 -176.5t133.5 -63.5q65 0 107.5 32t54.5 90h188
q-14 -129 -107.5 -205.5t-243.5 -76.5q-177 0 -280 107t-103 293q0 183 103 290t278 107q149 0 243.5 -80t109.5 -209z" />
    <glyph glyph-name="ordfeminine" unicode="&#xaa;" horiz-adv-x="798" 
d="M366 858q60 0 100.5 32.5t40.5 81.5v51l-137 -9q-104 -8 -104 -79q0 -35 27 -56t73 -21zM284 697q-108 0 -178 63t-70 160q0 101 76 158.5t222 66.5l173 10v43q0 44 -29.5 69t-80.5 25q-46 0 -77.5 -22t-36.5 -58h-210q5 112 96 179.5t239 67.5q147 0 236.5 -68
t89.5 -180v-505h-226v107h-4q-28 -54 -88 -85t-132 -31z" />
    <glyph glyph-name="guillemotleft" unicode="&#xab;" horiz-adv-x="1356" 
d="M897 572v-10l346 -411h-275l-344 411v8l348 411h271zM386 572v-10l346 -411h-275l-344 411v8l348 411h271z" />
    <glyph glyph-name="logicalnot" unicode="&#xac;" horiz-adv-x="1326" 
d="M1185 708v-642h-255v394h-789v248h1044z" />
    <glyph glyph-name="registered" unicode="&#xae;" horiz-adv-x="1178" 
d="M589 565q-215 0 -362 145.5t-147 358.5t147 358.5t362 145.5q141 0 258 -66t184 -182t67 -256t-67 -256t-184 -182t-258 -66zM589 693q158 0 264.5 108t106.5 268t-106.5 267.5t-264.5 107.5t-264 -107.5t-106 -267.5t106 -268t264 -108zM513 844h-123v463h242
q77 0 124.5 -41t47.5 -107q0 -52 -26.5 -89.5t-71.5 -49.5l122 -176h-148l-101 158h-66v-158zM513 1209v-117h91q33 0 51.5 15.5t18.5 43.5q0 58 -68 58h-93z" />
    <glyph glyph-name="macron" unicode="&#xaf;" horiz-adv-x="1000" 
d="M835 1441v-143h-669v143h669z" />
    <glyph glyph-name="degree" unicode="&#xb0;" horiz-adv-x="752" 
d="M376 789q-135 0 -226.5 92t-91.5 226q0 135 91.5 226.5t226.5 91.5t226.5 -91.5t91.5 -226.5q0 -134 -92 -226t-226 -92zM376 961q61 0 102.5 43t41.5 103q0 61 -42 104t-102 43q-58 0 -101 -43.5t-43 -103.5q0 -59 43 -102.5t101 -43.5z" />
    <glyph glyph-name="plusminus" unicode="&#xb1;" horiz-adv-x="1326" 
d="M1160 75h-996v218h996v-218zM787 651v-239h-248v239h-375v216h375v240h248v-240h375v-216h-375z" />
    <glyph glyph-name="two.sups" unicode="&#xb2;" horiz-adv-x="668" 
d="M31 1574q0 112 81 178.5t217 66.5q129 0 207.5 -58.5t78.5 -153.5q0 -57 -28.5 -104t-99.5 -107l-146 -125v-4h282v-172h-578v153l290 248q57 53 57 92q0 28 -20.5 45.5t-53.5 17.5t-55 -22t-22 -55v-5h-210v5z" />
    <glyph glyph-name="three.sups" unicode="&#xb3;" horiz-adv-x="696" 
d="M255 1379v148h87q34 0 55.5 17.5t21.5 45.5q0 29 -21.5 46t-58.5 17t-59.5 -21t-24.5 -55h-205q-2 110 78.5 176t215.5 66q129 0 208 -54t79 -142q0 -61 -40.5 -105t-106.5 -55v-5q79 -9 124.5 -53.5t45.5 -113.5q0 -100 -84.5 -158.5t-227.5 -58.5q-133 0 -216.5 67
t-88.5 177h219q1 -31 24 -48.5t61 -17.5q37 0 59.5 17.5t22.5 45.5q0 30 -22.5 47t-61.5 17h-84z" />
    <glyph glyph-name="acute" unicode="&#xb4;" horiz-adv-x="1010" 
d="M490 1263h-231l221 310h273z" />
    <glyph glyph-name="paragraph" unicode="&#xb6;" horiz-adv-x="1473" 
d="M914 -255h-280v710h-20q-225 0 -374.5 141.5t-149.5 348.5q0 216 147 357t378 141h299v-1698zM1083 -255v1698h280v-1698h-280z" />
    <glyph glyph-name="periodcentered" unicode="&#xb7;" horiz-adv-x="632" 
d="M317 468q-67 0 -114 47t-47 114t47 114t114 47t114 -47t47 -114t-47 -114t-114 -47z" />
    <glyph glyph-name="cedilla" unicode="&#xb8;" horiz-adv-x="1010" 
d="M373 -228v101l63 139l145 -12l-49 -116q88 0 136.5 -41.5t48.5 -117.5q0 -86 -64 -135.5t-177 -50.5q-88 0 -140 16v120q40 -14 111 -14q107 0 107 55q0 31 -28.5 43.5t-96.5 12.5h-56z" />
    <glyph glyph-name="one.sups" unicode="&#xb9;" horiz-adv-x="551" 
d="M230 1095v511h-4l-172 -112v190l174 114h230v-703h-228z" />
    <glyph glyph-name="ordmasculine" unicode="&#xba;" horiz-adv-x="831" 
d="M416 691q-175 0 -275 101.5t-100 282.5q0 178 101 281t274 103t274 -102.5t101 -281.5q0 -182 -100 -283t-275 -101zM416 862q65 0 102 56t37 157q0 99 -37 155.5t-102 56.5t-102 -56.5t-37 -155.5q0 -102 36.5 -157.5t102.5 -55.5z" />
    <glyph glyph-name="guillemotright" unicode="&#xbb;" horiz-adv-x="1356" 
d="M459 572l-346 409h271l348 -411v-8l-344 -411h-275l346 411v10zM970 572l-346 409h271l348 -411v-8l-344 -411h-275l346 411v10z" />
    <glyph glyph-name="onequarter" unicode="&#xbc;" horiz-adv-x="1625" 
d="M1289 0v96h-344v190q88 173 244 417h318v-432h80v-175h-80v-96h-218zM1133 265v-4h163v294h-4q-103 -176 -159 -290zM240 743v511h-4l-172 -112v190l174 114h230v-703h-228zM370 0h-257l1054 1443h256z" />
    <glyph glyph-name="onehalf" unicode="&#xbd;" horiz-adv-x="1622" 
d="M994 479q0 112 81 178.5t217 66.5q129 0 207.5 -58.5t78.5 -153.5q0 -57 -28.5 -104t-99.5 -107l-146 -125v-4h282v-172h-578v153l290 248q57 53 57 92q0 28 -20.5 45.5t-53.5 17.5t-55 -22t-22 -55v-5h-210v5zM240 743v511h-4l-172 -112v190l174 114h230v-703h-228z
M370 0h-257l1054 1443h256z" />
    <glyph glyph-name="threequarters" unicode="&#xbe;" horiz-adv-x="1715" 
d="M255 1027v148h87q34 0 55.5 17.5t21.5 45.5q0 29 -21.5 46t-58.5 17t-59.5 -21t-24.5 -55h-205q-2 110 78.5 176t215.5 66q129 0 208 -54t79 -142q0 -61 -40.5 -105t-106.5 -55v-5q79 -9 124.5 -53.5t45.5 -113.5q0 -100 -84.5 -158.5t-227.5 -58.5q-133 0 -216.5 67
t-88.5 177h219q1 -31 24 -48.5t61 -17.5q37 0 59.5 17.5t22.5 45.5q0 30 -22.5 47t-61.5 17h-84zM1379 0v96h-344v190q88 173 244 417h318v-432h80v-175h-80v-96h-218zM1223 265v-4h163v294h-4q-103 -176 -159 -290zM475 0h-257l1054 1443h256z" />
    <glyph glyph-name="questiondown" unicode="&#xbf;" horiz-adv-x="1093" 
d="M1040 80q-4 -189 -132 -303.5t-353 -114.5q-214 0 -345 107.5t-131 280.5q0 110 53.5 192t160.5 146q100 59 135 105t35 119v53h264l2 -58q10 -116 -32 -191t-148 -137q-97 -58 -132.5 -104t-35.5 -116q0 -73 53 -119t138 -46t138 50.5t58 135.5h272zM585 833
q-68 0 -116 45.5t-48 110.5q0 66 47.5 111.5t116.5 45.5q68 0 115.5 -45.5t47.5 -111.5q0 -65 -47.5 -110.5t-115.5 -45.5z" />
    <glyph glyph-name="Agrave" unicode="&#xc0;" horiz-adv-x="1413" 
d="M1065 0l-110 350h-507l-110 -350h-310l501 1443h355l502 -1443h-321zM698 1167l-185 -591h377l-185 591h-7zM597 1558l-278 310h273l232 -310h-227z" />
    <glyph glyph-name="Aacute" unicode="&#xc1;" horiz-adv-x="1413" 
d="M1065 0l-110 350h-507l-110 -350h-310l501 1443h355l502 -1443h-321zM698 1167l-185 -591h377l-185 591h-7zM816 1553h-228l232 310h273z" />
    <glyph glyph-name="Acircumflex" unicode="&#xc2;" horiz-adv-x="1413" 
d="M1065 0l-110 350h-507l-110 -350h-310l501 1443h355l502 -1443h-321zM698 1167l-185 -591h377l-185 591h-7zM593 1861h228l274 -318h-222l-163 197h-6l-163 -197h-222z" />
    <glyph glyph-name="Atilde" unicode="&#xc3;" horiz-adv-x="1413" 
d="M1065 0l-110 350h-507l-110 -350h-310l501 1443h355l502 -1443h-321zM698 1167l-185 -591h377l-185 591h-7zM847 1541q-46 0 -87.5 21.5t-65.5 46.5t-52.5 46.5t-52.5 21.5q-33 0 -50.5 -32.5t-18.5 -86.5h-158q0 126 60 198.5t155 72.5q39 0 74 -14t59 -33.5t45 -39.5
t42.5 -34t40.5 -14q63 0 65 122h158q0 -125 -60.5 -200t-153.5 -75z" />
    <glyph glyph-name="Adieresis" unicode="&#xc4;" horiz-adv-x="1413" 
d="M1065 0l-110 350h-507l-110 -350h-310l501 1443h355l502 -1443h-321zM698 1167l-185 -591h377l-185 591h-7zM498 1561q-57 0 -96 38.5t-39 92.5t39 92.5t96 38.5t96 -38.5t39 -92.5t-39 -92.5t-96 -38.5zM917 1561q-57 0 -96 38.5t-39 92.5t39 92.5t96 38.5t96 -38.5
t39 -92.5t-39 -92.5t-96 -38.5z" />
    <glyph glyph-name="Aring" unicode="&#xc5;" horiz-adv-x="1413" 
d="M1065 0l-110 350h-507l-110 -350h-310l501 1443h355l502 -1443h-321zM698 1167l-185 -591h377l-185 591h-7zM707 1514q-86 0 -148 60.5t-62 144.5q0 85 62 145.5t148 60.5t147.5 -60.5t61.5 -145.5q0 -84 -61.5 -144.5t-147.5 -60.5zM707 1623q41 0 69.5 28t28.5 68
t-28.5 68.5t-69.5 28.5t-69.5 -28.5t-28.5 -68.5t28.5 -68t69.5 -28z" />
    <glyph glyph-name="AE" unicode="&#xc6;" horiz-adv-x="2039" 
d="M830 1211l-255 -612h391v612h-136zM966 0v373h-479l-158 -373h-301l613 1443h1270v-249h-669v-353h632v-232h-632v-360h669v-249h-945z" />
    <glyph glyph-name="Ccedilla" unicode="&#xc7;" horiz-adv-x="1459" 
d="M1099 501h294q-24 -224 -175.5 -364t-389.5 -159l-40 -94q88 0 136.5 -41.5t48.5 -117.5q0 -86 -64 -135.5t-177 -50.5q-88 0 -140 16v120q40 -14 111 -14q107 0 107 55q0 31 -28.5 43.5t-96.5 12.5h-56v101l48 106q-281 26 -441.5 222t-160.5 521q0 347 184 546.5
t499 199.5q172 0 312.5 -68t225.5 -192t96 -283h-294q-21 133 -114.5 213t-225.5 80q-171 0 -273 -134t-102 -361q0 -231 101 -364.5t275 -133.5q134 0 225 74t115 202z" />
    <glyph glyph-name="Egrave" unicode="&#xc8;" horiz-adv-x="1174" 
d="M488 1558l-278 310h273l232 -310h-227zM1076 250v-250h-956v1443h956v-249h-654v-348h617v-232h-617v-364h654z" />
    <glyph glyph-name="Eacute" unicode="&#xc9;" horiz-adv-x="1174" 
d="M707 1553h-228l232 310h273zM1076 250v-250h-956v1443h956v-249h-654v-348h617v-232h-617v-364h654z" />
    <glyph glyph-name="Ecircumflex" unicode="&#xca;" horiz-adv-x="1174" 
d="M484 1861h228l274 -318h-222l-163 197h-6l-163 -197h-222zM1076 250v-250h-956v1443h956v-249h-654v-348h617v-232h-617v-364h654z" />
    <glyph glyph-name="Edieresis" unicode="&#xcb;" horiz-adv-x="1174" 
d="M389 1561q-57 0 -96 38.5t-39 92.5t39 92.5t96 38.5t96 -38.5t39 -92.5t-39 -92.5t-96 -38.5zM808 1561q-57 0 -96 38.5t-39 92.5t39 92.5t96 38.5t96 -38.5t39 -92.5t-39 -92.5t-96 -38.5zM1076 250v-250h-956v1443h956v-249h-654v-348h617v-232h-617v-364h654z" />
    <glyph glyph-name="Igrave" unicode="&#xcc;" horiz-adv-x="542" 
d="M422 0h-302v1443h302v-1443zM161 1558l-278 310h273l232 -310h-227z" />
    <glyph glyph-name="Iacute" unicode="&#xcd;" horiz-adv-x="542" 
d="M422 0h-302v1443h302v-1443zM380 1553h-228l232 310h273z" />
    <glyph glyph-name="Icircumflex" unicode="&#xce;" horiz-adv-x="542" 
d="M422 0h-302v1443h302v-1443zM157 1861h228l274 -318h-222l-163 197h-6l-163 -197h-222z" />
    <glyph glyph-name="Idieresis" unicode="&#xcf;" horiz-adv-x="542" 
d="M422 0h-302v1443h302v-1443zM62 1561q-57 0 -96 38.5t-39 92.5t39 92.5t96 38.5t96 -38.5t39 -92.5t-39 -92.5t-96 -38.5zM481 1561q-57 0 -96 38.5t-39 92.5t39 92.5t96 38.5t96 -38.5t39 -92.5t-39 -92.5t-96 -38.5z" />
    <glyph glyph-name="Eth" unicode="&#xd0;" horiz-adv-x="1458" 
d="M442 250h218q203 0 309.5 121.5t106.5 354.5q0 226 -108 347t-308 121h-218v-351h255v-221h-255v-372zM140 1443h556q326 0 507 -187t181 -529q0 -343 -181.5 -535t-506.5 -192h-556v622h-98v221h98v600z" />
    <glyph glyph-name="Ntilde" unicode="&#xd1;" horiz-adv-x="1463" 
d="M872 1541q-46 0 -87.5 21.5t-65.5 46.5t-52.5 46.5t-52.5 21.5q-33 0 -50.5 -32.5t-18.5 -86.5h-158q0 126 60 198.5t155 72.5q39 0 74 -14t59 -33.5t45 -39.5t42.5 -34t40.5 -14q63 0 65 122h158q0 -125 -60.5 -200t-153.5 -75zM409 0h-289v1443h252l674 -940h8v940h289
v-1443h-250l-675 945h-9v-945z" />
    <glyph glyph-name="Ograve" unicode="&#xd2;" horiz-adv-x="1541" 
d="M661 1558l-278 310h273l232 -310h-227zM771 1468q321 0 508.5 -201t187.5 -546q0 -344 -188 -545t-508 -201q-321 0 -508.5 201t-187.5 545q0 345 187.5 546t508.5 201zM771 1216q-177 0 -282.5 -134t-105.5 -361q0 -226 105 -359.5t283 -133.5q177 0 282 133.5
t105 359.5q0 227 -105 361t-282 134z" />
    <glyph glyph-name="Oacute" unicode="&#xd3;" horiz-adv-x="1541" 
d="M880 1553h-228l232 310h273zM771 1468q321 0 508.5 -201t187.5 -546q0 -344 -188 -545t-508 -201q-321 0 -508.5 201t-187.5 545q0 345 187.5 546t508.5 201zM771 1216q-177 0 -282.5 -134t-105.5 -361q0 -226 105 -359.5t283 -133.5q177 0 282 133.5t105 359.5
q0 227 -105 361t-282 134z" />
    <glyph glyph-name="Ocircumflex" unicode="&#xd4;" horiz-adv-x="1541" 
d="M657 1861h228l274 -318h-222l-163 197h-6l-163 -197h-222zM771 1468q321 0 508.5 -201t187.5 -546q0 -344 -188 -545t-508 -201q-321 0 -508.5 201t-187.5 545q0 345 187.5 546t508.5 201zM771 1216q-177 0 -282.5 -134t-105.5 -361q0 -226 105 -359.5t283 -133.5
q177 0 282 133.5t105 359.5q0 227 -105 361t-282 134z" />
    <glyph glyph-name="Otilde" unicode="&#xd5;" horiz-adv-x="1541" 
d="M771 1468q321 0 508.5 -201t187.5 -546q0 -344 -188 -545t-508 -201q-321 0 -508.5 201t-187.5 545q0 345 187.5 546t508.5 201zM771 1216q-177 0 -282.5 -134t-105.5 -361q0 -226 105 -359.5t283 -133.5q177 0 282 133.5t105 359.5q0 227 -105 361t-282 134zM911 1541
q-46 0 -87.5 21.5t-65.5 46.5t-52.5 46.5t-52.5 21.5q-33 0 -50.5 -32.5t-18.5 -86.5h-158q0 126 60 198.5t155 72.5q39 0 74 -14t59 -33.5t45 -39.5t42.5 -34t40.5 -14q63 0 65 122h158q0 -125 -60.5 -200t-153.5 -75z" />
    <glyph glyph-name="Odieresis" unicode="&#xd6;" horiz-adv-x="1541" 
d="M562 1561q-57 0 -96 38.5t-39 92.5t39 92.5t96 38.5t96 -38.5t39 -92.5t-39 -92.5t-96 -38.5zM981 1561q-57 0 -96 38.5t-39 92.5t39 92.5t96 38.5t96 -38.5t39 -92.5t-39 -92.5t-96 -38.5zM771 1468q321 0 508.5 -201t187.5 -546q0 -344 -188 -545t-508 -201
q-321 0 -508.5 201t-187.5 545q0 345 187.5 546t508.5 201zM771 1216q-177 0 -282.5 -134t-105.5 -361q0 -226 105 -359.5t283 -133.5q177 0 282 133.5t105 359.5q0 227 -105 361t-282 134z" />
    <glyph glyph-name="multiply" unicode="&#xd7;" horiz-adv-x="1327" 
d="M664 409l-305 -304l-175 175l304 304l-304 305l175 175l305 -304l304 304l175 -175l-304 -305l304 -304l-175 -175z" />
    <glyph glyph-name="Oslash" unicode="&#xd8;" horiz-adv-x="1541" 
d="M1081 1041l-505 -759q85 -54 195 -54q177 0 282 133.5t105 359.5q0 194 -77 320zM484 366l514 773q-94 77 -227 77q-177 0 -282.5 -134t-105.5 -361q0 -223 101 -355zM1350 1446l-100 -150q217 -203 217 -575q0 -344 -188 -545t-508 -201q-197 0 -347 78l-80 -120
l-102 68l80 120q-120 97 -183.5 250t-63.5 350q0 345 187.5 546t508.5 201q220 0 381 -98l90 136z" />
    <glyph glyph-name="Ugrave" unicode="&#xd9;" horiz-adv-x="1449" 
d="M615 1558l-278 310h273l232 -310h-227zM422 1443v-903q0 -141 79.5 -223.5t223.5 -82.5q143 0 222.5 82.5t79.5 223.5v903h302v-933q0 -240 -164.5 -387.5t-439.5 -147.5q-276 0 -440.5 147.5t-164.5 387.5v933h302z" />
    <glyph glyph-name="Uacute" unicode="&#xda;" horiz-adv-x="1449" 
d="M834 1553h-228l232 310h273zM422 1443v-903q0 -141 79.5 -223.5t223.5 -82.5q143 0 222.5 82.5t79.5 223.5v903h302v-933q0 -240 -164.5 -387.5t-439.5 -147.5q-276 0 -440.5 147.5t-164.5 387.5v933h302z" />
    <glyph glyph-name="Ucircumflex" unicode="&#xdb;" horiz-adv-x="1449" 
d="M611 1861h228l274 -318h-222l-163 197h-6l-163 -197h-222zM422 1443v-903q0 -141 79.5 -223.5t223.5 -82.5q143 0 222.5 82.5t79.5 223.5v903h302v-933q0 -240 -164.5 -387.5t-439.5 -147.5q-276 0 -440.5 147.5t-164.5 387.5v933h302z" />
    <glyph glyph-name="Udieresis" unicode="&#xdc;" horiz-adv-x="1449" 
d="M516 1561q-57 0 -96 38.5t-39 92.5t39 92.5t96 38.5t96 -38.5t39 -92.5t-39 -92.5t-96 -38.5zM935 1561q-57 0 -96 38.5t-39 92.5t39 92.5t96 38.5t96 -38.5t39 -92.5t-39 -92.5t-96 -38.5zM422 1443v-903q0 -141 79.5 -223.5t223.5 -82.5q143 0 222.5 82.5t79.5 223.5
v903h302v-933q0 -240 -164.5 -387.5t-439.5 -147.5q-276 0 -440.5 147.5t-164.5 387.5v933h302z" />
    <glyph glyph-name="Yacute" unicode="&#xdd;" horiz-adv-x="1362" 
d="M832 0h-302v539l-502 904h329l323 -616h7l324 616h324l-503 -904v-539zM790 1553h-228l232 310h273z" />
    <glyph glyph-name="Thorn" unicode="&#xde;" horiz-adv-x="1330" 
d="M151 1443h304v-235h307q209 0 342 -123.5t133 -333.5q0 -139 -64.5 -244t-175 -159t-250.5 -54h-294v-294h-302v1443zM453 968v-437h226q117 0 184 56t67 163t-66.5 162.5t-183.5 55.5h-227z" />
    <glyph glyph-name="germandbls" unicode="&#xdf;" horiz-adv-x="1360" 
d="M439 0h-291v1081q0 185 135 293.5t365 108.5q219 0 356.5 -105t137.5 -272q0 -122 -59 -211t-159 -118v-12q154 -14 244.5 -113t90.5 -253q0 -191 -130.5 -302.5t-353.5 -111.5q-115 0 -181 16v233q51 -17 128 -17q113 0 177 53t64 146q0 97 -72.5 151t-201.5 54h-72v238
h50q89 0 141 53.5t52 145.5q0 86 -56.5 137.5t-150.5 51.5q-104 0 -159 -57.5t-55 -166.5v-1023z" />
    <glyph glyph-name="agrave" unicode="&#xe0;" horiz-adv-x="1147" 
d="M520 200q103 0 173 57.5t70 146.5v81l-231 -16q-91 -6 -139 -41t-48 -96t47.5 -96.5t127.5 -35.5zM425 -13q-161 0 -266 92t-105 238q0 149 111 233t323 97l275 17v73q0 79 -51 121.5t-142 42.5q-78 0 -130.5 -37.5t-63.5 -98.5h-267q6 158 136.5 256.5t336.5 98.5
q212 0 340 -100t128 -265v-755h-282v170h-6q-44 -85 -136.5 -134t-200.5 -49zM697 1263h-231l-263 310h273z" />
    <glyph glyph-name="aacute" unicode="&#xe1;" horiz-adv-x="1147" 
d="M520 200q103 0 173 57.5t70 146.5v81l-231 -16q-91 -6 -139 -41t-48 -96t47.5 -96.5t127.5 -35.5zM425 -13q-161 0 -266 92t-105 238q0 149 111 233t323 97l275 17v73q0 79 -51 121.5t-142 42.5q-78 0 -130.5 -37.5t-63.5 -98.5h-267q6 158 136.5 256.5t336.5 98.5
q212 0 340 -100t128 -265v-755h-282v170h-6q-44 -85 -136.5 -134t-200.5 -49zM690 1263h-231l221 310h273z" />
    <glyph glyph-name="acircumflex" unicode="&#xe2;" horiz-adv-x="1147" 
d="M520 200q103 0 173 57.5t70 146.5v81l-231 -16q-91 -6 -139 -41t-48 -96t47.5 -96.5t127.5 -35.5zM425 -13q-161 0 -266 92t-105 238q0 149 111 233t323 97l275 17v73q0 79 -51 121.5t-142 42.5q-78 0 -130.5 -37.5t-63.5 -98.5h-267q6 158 136.5 256.5t336.5 98.5
q212 0 340 -100t128 -265v-755h-282v170h-6q-44 -85 -136.5 -134t-200.5 -49zM687 1571l266 -318h-223l-149 189h-7l-148 -189h-224l266 318h219z" />
    <glyph glyph-name="atilde" unicode="&#xe3;" horiz-adv-x="1147" 
d="M520 200q103 0 173 57.5t70 146.5v81l-231 -16q-91 -6 -139 -41t-48 -96t47.5 -96.5t127.5 -35.5zM425 -13q-161 0 -266 92t-105 238q0 149 111 233t323 97l275 17v73q0 79 -51 121.5t-142 42.5q-78 0 -130.5 -37.5t-63.5 -98.5h-267q6 158 136.5 256.5t336.5 98.5
q212 0 340 -100t128 -265v-755h-282v170h-6q-44 -85 -136.5 -134t-200.5 -49zM720 1258q-38 0 -71.5 14t-57.5 34t-45 40t-42.5 34t-41.5 14q-33 0 -50.5 -32.5t-18.5 -86.5h-158q0 126 60 198.5t155 72.5q39 0 74 -14t59 -34t45 -39.5t42.5 -33.5t40.5 -14q63 0 65 122h158
q0 -125 -60.5 -200t-153.5 -75z" />
    <glyph glyph-name="adieresis" unicode="&#xe4;" horiz-adv-x="1147" 
d="M520 200q103 0 173 57.5t70 146.5v81l-231 -16q-91 -6 -139 -41t-48 -96t47.5 -96.5t127.5 -35.5zM425 -13q-161 0 -266 92t-105 238q0 149 111 233t323 97l275 17v73q0 79 -51 121.5t-142 42.5q-78 0 -130.5 -37.5t-63.5 -98.5h-267q6 158 136.5 256.5t336.5 98.5
q212 0 340 -100t128 -265v-755h-282v170h-6q-44 -85 -136.5 -134t-200.5 -49zM369 1259q-57 0 -96 38.5t-39 92.5t39 92.5t96 38.5t96 -38.5t39 -92.5t-39 -92.5t-96 -38.5zM788 1259q-57 0 -96 38.5t-39 92.5t39 92.5t96 38.5t96 -38.5t39 -92.5t-39 -92.5t-96 -38.5z" />
    <glyph glyph-name="aring" unicode="&#xe5;" horiz-adv-x="1147" 
d="M520 200q103 0 173 57.5t70 146.5v81l-231 -16q-91 -6 -139 -41t-48 -96t47.5 -96.5t127.5 -35.5zM425 -13q-161 0 -266 92t-105 238q0 149 111 233t323 97l275 17v73q0 79 -51 121.5t-142 42.5q-78 0 -130.5 -37.5t-63.5 -98.5h-267q6 158 136.5 256.5t336.5 98.5
q212 0 340 -100t128 -265v-755h-282v170h-6q-44 -85 -136.5 -134t-200.5 -49zM578 1210q-90 0 -155.5 64t-65.5 153t65.5 153t155.5 64q91 0 156 -64t65 -153t-65 -153t-156 -64zM578 1327q42 0 72 29.5t30 70.5t-30 71t-72 30q-41 0 -71.5 -30t-30.5 -71t30.5 -70.5
t71.5 -29.5z" />
    <glyph glyph-name="ae" unicode="&#xe6;" horiz-adv-x="1844" 
d="M1286 -19q-137 0 -244 55t-160 152h-9q-58 -97 -160.5 -149t-240.5 -52q-192 0 -305 90t-113 238q0 149 111 234t322 97l276 15v62q0 78 -56.5 128t-144.5 50q-83 0 -138 -37.5t-62 -98.5h-263q8 159 133.5 257t322.5 98q130 0 226 -45t141 -123h9q115 168 363 168
q223 0 357.5 -147.5t134.5 -399.5v-89h-751v-19q0 -120 70 -193t185 -73q82 0 139.5 36t78.5 101h269q-25 -161 -158.5 -258t-332.5 -97zM1277 902q-100 0 -165.5 -65.5t-73.5 -172.5h466q-4 109 -65.5 173.5t-161.5 64.5zM512 196q104 0 177.5 61t73.5 147v78l-241 -16
q-89 -5 -139 -40t-50 -95t50 -97.5t129 -37.5z" />
    <glyph glyph-name="ccedilla" unicode="&#xe7;" horiz-adv-x="1142" 
d="M823 400h272q-12 -175 -126 -286t-301 -130l-42 -100q88 0 136.5 -41.5t48.5 -117.5q0 -86 -64 -135.5t-177 -50.5q-88 0 -140 16v120q40 -14 111 -14q107 0 107 55q0 31 -28.5 43.5t-96.5 12.5h-56v101l51 112q-214 25 -337 174.5t-123 391.5q0 261 145.5 415t391.5 154
q218 0 353 -119t146 -306h-272q-12 88 -71 141.5t-152 53.5q-113 0 -179 -90.5t-66 -248.5q0 -160 66 -249.5t180 -89.5q93 0 151 49t72 139z" />
    <glyph glyph-name="egrave" unicode="&#xe8;" horiz-adv-x="1164" 
d="M705 1263h-231l-263 310h273zM590 902q-100 0 -166.5 -66t-74.5 -172h475q-4 108 -68 173t-166 65zM828 336h269q-24 -160 -161 -257.5t-338 -97.5q-251 0 -395.5 151t-144.5 414t143.5 418.5t385.5 155.5q238 0 378.5 -148t140.5 -399v-90h-760v-18q0 -119 71 -192.5
t186 -73.5q83 0 143.5 36.5t81.5 100.5z" />
    <glyph glyph-name="eacute" unicode="&#xe9;" horiz-adv-x="1164" 
d="M698 1263h-231l221 310h273zM590 902q-100 0 -166.5 -66t-74.5 -172h475q-4 108 -68 173t-166 65zM828 336h269q-24 -160 -161 -257.5t-338 -97.5q-251 0 -395.5 151t-144.5 414t143.5 418.5t385.5 155.5q238 0 378.5 -148t140.5 -399v-90h-760v-18q0 -119 71 -192.5
t186 -73.5q83 0 143.5 36.5t81.5 100.5z" />
    <glyph glyph-name="ecircumflex" unicode="&#xea;" horiz-adv-x="1164" 
d="M695 1571l266 -318h-223l-149 189h-7l-148 -189h-224l266 318h219zM590 902q-100 0 -166.5 -66t-74.5 -172h475q-4 108 -68 173t-166 65zM828 336h269q-24 -160 -161 -257.5t-338 -97.5q-251 0 -395.5 151t-144.5 414t143.5 418.5t385.5 155.5q238 0 378.5 -148
t140.5 -399v-90h-760v-18q0 -119 71 -192.5t186 -73.5q83 0 143.5 36.5t81.5 100.5z" />
    <glyph glyph-name="edieresis" unicode="&#xeb;" horiz-adv-x="1164" 
d="M590 902q-100 0 -166.5 -66t-74.5 -172h475q-4 108 -68 173t-166 65zM828 336h269q-24 -160 -161 -257.5t-338 -97.5q-251 0 -395.5 151t-144.5 414t143.5 418.5t385.5 155.5q238 0 378.5 -148t140.5 -399v-90h-760v-18q0 -119 71 -192.5t186 -73.5q83 0 143.5 36.5
t81.5 100.5zM377 1259q-57 0 -96 38.5t-39 92.5t39 92.5t96 38.5t96 -38.5t39 -92.5t-39 -92.5t-96 -38.5zM796 1259q-57 0 -96 38.5t-39 92.5t39 92.5t96 38.5t96 -38.5t39 -92.5t-39 -92.5t-96 -38.5z" />
    <glyph glyph-name="igrave" unicode="&#xec;" horiz-adv-x="500" 
d="M369 1263h-231l-263 310h273zM104 0v1101h292v-1101h-292z" />
    <glyph glyph-name="iacute" unicode="&#xed;" horiz-adv-x="500" 
d="M362 1263h-231l221 310h273zM104 0v1101h292v-1101h-292z" />
    <glyph glyph-name="icircumflex" unicode="&#xee;" horiz-adv-x="500" 
d="M359 1571l266 -318h-223l-149 189h-7l-148 -189h-224l266 318h219zM104 0v1101h292v-1101h-292z" />
    <glyph glyph-name="idieresis" unicode="&#xef;" horiz-adv-x="500" 
d="M104 0v1101h292v-1101h-292zM41 1259q-57 0 -96 38.5t-39 92.5t39 92.5t96 38.5t96 -38.5t39 -92.5t-39 -92.5t-96 -38.5zM460 1259q-57 0 -96 38.5t-39 92.5t39 92.5t96 38.5t96 -38.5t39 -92.5t-39 -92.5t-96 -38.5z" />
    <glyph glyph-name="eth" unicode="&#xf0;" horiz-adv-x="1253" 
d="M621 -18q-244 0 -392.5 151t-148.5 402q0 235 130 377t337 142q84 0 159 -35.5t115 -94.5h17q-21 69 -69.5 148.5t-101.5 139.5l-285 -95l-55 140l228 76q-79 72 -242 184h363q63 -48 119 -104l265 89l57 -141l-202 -66q250 -298 250 -694q0 -284 -149 -451.5
t-395 -167.5zM628 848q-115 0 -182 -85t-67 -230t67 -230t182 -85t182.5 84.5t67.5 230.5q0 144 -68 229.5t-182 85.5z" />
    <glyph glyph-name="ntilde" unicode="&#xf1;" horiz-adv-x="1207" 
d="M747 1258q-38 0 -71.5 14t-57.5 34t-45 40t-42.5 34t-41.5 14q-33 0 -50.5 -32.5t-18.5 -86.5h-158q0 126 60 198.5t155 72.5q39 0 74 -14t59 -34t45 -39.5t42.5 -33.5t40.5 -14q63 0 65 122h158q0 -125 -60.5 -200t-153.5 -75zM99 0v1101h282v-197h6q97 213 344 213
q182 0 282 -108.5t100 -302.5v-706h-292v645q0 111 -52 170t-154 59q-104 0 -164 -67.5t-60 -178.5v-628h-292z" />
    <glyph glyph-name="ograve" unicode="&#xf2;" horiz-adv-x="1201" 
d="M720 1263h-231l-263 310h273zM601 -19q-251 0 -397 152t-146 418q0 263 147 416t396 153q250 0 396.5 -152.5t146.5 -416.5q0 -267 -145.5 -418.5t-397.5 -151.5zM601 206q116 0 181 90.5t65 254.5q0 162 -65.5 253.5t-180.5 91.5q-116 0 -181.5 -91.5t-65.5 -253.5
q0 -164 65.5 -254.5t181.5 -90.5z" />
    <glyph glyph-name="oacute" unicode="&#xf3;" horiz-adv-x="1201" 
d="M713 1263h-231l221 310h273zM601 -19q-251 0 -397 152t-146 418q0 263 147 416t396 153q250 0 396.5 -152.5t146.5 -416.5q0 -267 -145.5 -418.5t-397.5 -151.5zM601 206q116 0 181 90.5t65 254.5q0 162 -65.5 253.5t-180.5 91.5q-116 0 -181.5 -91.5t-65.5 -253.5
q0 -164 65.5 -254.5t181.5 -90.5z" />
    <glyph glyph-name="ocircumflex" unicode="&#xf4;" horiz-adv-x="1201" 
d="M710 1571l266 -318h-223l-149 189h-7l-148 -189h-224l266 318h219zM601 -19q-251 0 -397 152t-146 418q0 263 147 416t396 153q250 0 396.5 -152.5t146.5 -416.5q0 -267 -145.5 -418.5t-397.5 -151.5zM601 206q116 0 181 90.5t65 254.5q0 162 -65.5 253.5t-180.5 91.5
q-116 0 -181.5 -91.5t-65.5 -253.5q0 -164 65.5 -254.5t181.5 -90.5z" />
    <glyph glyph-name="otilde" unicode="&#xf5;" horiz-adv-x="1201" 
d="M743 1258q-38 0 -71.5 14t-57.5 34t-45 40t-42.5 34t-41.5 14q-33 0 -50.5 -32.5t-18.5 -86.5h-158q0 126 60 198.5t155 72.5q39 0 74 -14t59 -34t45 -39.5t42.5 -33.5t40.5 -14q63 0 65 122h158q0 -125 -60.5 -200t-153.5 -75zM601 -19q-251 0 -397 152t-146 418
q0 263 147 416t396 153q250 0 396.5 -152.5t146.5 -416.5q0 -267 -145.5 -418.5t-397.5 -151.5zM601 206q116 0 181 90.5t65 254.5q0 162 -65.5 253.5t-180.5 91.5q-116 0 -181.5 -91.5t-65.5 -253.5q0 -164 65.5 -254.5t181.5 -90.5z" />
    <glyph glyph-name="odieresis" unicode="&#xf6;" horiz-adv-x="1201" 
d="M392 1259q-57 0 -96 38.5t-39 92.5t39 92.5t96 38.5t96 -38.5t39 -92.5t-39 -92.5t-96 -38.5zM811 1259q-57 0 -96 38.5t-39 92.5t39 92.5t96 38.5t96 -38.5t39 -92.5t-39 -92.5t-96 -38.5zM601 -19q-251 0 -397 152t-146 418q0 263 147 416t396 153q250 0 396.5 -152.5
t146.5 -416.5q0 -267 -145.5 -418.5t-397.5 -151.5zM601 206q116 0 181 90.5t65 254.5q0 162 -65.5 253.5t-180.5 91.5q-116 0 -181.5 -91.5t-65.5 -253.5q0 -164 65.5 -254.5t181.5 -90.5z" />
    <glyph glyph-name="divide" unicode="&#xf7;" horiz-adv-x="1326" 
d="M664 810q-74 0 -120.5 44t-46.5 114q0 71 46.5 115t120.5 44t120.5 -44t46.5 -115q0 -70 -46.5 -114t-120.5 -44zM664 32q-74 0 -120.5 44t-46.5 114q0 71 46.5 115t120.5 44t120.5 -44t46.5 -115q0 -70 -46.5 -114t-120.5 -44zM1203 470h-1079v218h1079v-218z" />
    <glyph glyph-name="oslash" unicode="&#xf8;" horiz-adv-x="1201" 
d="M809 757l-326 -520q53 -31 118 -31q116 0 181 90.5t65 254.5q0 122 -38 206zM399 331l330 526q-54 39 -128 39q-116 0 -181.5 -91.5t-65.5 -253.5q0 -133 45 -220zM1030 1109l-68 -108q182 -154 182 -450q0 -267 -145.5 -418.5t-397.5 -151.5q-137 0 -248 48l-62 -99
l-104 64l62 98q-191 152 -191 459q0 263 147 416t396 153q145 0 259 -54l64 102z" />
    <glyph glyph-name="ugrave" unicode="&#xf9;" horiz-adv-x="1207" 
d="M722 1263h-231l-263 310h273zM1108 1101v-1101h-282v199h-6q-87 -215 -331 -215q-180 0 -287.5 110t-107.5 301v706h292v-645q0 -112 54 -170.5t155 -58.5q102 0 161.5 67.5t59.5 179.5v627h292z" />
    <glyph glyph-name="uacute" unicode="&#xfa;" horiz-adv-x="1207" 
d="M715 1263h-231l221 310h273zM1108 1101v-1101h-282v199h-6q-87 -215 -331 -215q-180 0 -287.5 110t-107.5 301v706h292v-645q0 -112 54 -170.5t155 -58.5q102 0 161.5 67.5t59.5 179.5v627h292z" />
    <glyph glyph-name="ucircumflex" unicode="&#xfb;" horiz-adv-x="1207" 
d="M712 1571l266 -318h-223l-149 189h-7l-148 -189h-224l266 318h219zM1108 1101v-1101h-282v199h-6q-87 -215 -331 -215q-180 0 -287.5 110t-107.5 301v706h292v-645q0 -112 54 -170.5t155 -58.5q102 0 161.5 67.5t59.5 179.5v627h292z" />
    <glyph glyph-name="udieresis" unicode="&#xfc;" horiz-adv-x="1207" 
d="M1108 1101v-1101h-282v199h-6q-87 -215 -331 -215q-180 0 -287.5 110t-107.5 301v706h292v-645q0 -112 54 -170.5t155 -58.5q102 0 161.5 67.5t59.5 179.5v627h292zM394 1259q-57 0 -96 38.5t-39 92.5t39 92.5t96 38.5t96 -38.5t39 -92.5t-39 -92.5t-96 -38.5zM813 1259
q-57 0 -96 38.5t-39 92.5t39 92.5t96 38.5t96 -38.5t39 -92.5t-39 -92.5t-96 -38.5z" />
    <glyph glyph-name="yacute" unicode="&#xfd;" horiz-adv-x="1136" 
d="M239 -402q-89 0 -111 4v226q15 -3 66 -3q83 0 130.5 30.5t64.5 95.5l10 42l-386 1108h320l238 -864h6l239 864h308l-381 -1123q-70 -210 -183.5 -295t-320.5 -85zM681 1263h-231l221 310h273z" />
    <glyph glyph-name="thorn" unicode="&#xfe;" horiz-adv-x="1253" 
d="M746 1119q209 0 328 -151t119 -417t-118.5 -417.5t-326.5 -151.5q-118 0 -205 49t-128 137h-17v-514h-291v1853h287v-587h18q45 94 133 146.5t201 52.5zM645 218q117 0 183 88.5t66 244.5q0 155 -66 243.5t-183 88.5q-116 0 -183 -89.5t-68 -243.5q1 -155 68 -243.5
t183 -88.5z" />
    <glyph glyph-name="ydieresis" unicode="&#xff;" horiz-adv-x="1136" 
d="M239 -402q-89 0 -111 4v226q15 -3 66 -3q83 0 130.5 30.5t64.5 95.5l10 42l-386 1108h320l238 -864h6l239 864h308l-381 -1123q-70 -210 -183.5 -295t-320.5 -85zM360 1259q-57 0 -96 38.5t-39 92.5t39 92.5t96 38.5t96 -38.5t39 -92.5t-39 -92.5t-96 -38.5zM779 1259
q-57 0 -96 38.5t-39 92.5t39 92.5t96 38.5t96 -38.5t39 -92.5t-39 -92.5t-96 -38.5z" />
    <glyph glyph-name="Amacron" unicode="&#x100;" horiz-adv-x="1413" 
d="M1065 0l-110 350h-507l-110 -350h-310l501 1443h355l502 -1443h-321zM698 1167l-185 -591h377l-185 591h-7zM1053 1767v-143h-692v143h692z" />
    <glyph glyph-name="amacron" unicode="&#x101;" horiz-adv-x="1147" 
d="M520 200q103 0 173 57.5t70 146.5v81l-231 -16q-91 -6 -139 -41t-48 -96t47.5 -96.5t127.5 -35.5zM425 -13q-161 0 -266 92t-105 238q0 149 111 233t323 97l275 17v73q0 79 -51 121.5t-142 42.5q-78 0 -130.5 -37.5t-63.5 -98.5h-267q6 158 136.5 256.5t336.5 98.5
q212 0 340 -100t128 -265v-755h-282v170h-6q-44 -85 -136.5 -134t-200.5 -49zM913 1441v-143h-669v143h669z" />
    <glyph glyph-name="Abreve" unicode="&#x102;" horiz-adv-x="1413" 
d="M1065 0l-110 350h-507l-110 -350h-310l501 1443h355l502 -1443h-321zM698 1167l-185 -591h377l-185 591h-7zM354 1860h178q2 -75 50 -123.5t125 -48.5t125 48.5t50 123.5h178q-2 -137 -97.5 -227t-255.5 -90t-255.5 90t-97.5 227z" />
    <glyph glyph-name="abreve" unicode="&#x103;" horiz-adv-x="1147" 
d="M520 200q103 0 173 57.5t70 146.5v81l-231 -16q-91 -6 -139 -41t-48 -96t47.5 -96.5t127.5 -35.5zM425 -13q-161 0 -266 92t-105 238q0 149 111 233t323 97l275 17v73q0 79 -51 121.5t-142 42.5q-78 0 -130.5 -37.5t-63.5 -98.5h-267q6 158 136.5 256.5t336.5 98.5
q212 0 340 -100t128 -265v-755h-282v170h-6q-44 -85 -136.5 -134t-200.5 -49zM219 1570h179q2 -76 51 -125.5t128 -49.5t128 49.5t51 125.5h180q-2 -140 -99 -231t-260 -91q-162 0 -259 91t-99 231z" />
    <glyph glyph-name="Aogonek" unicode="&#x104;" horiz-adv-x="1413" 
d="M698 1167l-185 -591h377l-185 591h-7zM1318 -442q-52 -21 -138 -21q-121 0 -198 62.5t-77 160.5q0 141 160 240l-110 350h-507l-110 -350h-310l501 1443h355l502 -1443l-48 -4q-86 -17 -146.5 -71.5t-60.5 -114.5q0 -44 31.5 -70t86.5 -26q48 0 69 7v-163z" />
    <glyph glyph-name="aogonek" unicode="&#x105;" horiz-adv-x="1147" 
d="M520 200q103 0 173 57.5t70 146.5v81l-231 -16q-91 -6 -139 -41t-48 -96t47.5 -96.5t127.5 -35.5zM1014 -442q-50 -21 -138 -21q-121 0 -197.5 62t-76.5 160q0 72 46 137t120 100v174h-6q-44 -85 -136.5 -134t-200.5 -49q-161 0 -266 92t-105 238q0 149 111 233t323 97
l275 17v73q0 79 -51 121.5t-142 42.5q-78 0 -130.5 -37.5t-63.5 -98.5h-267q6 158 136.5 256.5t336.5 98.5q212 0 340 -100t128 -265v-755l-36 -7q-82 -22 -134.5 -72.5t-52.5 -110.5q0 -44 31 -70t87 -26q50 0 69 7v-163z" />
    <glyph glyph-name="Cacute" unicode="&#x106;" horiz-adv-x="1459" 
d="M854 1554h-228l232 310h273zM758 -25q-316 0 -499.5 199.5t-183.5 547.5q0 347 184 546.5t499 199.5q172 0 312.5 -68t225.5 -192t96 -283h-294q-21 133 -114.5 213t-225.5 80q-171 0 -273 -134t-102 -361q0 -231 101 -364.5t275 -133.5q134 0 225 74t115 202h294
q-25 -241 -197 -383.5t-438 -142.5z" />
    <glyph glyph-name="cacute" unicode="&#x107;" horiz-adv-x="1142" 
d="M1094 695h-272q-12 88 -71 141.5t-152 53.5q-113 0 -179 -90.5t-66 -248.5q0 -160 66 -249.5t180 -89.5q93 0 151 49t72 139h272q-13 -192 -147.5 -305.5t-350.5 -113.5q-248 0 -393.5 153t-145.5 417q0 261 145.5 415t391.5 154q218 0 353 -119t146 -306zM694 1263h-231
l221 310h273z" />
    <glyph glyph-name="Ccircumflex" unicode="&#x108;" horiz-adv-x="1459" 
d="M758 -25q-316 0 -499.5 199.5t-183.5 547.5q0 347 184 546.5t499 199.5q172 0 312.5 -68t225.5 -192t96 -283h-294q-21 133 -114.5 213t-225.5 80q-171 0 -273 -134t-102 -361q0 -231 101 -364.5t275 -133.5q134 0 225 74t115 202h294q-25 -241 -197 -383.5t-438 -142.5z
M631 1862h228l274 -318h-222l-163 197h-6l-163 -197h-222z" />
    <glyph glyph-name="ccircumflex" unicode="&#x109;" horiz-adv-x="1142" 
d="M691 1571l266 -318h-223l-149 189h-7l-148 -189h-224l266 318h219zM1094 695h-272q-12 88 -71 141.5t-152 53.5q-113 0 -179 -90.5t-66 -248.5q0 -160 66 -249.5t180 -89.5q93 0 151 49t72 139h272q-13 -192 -147.5 -305.5t-350.5 -113.5q-248 0 -393.5 153t-145.5 417
q0 261 145.5 415t391.5 154q218 0 353 -119t146 -306z" />
    <glyph glyph-name="Cdotaccent" unicode="&#x10a;" horiz-adv-x="1459" 
d="M745 1562q-63 0 -106 43.5t-43 105.5t43 105t106 43t106 -43t43 -105t-43 -105.5t-106 -43.5zM758 -25q-316 0 -499.5 199.5t-183.5 547.5q0 347 184 546.5t499 199.5q172 0 312.5 -68t225.5 -192t96 -283h-294q-21 133 -114.5 213t-225.5 80q-171 0 -273 -134t-102 -361
q0 -231 101 -364.5t275 -133.5q134 0 225 74t115 202h294q-25 -241 -197 -383.5t-438 -142.5z" />
    <glyph glyph-name="cdotaccent" unicode="&#x10b;" horiz-adv-x="1142" 
d="M1094 695h-272q-12 88 -71 141.5t-152 53.5q-113 0 -179 -90.5t-66 -248.5q0 -160 66 -249.5t180 -89.5q93 0 151 49t72 139h272q-13 -192 -147.5 -305.5t-350.5 -113.5q-248 0 -393.5 153t-145.5 417q0 261 145.5 415t391.5 154q218 0 353 -119t146 -306zM581 1263
q-63 0 -107 43.5t-44 104.5q0 62 44 105.5t107 43.5t106.5 -43.5t43.5 -105.5q0 -61 -43.5 -104.5t-106.5 -43.5z" />
    <glyph glyph-name="Ccaron" unicode="&#x10c;" horiz-adv-x="1459" 
d="M758 -25q-316 0 -499.5 199.5t-183.5 547.5q0 347 184 546.5t499 199.5q172 0 312.5 -68t225.5 -192t96 -283h-294q-21 133 -114.5 213t-225.5 80q-171 0 -273 -134t-102 -361q0 -231 101 -364.5t275 -133.5q134 0 225 74t115 202h294q-25 -241 -197 -383.5t-438 -142.5z
M631 1544l-274 318h222l163 -197h6l163 197h222l-274 -318h-228z" />
    <glyph glyph-name="ccaron" unicode="&#x10d;" horiz-adv-x="1142" 
d="M691 1253h-219l-266 318h224l148 -188h7l149 188h223zM1094 695h-272q-12 88 -71 141.5t-152 53.5q-113 0 -179 -90.5t-66 -248.5q0 -160 66 -249.5t180 -89.5q93 0 151 49t72 139h272q-13 -192 -147.5 -305.5t-350.5 -113.5q-248 0 -393.5 153t-145.5 417
q0 261 145.5 415t391.5 154q218 0 353 -119t146 -306z" />
    <glyph glyph-name="Dcaron" unicode="&#x10e;" horiz-adv-x="1438" 
d="M530 1543l-274 318h222l163 -197h6l163 197h222l-274 -318h-228zM120 1443h556q326 0 507 -187t181 -529q0 -343 -181.5 -535t-506.5 -192h-556v1443zM422 1194v-944h218q203 0 309.5 121.5t106.5 354.5q0 226 -108 347t-308 121h-218z" />
    <glyph glyph-name="dcaron" unicode="&#x10f;" horiz-adv-x="1449" 
d="M1297 1507h217l-40 -503h-177v503zM509 -13q-206 0 -328.5 152.5t-122.5 412.5q0 258 123 410t329 152q118 0 206.5 -54t130.5 -147h6v599h292v-1512h-288v188h-5q-41 -92 -132 -146.5t-211 -54.5zM606 878q-114 0 -181.5 -88.5t-67.5 -238.5q0 -151 67.5 -239.5
t181.5 -88.5q113 0 181 89t68 238t-68 238.5t-181 89.5z" />
    <glyph glyph-name="Dcroat" unicode="&#x110;" horiz-adv-x="1458" 
d="M442 250h218q203 0 309.5 121.5t106.5 354.5q0 226 -108 347t-308 121h-218v-351h255v-221h-255v-372zM140 1443h556q326 0 507 -187t181 -529q0 -343 -181.5 -535t-506.5 -192h-556v622h-98v221h98v600z" />
    <glyph glyph-name="dcroat" unicode="&#x111;" horiz-adv-x="1273" 
d="M606 223q113 0 181 89t68 238t-68 238.5t-181 89.5q-114 0 -181.5 -88.5t-67.5 -238.5q0 -151 67.5 -239.5t181.5 -88.5zM1248 1402v-150h-103v-1252h-288v188h-5q-41 -92 -132 -146.5t-211 -54.5q-206 0 -328.5 152.5t-122.5 412.5q0 258 123 410t329 152
q118 0 206.5 -54t130.5 -147h6v339h-213v150h213v110h292v-110h103z" />
    <glyph glyph-name="Emacron" unicode="&#x112;" horiz-adv-x="1174" 
d="M1076 250v-250h-956v1443h956v-249h-654v-348h617v-232h-617v-364h654zM944 1767v-143h-692v143h692z" />
    <glyph glyph-name="emacron" unicode="&#x113;" horiz-adv-x="1164" 
d="M590 902q-100 0 -166.5 -66t-74.5 -172h475q-4 108 -68 173t-166 65zM828 336h269q-24 -160 -161 -257.5t-338 -97.5q-251 0 -395.5 151t-144.5 414t143.5 418.5t385.5 155.5q238 0 378.5 -148t140.5 -399v-90h-760v-18q0 -119 71 -192.5t186 -73.5q83 0 143.5 36.5
t81.5 100.5zM921 1441v-143h-669v143h669z" />
    <glyph glyph-name="Ebreve" unicode="&#x114;" horiz-adv-x="1174" 
d="M1076 250v-250h-956v1443h956v-249h-654v-348h617v-232h-617v-364h654zM245 1860h178q2 -75 50 -123.5t125 -48.5t125 48.5t50 123.5h178q-2 -137 -97.5 -227t-255.5 -90t-255.5 90t-97.5 227z" />
    <glyph glyph-name="ebreve" unicode="&#x115;" horiz-adv-x="1164" 
d="M590 902q-100 0 -166.5 -66t-74.5 -172h475q-4 108 -68 173t-166 65zM828 336h269q-24 -160 -161 -257.5t-338 -97.5q-251 0 -395.5 151t-144.5 414t143.5 418.5t385.5 155.5q238 0 378.5 -148t140.5 -399v-90h-760v-18q0 -119 71 -192.5t186 -73.5q83 0 143.5 36.5
t81.5 100.5zM227 1570h179q2 -76 51 -125.5t128 -49.5t128 49.5t51 125.5h180q-2 -140 -99 -231t-260 -91q-162 0 -259 91t-99 231z" />
    <glyph glyph-name="Edotaccent" unicode="&#x116;" horiz-adv-x="1174" 
d="M598 1561q-63 0 -106 43.5t-43 105.5t43 105t106 43t106 -43t43 -105t-43 -105.5t-106 -43.5zM1076 250v-250h-956v1443h956v-249h-654v-348h617v-232h-617v-364h654z" />
    <glyph glyph-name="edotaccent" unicode="&#x117;" horiz-adv-x="1164" 
d="M585 1263q-63 0 -107 43.5t-44 104.5q0 62 44 105.5t107 43.5t106.5 -43.5t43.5 -105.5q0 -61 -43.5 -104.5t-106.5 -43.5zM590 902q-100 0 -166.5 -66t-74.5 -172h475q-4 108 -68 173t-166 65zM828 336h269q-24 -160 -161 -257.5t-338 -97.5q-251 0 -395.5 151
t-144.5 414t143.5 418.5t385.5 155.5q238 0 378.5 -148t140.5 -399v-90h-760v-18q0 -119 71 -192.5t186 -73.5q83 0 143.5 36.5t81.5 100.5z" />
    <glyph glyph-name="Eogonek" unicode="&#x118;" horiz-adv-x="1174" 
d="M887 -463q-121 0 -197.5 62t-76.5 160q0 71 42 135t113 102v4h-648v1443h956v-249h-654v-348h617v-232h-617v-364h654v-244l-46 -11q-78 -19 -135 -73t-57 -112q0 -44 31.5 -70t86.5 -26q48 0 69 7v-163q-53 -21 -138 -21z" />
    <glyph glyph-name="eogonek" unicode="&#x119;" horiz-adv-x="1164" 
d="M802 -463q-122 0 -198.5 62t-76.5 160q0 135 140 220v6q-30 -4 -69 -4q-251 0 -395.5 151t-144.5 414t143.5 418.5t385.5 155.5q238 0 378.5 -148t140.5 -399v-90h-760v-18q0 -119 71 -192.5t186 -73.5q83 0 143.5 37t81.5 100h269q-11 -71 -55 -141t-115 -127
q-174 -142 -174 -253q0 -47 31.5 -74t86.5 -27q48 0 69 7v-163q-52 -21 -138 -21zM590 902q-100 0 -166.5 -66t-74.5 -172h475q-4 108 -68 173t-166 65z" />
    <glyph glyph-name="Ecaron" unicode="&#x11a;" horiz-adv-x="1174" 
d="M484 1543l-274 318h222l163 -197h6l163 197h222l-274 -318h-228zM1076 250v-250h-956v1443h956v-249h-654v-348h617v-232h-617v-364h654z" />
    <glyph glyph-name="ecaron" unicode="&#x11b;" horiz-adv-x="1164" 
d="M695 1253h-219l-266 318h224l148 -188h7l149 188h223zM590 902q-100 0 -166.5 -66t-74.5 -172h475q-4 108 -68 173t-166 65zM828 336h269q-24 -160 -161 -257.5t-338 -97.5q-251 0 -395.5 151t-144.5 414t143.5 418.5t385.5 155.5q238 0 378.5 -148t140.5 -399v-90h-760
v-18q0 -119 71 -192.5t186 -73.5q83 0 143.5 36.5t81.5 100.5z" />
    <glyph glyph-name="Gcircumflex" unicode="&#x11c;" horiz-adv-x="1489" 
d="M637 1861h228l274 -318h-222l-163 197h-6l-163 -197h-222zM1410 606q0 -295 -169.5 -463t-470.5 -168q-324 0 -509.5 200t-185.5 551q0 346 184.5 544t503.5 198q252 0 427 -136t207 -355h-303q-33 113 -120.5 177t-209.5 64q-179 0 -280 -129t-101 -359
q0 -234 105.5 -369t286.5 -135q148 0 241.5 83t98.5 217l1 23h-314v220h608v-163z" />
    <glyph glyph-name="gcircumflex" unicode="&#x11d;" horiz-adv-x="1244" 
d="M718 1571l266 -318h-223l-149 189h-7l-148 -189h-224l266 318h219zM604 233q114 0 182 86t68 233q0 149 -68 237.5t-182 88.5q-113 0 -180 -88t-67 -237t66.5 -234.5t180.5 -85.5zM601 -403q-218 0 -357 88.5t-150 236.5h288q14 -54 76.5 -86.5t149.5 -32.5
q112 0 178.5 54t66.5 146v197h-6q-40 -89 -131 -141t-210 -52q-203 0 -325.5 147.5t-122.5 399.5q0 259 122 409.5t331 150.5q117 0 207 -54t134 -147h5v188h288v-1076q0 -196 -147.5 -312t-396.5 -116z" />
    <glyph glyph-name="Gbreve" unicode="&#x11e;" horiz-adv-x="1489" 
d="M1410 606q0 -295 -169.5 -463t-470.5 -168q-324 0 -509.5 200t-185.5 551q0 346 184.5 544t503.5 198q252 0 427 -136t207 -355h-303q-33 113 -120.5 177t-209.5 64q-179 0 -280 -129t-101 -359q0 -234 105.5 -369t286.5 -135q148 0 241.5 83t98.5 217l1 23h-314v220h608
v-163zM398 1860h178q2 -75 50 -123.5t125 -48.5t125 48.5t50 123.5h178q-2 -137 -97.5 -227t-255.5 -90t-255.5 90t-97.5 227z" />
    <glyph glyph-name="gbreve" unicode="&#x11f;" horiz-adv-x="1244" 
d="M250 1570h179q2 -76 51.5 -125.5t127.5 -49.5t127.5 49.5t51.5 125.5h180q-2 -140 -99 -231t-260 -91q-162 0 -259 91t-99 231zM604 233q114 0 182 86t68 233q0 149 -68 237.5t-182 88.5q-113 0 -180 -88t-67 -237t66.5 -234.5t180.5 -85.5zM601 -403q-218 0 -357 88.5
t-150 236.5h288q14 -54 76.5 -86.5t149.5 -32.5q112 0 178.5 54t66.5 146v197h-6q-40 -89 -131 -141t-210 -52q-203 0 -325.5 147.5t-122.5 399.5q0 259 122 409.5t331 150.5q117 0 207 -54t134 -147h5v188h288v-1076q0 -196 -147.5 -312t-396.5 -116z" />
    <glyph glyph-name="Gdotaccent" unicode="&#x120;" horiz-adv-x="1489" 
d="M751 1561q-63 0 -106 43.5t-43 105.5t43 105t106 43t106 -43t43 -105t-43 -105.5t-106 -43.5zM1410 606q0 -295 -169.5 -463t-470.5 -168q-324 0 -509.5 200t-185.5 551q0 346 184.5 544t503.5 198q252 0 427 -136t207 -355h-303q-33 113 -120.5 177t-209.5 64
q-179 0 -280 -129t-101 -359q0 -234 105.5 -369t286.5 -135q148 0 241.5 83t98.5 217l1 23h-314v220h608v-163z" />
    <glyph glyph-name="gdotaccent" unicode="&#x121;" horiz-adv-x="1244" 
d="M608 1263q-63 0 -107 43.5t-44 104.5q0 62 44 105.5t107 43.5t106.5 -43.5t43.5 -105.5q0 -61 -43.5 -104.5t-106.5 -43.5zM604 233q114 0 182 86t68 233q0 149 -68 237.5t-182 88.5q-113 0 -180 -88t-67 -237t66.5 -234.5t180.5 -85.5zM601 -403q-218 0 -357 88.5
t-150 236.5h288q14 -54 76.5 -86.5t149.5 -32.5q112 0 178.5 54t66.5 146v197h-6q-40 -89 -131 -141t-210 -52q-203 0 -325.5 147.5t-122.5 399.5q0 259 122 409.5t331 150.5q117 0 207 -54t134 -147h5v188h288v-1076q0 -196 -147.5 -312t-396.5 -116z" />
    <glyph glyph-name="Gcommaaccent" unicode="&#x122;" horiz-adv-x="1489" 
d="M729 -500h-217l121 345h256zM1410 606q0 -295 -169.5 -463t-470.5 -168q-324 0 -509.5 200t-185.5 551q0 346 184.5 544t503.5 198q252 0 427 -136t207 -355h-303q-33 113 -120.5 177t-209.5 64q-179 0 -280 -129t-101 -359q0 -234 105.5 -369t286.5 -135q148 0 241.5 83
t98.5 217l1 23h-314v220h608v-163z" />
    <glyph glyph-name="gcommaaccent" unicode="&#x123;" horiz-adv-x="1244" 
d="M588 -882h-217l121 345h256zM604 233q114 0 182 86t68 233q0 149 -68 237.5t-182 88.5q-113 0 -180 -88t-67 -237t66.5 -234.5t180.5 -85.5zM601 -403q-218 0 -357 88.5t-150 236.5h288q14 -54 76.5 -86.5t149.5 -32.5q112 0 178.5 54t66.5 146v197h-6q-40 -89 -131 -141
t-210 -52q-203 0 -325.5 147.5t-122.5 399.5q0 259 122 409.5t331 150.5q117 0 207 -54t134 -147h5v188h288v-1076q0 -196 -147.5 -312t-396.5 -116z" />
    <glyph glyph-name="Hcircumflex" unicode="&#x124;" horiz-adv-x="1494" 
d="M1374 0h-302v608h-650v-608h-302v1443h302v-586h650v586h302v-1443zM633 1861h228l274 -318h-222l-163 197h-6l-163 -197h-222z" />
    <glyph glyph-name="hcircumflex" unicode="&#x125;" horiz-adv-x="1225" 
d="M107 0v1512h287v-608h6q95 213 346 213q182 0 283.5 -110.5t101.5 -302.5v-704h-292v643q0 110 -54 170.5t-157 60.5q-107 0 -168 -68t-61 -181v-625h-292zM138 1930h228l274 -318h-222l-163 197h-6l-163 -197h-222z" />
    <glyph glyph-name="Hbar" unicode="&#x126;" horiz-adv-x="1521" 
d="M1085 857v195h-650v-195h650zM1493 1263v-211h-106v-1052h-302v608h-650v-608h-302v1052h-105v211h105v180h302v-180h650v180h302v-180h106z" />
    <glyph glyph-name="hbar" unicode="&#x127;" horiz-adv-x="1225" 
d="M394 904h6q95 213 346 213q182 0 283.5 -110.5t101.5 -302.5v-704h-292v643q0 110 -54 170.5t-157 60.5q-107 0 -168 -68t-61 -181v-625h-292v1252h-82v150h82v110h287v-110h234v-150h-234v-348z" />
    <glyph glyph-name="Itilde" unicode="&#x128;" horiz-adv-x="542" 
d="M422 0h-302v1443h302v-1443zM411 1541q-46 0 -87.5 21.5t-65.5 46.5t-52.5 46.5t-52.5 21.5q-33 0 -50.5 -32.5t-18.5 -86.5h-158q0 126 60 198.5t155 72.5q39 0 74 -14t59 -33.5t45 -39.5t42.5 -34t40.5 -14q63 0 65 122h158q0 -125 -60.5 -200t-153.5 -75z" />
    <glyph glyph-name="itilde" unicode="&#x129;" horiz-adv-x="500" 
d="M104 0v1101h292v-1101h-292zM392 1258q-38 0 -71.5 14t-57.5 34t-45 40t-42.5 34t-41.5 14q-33 0 -50.5 -32.5t-18.5 -86.5h-158q0 126 60 198.5t155 72.5q39 0 74 -14t59 -34t45 -39.5t42.5 -33.5t40.5 -14q63 0 65 122h158q0 -125 -60.5 -200t-153.5 -75z" />
    <glyph glyph-name="Imacron" unicode="&#x12a;" horiz-adv-x="542" 
d="M422 0h-302v1443h302v-1443zM617 1767v-143h-692v143h692z" />
    <glyph glyph-name="imacron" unicode="&#x12b;" horiz-adv-x="500" 
d="M104 0v1101h292v-1101h-292zM585 1441v-143h-669v143h669z" />
    <glyph glyph-name="Ibreve" unicode="&#x12c;" horiz-adv-x="542" 
d="M422 0h-302v1443h302v-1443zM-82 1860h178q2 -75 50 -123.5t125 -48.5t125 48.5t50 123.5h178q-2 -137 -97.5 -227t-255.5 -90t-255.5 90t-97.5 227z" />
    <glyph glyph-name="ibreve" unicode="&#x12d;" horiz-adv-x="500" 
d="M104 0v1101h292v-1101h-292zM-109 1570h179q2 -76 51 -125.5t128 -49.5t128 49.5t51 125.5h180q-2 -140 -99 -231t-260 -91q-162 0 -259 91t-99 231z" />
    <glyph glyph-name="Iogonek" unicode="&#x12e;" horiz-adv-x="542" 
d="M120 -29v1472h302v-1443l-22 -6q-75 -30 -124 -77.5t-49 -102.5q0 -46 33.5 -73t91.5 -27q39 0 69 7v-163q-52 -21 -143 -21q-120 0 -195.5 62t-75.5 160q0 128 113 212z" />
    <glyph glyph-name="iogonek" unicode="&#x12f;" horiz-adv-x="500" 
d="M250 1221q-65 0 -111 44t-46 109t46 108.5t111 43.5q66 0 112 -43.5t46 -108.5t-46 -109t-112 -44zM104 -18v1119h292v-1101l-32 -6q-72 -27 -116.5 -74.5t-44.5 -104.5q0 -46 32.5 -73.5t90.5 -27.5q36 0 69 6v-162q-51 -21 -135 -21q-126 0 -203 63t-77 164
q0 62 33 119.5t91 98.5z" />
    <glyph glyph-name="Idotaccent" unicode="&#x130;" horiz-adv-x="542" 
d="M422 0h-302v1443h302v-1443zM271 1561q-63 0 -106 43.5t-43 105.5t43 105t106 43t106 -43t43 -105t-43 -105.5t-106 -43.5z" />
    <glyph glyph-name="dotlessi" unicode="&#x131;" horiz-adv-x="500" 
d="M104 0v1101h292v-1101h-292z" />
    <glyph glyph-name="u0132" unicode="&#x132;" horiz-adv-x="1685" 
d="M422 0h-302v1443h302v-1443zM573 425h293q2 -88 54.5 -141t137.5 -53q95 0 144.5 57t49.5 166v989h302v-991q0 -229 -130 -355.5t-363 -126.5q-221 0 -354.5 124t-133.5 331z" />
    <glyph glyph-name="u0133" unicode="&#x133;" horiz-adv-x="1000" 
d="M104 0v1101h292v-1101h-292zM250 1221q-65 0 -111 44t-46 109t46 108.5t111 43.5q66 0 112 -43.5t46 -108.5t-46 -109t-112 -44zM896 1101v-1137q0 -168 -99 -253.5t-292 -85.5q-60 0 -78 3v216q6 -1 37 -1q76 0 108 29.5t32 98.5v1130h292zM750 1221q-65 0 -111 44
t-46 109t46 108.5t111 43.5q66 0 112 -43.5t46 -108.5t-46 -109t-112 -44z" />
    <glyph glyph-name="Jcircumflex" unicode="&#x134;" horiz-adv-x="1143" 
d="M31 425h293q2 -88 54.5 -141t137.5 -53q95 0 144.5 57t49.5 166v989h302v-991q0 -229 -130 -355.5t-363 -126.5q-221 0 -354.5 124t-133.5 331zM751 1861h228l274 -318h-222l-163 197h-6l-163 -197h-222z" />
    <glyph glyph-name="jcircumflex" unicode="&#x135;" horiz-adv-x="499" 
d="M396 1101v-1137q0 -168 -99 -253.5t-292 -85.5q-60 0 -78 3v216q6 -1 37 -1q76 0 108 29.5t32 98.5v1130h292zM359 1571l266 -318h-223l-149 189h-7l-148 -189h-224l266 318h219z" />
    <glyph glyph-name="Kcommaaccent" unicode="&#x136;" horiz-adv-x="1353" 
d="M422 0h-302v1443h302v-658h9l542 658h336l-534 -640l571 -803h-361l-428 603l-135 -162v-441zM644 -500h-217l121 345h256z" />
    <glyph glyph-name="kcommaaccent" unicode="&#x137;" horiz-adv-x="1126" 
d="M403 656l381 445h332l-424 -473l444 -628h-336l-322 452l-79 -85v-367h-292v1512h292v-856h4zM563 -500h-217l121 345h256z" />
    <glyph glyph-name="Lacute" unicode="&#x139;" horiz-adv-x="1112" 
d="M380 1553h-228l232 310h273zM1053 250v-250h-933v1443h302v-1193h631z" />
    <glyph glyph-name="lacute" unicode="&#x13a;" horiz-adv-x="505" 
d="M362 1622h-228l232 310h273zM107 0v1512h292v-1512h-292z" />
    <glyph glyph-name="Lcommaaccent" unicode="&#x13b;" horiz-adv-x="1112" 
d="M555 -500h-217l121 345h256zM1053 250v-250h-933v1443h302v-1193h631z" />
    <glyph glyph-name="lcommaaccent" unicode="&#x13c;" horiz-adv-x="505" 
d="M231 -500h-217l121 345h256zM107 0v1512h292v-1512h-292z" />
    <glyph glyph-name="Lcaron" unicode="&#x13d;" horiz-adv-x="1112" 
d="M675 1443h246l-50 -503h-196v503zM1053 250v-250h-933v1443h302v-1193h631z" />
    <glyph glyph-name="lcaron" unicode="&#x13e;" horiz-adv-x="714" 
d="M552 1507h216l-40 -503h-176v503zM107 0v1512h292v-1512h-292z" />
    <glyph glyph-name="Lslash" unicode="&#x141;" horiz-adv-x="1125" 
d="M435 250h631v-250h-933v638l-97 -49v199l97 49v606h302v-454l293 148v-200l-293 -147v-540z" />
    <glyph glyph-name="lslash" unicode="&#x142;" horiz-adv-x="543" 
d="M526 1081v-199l-108 -59v-823h-292v665l-109 -59v200l109 59v647h292v-489z" />
    <glyph glyph-name="Nacute" unicode="&#x143;" horiz-adv-x="1463" 
d="M841 1553h-228l232 310h273zM409 0h-289v1443h252l674 -940h8v940h289v-1443h-250l-675 945h-9v-945z" />
    <glyph glyph-name="nacute" unicode="&#x144;" horiz-adv-x="1207" 
d="M717 1263h-231l221 310h273zM99 0v1101h282v-197h6q97 213 344 213q182 0 282 -108.5t100 -302.5v-706h-292v645q0 111 -52 170t-154 59q-104 0 -164 -67.5t-60 -178.5v-628h-292z" />
    <glyph glyph-name="Ncommaaccent" unicode="&#x145;" horiz-adv-x="1463" 
d="M710 -500h-217l121 345h256zM409 0h-289v1443h252l674 -940h8v940h289v-1443h-250l-675 945h-9v-945z" />
    <glyph glyph-name="ncommaaccent" unicode="&#x146;" horiz-adv-x="1207" 
d="M589 -500h-217l121 345h256zM99 0v1101h282v-197h6q97 213 344 213q182 0 282 -108.5t100 -302.5v-706h-292v645q0 111 -52 170t-154 59q-104 0 -164 -67.5t-60 -178.5v-628h-292z" />
    <glyph glyph-name="Ncaron" unicode="&#x147;" horiz-adv-x="1463" 
d="M618 1543l-274 318h222l163 -197h6l163 197h222l-274 -318h-228zM409 0h-289v1443h252l674 -940h8v940h289v-1443h-250l-675 945h-9v-945z" />
    <glyph glyph-name="ncaron" unicode="&#x148;" horiz-adv-x="1207" 
d="M714 1253h-219l-266 318h224l148 -188h7l149 188h223zM99 0v1101h282v-197h6q97 213 344 213q182 0 282 -108.5t100 -302.5v-706h-292v645q0 111 -52 170t-154 59q-104 0 -164 -67.5t-60 -178.5v-628h-292z" />
    <glyph glyph-name="Omacron" unicode="&#x14c;" horiz-adv-x="1541" 
d="M771 1468q321 0 508.5 -201t187.5 -546q0 -344 -188 -545t-508 -201q-321 0 -508.5 201t-187.5 545q0 345 187.5 546t508.5 201zM771 1216q-177 0 -282.5 -134t-105.5 -361q0 -226 105 -359.5t283 -133.5q177 0 282 133.5t105 359.5q0 227 -105 361t-282 134zM1117 1767
v-143h-692v143h692z" />
    <glyph glyph-name="omacron" unicode="&#x14d;" horiz-adv-x="1201" 
d="M936 1441v-143h-669v143h669zM601 -19q-251 0 -397 152t-146 418q0 263 147 416t396 153q250 0 396.5 -152.5t146.5 -416.5q0 -267 -145.5 -418.5t-397.5 -151.5zM601 206q116 0 181 90.5t65 254.5q0 162 -65.5 253.5t-180.5 91.5q-116 0 -181.5 -91.5t-65.5 -253.5
q0 -164 65.5 -254.5t181.5 -90.5z" />
    <glyph glyph-name="Obreve" unicode="&#x14e;" horiz-adv-x="1541" 
d="M771 1468q321 0 508.5 -201t187.5 -546q0 -344 -188 -545t-508 -201q-321 0 -508.5 201t-187.5 545q0 345 187.5 546t508.5 201zM771 1216q-177 0 -282.5 -134t-105.5 -361q0 -226 105 -359.5t283 -133.5q177 0 282 133.5t105 359.5q0 227 -105 361t-282 134zM418 1860
h178q2 -75 50 -123.5t125 -48.5t125 48.5t50 123.5h178q-2 -137 -97.5 -227t-255.5 -90t-255.5 90t-97.5 227z" />
    <glyph glyph-name="obreve" unicode="&#x14f;" horiz-adv-x="1201" 
d="M242 1570h179q2 -76 51.5 -125.5t127.5 -49.5t127.5 49.5t51.5 125.5h180q-2 -140 -99 -231t-260 -91q-162 0 -259 91t-99 231zM601 -19q-251 0 -397 152t-146 418q0 263 147 416t396 153q250 0 396.5 -152.5t146.5 -416.5q0 -267 -145.5 -418.5t-397.5 -151.5zM601 206
q116 0 181 90.5t65 254.5q0 162 -65.5 253.5t-180.5 91.5q-116 0 -181.5 -91.5t-65.5 -253.5q0 -164 65.5 -254.5t181.5 -90.5z" />
    <glyph glyph-name="Ohungarumlaut" unicode="&#x150;" horiz-adv-x="1541" 
d="M1076 1553h-222l232 310h268zM681 1553h-222l231 310h269zM771 1468q321 0 508.5 -201t187.5 -546q0 -344 -188 -545t-508 -201q-321 0 -508.5 201t-187.5 545q0 345 187.5 546t508.5 201zM771 1216q-177 0 -282.5 -134t-105.5 -361q0 -226 105 -359.5t283 -133.5
q177 0 282 133.5t105 359.5q0 227 -105 361t-282 134z" />
    <glyph glyph-name="ohungarumlaut" unicode="&#x151;" horiz-adv-x="1201" 
d="M676 1263l189 310h252l-233 -310h-208zM305 1263l190 310h251l-233 -310h-208zM601 -19q-251 0 -397 152t-146 418q0 263 147 416t396 153q250 0 396.5 -152.5t146.5 -416.5q0 -267 -145.5 -418.5t-397.5 -151.5zM601 206q116 0 181 90.5t65 254.5q0 162 -65.5 253.5
t-180.5 91.5q-116 0 -181.5 -91.5t-65.5 -253.5q0 -164 65.5 -254.5t181.5 -90.5z" />
    <glyph glyph-name="OE" unicode="&#x152;" horiz-adv-x="2216" 
d="M779 1219q-178 0 -284.5 -135.5t-106.5 -362.5q0 -226 106 -361t285 -135t285 135t106 361q0 227 -106.5 362.5t-284.5 135.5zM1203 0v236q-54 -121 -183.5 -194.5t-288.5 -73.5q-143 0 -264 54.5t-206 152.5t-133 238.5t-48 307.5q0 224 82.5 395.5t231.5 265t341 93.5
q159 0 282 -71t186 -200v239h916v-249h-644v-348h606v-232h-606v-364h644v-250h-916z" />
    <glyph glyph-name="oe" unicode="&#x153;" horiz-adv-x="1944" 
d="M1401 -19q-133 0 -239 52t-162 144h-14q-133 -196 -395 -196q-244 0 -388.5 154t-144.5 413q0 260 144.5 416t385.5 156q265 0 398 -197h14q56 92 160 144.5t229 52.5q225 0 361.5 -150t136.5 -397v-90h-750v-27q0 -116 70.5 -186.5t186.5 -70.5q81 0 139 34.5t76 92.5
h269q-23 -151 -157 -248t-320 -97zM1602 664q-4 108 -66 173.5t-161 65.5q-100 0 -166 -66.5t-72 -172.5h465zM347 549q0 -159 64.5 -248t179.5 -89q116 0 180.5 89t64.5 249t-65 250t-180 90t-179.5 -90.5t-64.5 -250.5z" />
    <glyph glyph-name="Racute" unicode="&#x154;" horiz-adv-x="1316" 
d="M725 1553h-228l232 310h273zM422 1207v-460h265q114 0 177.5 61t63.5 169q0 105 -66 167.5t-178 62.5h-262zM422 528v-528h-302v1443h596q247 0 384.5 -122.5t137.5 -337.5q0 -141 -69.5 -251.5t-192.5 -158.5l304 -573h-342l-269 528h-247z" />
    <glyph glyph-name="racute" unicode="&#x155;" horiz-adv-x="759" 
d="M515 1263h-231l221 310h273zM99 0v1101h282v-197h6q28 101 96 155.5t166 54.5q52 0 85 -11v-258q-43 17 -108 17q-111 0 -173 -65t-62 -181v-616h-292z" />
    <glyph glyph-name="Rcommaaccent" unicode="&#x156;" horiz-adv-x="1316" 
d="M422 1207v-460h265q114 0 177.5 61t63.5 169q0 105 -66 167.5t-178 62.5h-262zM422 528v-528h-302v1443h596q247 0 384.5 -122.5t137.5 -337.5q0 -141 -69.5 -251.5t-192.5 -158.5l304 -573h-342l-269 528h-247zM594 -500h-217l121 345h256z" />
    <glyph glyph-name="rcommaaccent" unicode="&#x157;" horiz-adv-x="759" 
d="M99 0v1101h282v-197h6q28 101 96 155.5t166 54.5q52 0 85 -11v-258q-43 17 -108 17q-111 0 -173 -65t-62 -181v-616h-292zM225 -500h-217l121 345h256z" />
    <glyph glyph-name="Rcaron" unicode="&#x158;" horiz-adv-x="1316" 
d="M422 1207v-460h265q114 0 177.5 61t63.5 169q0 105 -66 167.5t-178 62.5h-262zM422 528v-528h-302v1443h596q247 0 384.5 -122.5t137.5 -337.5q0 -141 -69.5 -251.5t-192.5 -158.5l304 -573h-342l-269 528h-247zM502 1543l-274 318h222l163 -197h6l163 197h222l-274 -318
h-228z" />
    <glyph glyph-name="rcaron" unicode="&#x159;" horiz-adv-x="759" 
d="M512 1253h-219l-266 318h224l148 -188h7l149 188h223zM99 0v1101h282v-197h6q28 101 96 155.5t166 54.5q52 0 85 -11v-258q-43 17 -108 17q-111 0 -173 -65t-62 -181v-616h-292z" />
    <glyph glyph-name="Sacute" unicode="&#x15a;" horiz-adv-x="1293" 
d="M763 1553h-228l232 310h273zM66 411h291q10 -88 93.5 -142.5t204.5 -54.5q120 0 195.5 51.5t75.5 131.5q0 70 -56 113t-187 72l-188 41q-397 85 -397 403q0 198 154.5 320t397.5 122q250 0 399 -118.5t153 -315.5h-283q-7 91 -80.5 143.5t-187.5 52.5q-112 0 -180.5 -49
t-68.5 -129q0 -66 55.5 -107t180.5 -70l175 -37q217 -46 316 -143.5t99 -262.5q0 -210 -158 -333.5t-427 -123.5q-261 0 -415.5 116.5t-161.5 319.5z" />
    <glyph glyph-name="sacute" unicode="&#x15b;" horiz-adv-x="1078" 
d="M80 777q0 155 126 249t335 94q204 0 329 -95.5t128 -253.5h-270q-5 65 -56 103.5t-135 38.5q-79 0 -127 -32.5t-48 -85.5q0 -81 147 -115l207 -45q166 -38 237.5 -107t71.5 -192q0 -160 -134 -257.5t-351 -97.5q-215 0 -345.5 95.5t-141.5 256.5h285q11 -70 65 -107.5
t145 -37.5q87 0 137 31.5t50 85.5q0 43 -31.5 68t-106.5 43l-203 46q-314 71 -314 315zM655 1263h-231l221 310h273z" />
    <glyph glyph-name="Scircumflex" unicode="&#x15c;" horiz-adv-x="1293" 
d="M66 411h291q10 -88 93.5 -142.5t204.5 -54.5q120 0 195.5 51.5t75.5 131.5q0 70 -56 113t-187 72l-188 41q-397 85 -397 403q0 198 154.5 320t397.5 122q250 0 399 -118.5t153 -315.5h-283q-7 91 -80.5 143.5t-187.5 52.5q-112 0 -180.5 -49t-68.5 -129q0 -66 55.5 -107
t180.5 -70l175 -37q217 -46 316 -143.5t99 -262.5q0 -210 -158 -333.5t-427 -123.5q-261 0 -415.5 116.5t-161.5 319.5zM540 1861h228l274 -318h-222l-163 197h-6l-163 -197h-222z" />
    <glyph glyph-name="scircumflex" unicode="&#x15d;" horiz-adv-x="1078" 
d="M652 1571l266 -318h-223l-149 189h-7l-148 -189h-224l266 318h219zM80 777q0 155 126 249t335 94q204 0 329 -95.5t128 -253.5h-270q-5 65 -56 103.5t-135 38.5q-79 0 -127 -32.5t-48 -85.5q0 -81 147 -115l207 -45q166 -38 237.5 -107t71.5 -192q0 -160 -134 -257.5
t-351 -97.5q-215 0 -345.5 95.5t-141.5 256.5h285q11 -70 65 -107.5t145 -37.5q87 0 137 31.5t50 85.5q0 43 -31.5 68t-106.5 43l-203 46q-314 71 -314 315z" />
    <glyph glyph-name="Scedilla" unicode="&#x15e;" horiz-adv-x="1293" 
d="M638 875l175 -37q217 -46 316 -143.5t99 -262.5q0 -192 -133.5 -312.5t-365.5 -140.5l-40 -95q88 0 136.5 -41.5t48.5 -117.5q0 -86 -64 -135.5t-177 -50.5q-88 0 -140 16v120q40 -14 111 -14q107 0 107 55q0 31 -28.5 43.5t-96.5 12.5h-56v101l47 104q-233 15 -369 130
t-142 304h291q10 -88 93.5 -142.5t204.5 -54.5q120 0 195.5 51.5t75.5 131.5q0 70 -56 113t-187 72l-188 41q-397 85 -397 403q0 198 154.5 320t397.5 122q250 0 399 -118.5t153 -315.5h-283q-7 91 -80.5 143.5t-187.5 52.5q-112 0 -180.5 -49t-68.5 -129q0 -66 55.5 -107
t180.5 -70z" />
    <glyph glyph-name="scedilla" unicode="&#x15f;" horiz-adv-x="1078" 
d="M509 680l207 -45q166 -38 237.5 -107t71.5 -192q0 -144 -109.5 -238t-292.5 -113l-43 -101q88 0 136.5 -41.5t48.5 -117.5q0 -86 -64 -135.5t-177 -50.5q-88 0 -140 16v120q40 -14 111 -14q107 0 107 55q0 31 -28.5 43.5t-96.5 12.5h-56v101l50 111q-186 15 -296.5 108.5
t-121.5 240.5h285q11 -70 65 -107.5t145 -37.5q87 0 137 31.5t50 85.5q0 43 -31.5 68t-106.5 43l-203 46q-314 71 -314 315q0 155 126 249t335 94q204 0 329 -95.5t128 -253.5h-270q-5 65 -56 103.5t-135 38.5q-79 0 -127 -32.5t-48 -85.5q0 -81 147 -115z" />
    <glyph glyph-name="Scaron" unicode="&#x160;" horiz-adv-x="1293" 
d="M66 411h291q10 -88 93.5 -142.5t204.5 -54.5q120 0 195.5 51.5t75.5 131.5q0 70 -56 113t-187 72l-188 41q-397 85 -397 403q0 198 154.5 320t397.5 122q250 0 399 -118.5t153 -315.5h-283q-7 91 -80.5 143.5t-187.5 52.5q-112 0 -180.5 -49t-68.5 -129q0 -66 55.5 -107
t180.5 -70l175 -37q217 -46 316 -143.5t99 -262.5q0 -210 -158 -333.5t-427 -123.5q-261 0 -415.5 116.5t-161.5 319.5zM540 1543l-274 318h222l163 -197h6l163 197h222l-274 -318h-228z" />
    <glyph glyph-name="scaron" unicode="&#x161;" horiz-adv-x="1078" 
d="M652 1253h-219l-266 318h224l148 -188h7l149 188h223zM80 777q0 155 126 249t335 94q204 0 329 -95.5t128 -253.5h-270q-5 65 -56 103.5t-135 38.5q-79 0 -127 -32.5t-48 -85.5q0 -81 147 -115l207 -45q166 -38 237.5 -107t71.5 -192q0 -160 -134 -257.5t-351 -97.5
q-215 0 -345.5 95.5t-141.5 256.5h285q11 -70 65 -107.5t145 -37.5q87 0 137 31.5t50 85.5q0 43 -31.5 68t-106.5 43l-203 46q-314 71 -314 315z" />
    <glyph glyph-name="Tcedilla" unicode="&#x162;" horiz-adv-x="1242" 
d="M772 0h-59l-49 -116q88 0 136.5 -41.5t48.5 -117.5q0 -86 -64 -135.5t-177 -50.5q-88 0 -140 16v120q40 -14 111 -14q107 0 107 55q0 31 -28.5 43.5t-96.5 12.5h-56v101l58 127h-93v1194h-422v249h1147v-249h-423v-1194z" />
    <glyph glyph-name="tcedilla" unicode="&#x163;" horiz-adv-x="741" 
d="M673 880h-204v-535q0 -126 131 -126q43 0 73 5v-216q-60 -12 -141 -12h-8l-47 -112q88 0 136.5 -41.5t48.5 -117.5q0 -86 -64 -135.5t-177 -50.5q-88 0 -140 16v120q40 -14 111 -14q107 0 107 55q0 31 -28.5 43.5t-96.5 12.5h-56v101l62 137q-107 24 -155 92.5t-48 194.5
v583h-149v221h149v245h292v-245h204v-221z" />
    <glyph glyph-name="Tcaron" unicode="&#x164;" horiz-adv-x="1242" 
d="M507 1543l-274 318h222l163 -197h6l163 197h222l-274 -318h-228zM772 0h-302v1194h-422v249h1147v-249h-423v-1194z" />
    <glyph glyph-name="tcaron" unicode="&#x165;" horiz-adv-x="835" 
d="M618 1744h217l-40 -503h-177v503zM177 1346h292v-245h204v-221h-204v-535q0 -126 131 -126q43 0 73 5v-216q-60 -12 -141 -12q-191 0 -273 70t-82 231v583h-149v221h149v245z" />
    <glyph glyph-name="Tbar" unicode="&#x166;" horiz-adv-x="1298" 
d="M1205 1194h-423v-394h301v-211h-301v-589h-302v589h-265v211h265v394h-422v249h1147v-249z" />
    <glyph glyph-name="tbar" unicode="&#x167;" horiz-adv-x="792" 
d="M701 493h-232v-148q0 -126 131 -126q43 0 73 5v-216q-60 -12 -141 -12q-191 0 -273 70t-82 231v196h-139v160h139v227h-149v221h149v245h292v-245h204v-221h-204v-227h232v-160z" />
    <glyph glyph-name="Utilde" unicode="&#x168;" horiz-adv-x="1449" 
d="M422 1443v-903q0 -141 79.5 -223.5t223.5 -82.5q143 0 222.5 82.5t79.5 223.5v903h302v-933q0 -240 -164.5 -387.5t-439.5 -147.5q-276 0 -440.5 147.5t-164.5 387.5v933h302zM865 1541q-46 0 -87.5 21.5t-65.5 46.5t-52.5 46.5t-52.5 21.5q-33 0 -50.5 -32.5
t-18.5 -86.5h-158q0 126 60 198.5t155 72.5q39 0 74 -14t59 -33.5t45 -39.5t42.5 -34t40.5 -14q63 0 65 122h158q0 -125 -60.5 -200t-153.5 -75z" />
    <glyph glyph-name="utilde" unicode="&#x169;" horiz-adv-x="1207" 
d="M1108 1101v-1101h-282v199h-6q-87 -215 -331 -215q-180 0 -287.5 110t-107.5 301v706h292v-645q0 -112 54 -170.5t155 -58.5q102 0 161.5 67.5t59.5 179.5v627h292zM745 1258q-38 0 -71.5 14t-57.5 34t-45 40t-42.5 34t-41.5 14q-33 0 -50.5 -32.5t-18.5 -86.5h-158
q0 126 60 198.5t155 72.5q39 0 74 -14t59 -34t45 -39.5t42.5 -33.5t40.5 -14q63 0 65 122h158q0 -125 -60.5 -200t-153.5 -75z" />
    <glyph glyph-name="Umacron" unicode="&#x16a;" horiz-adv-x="1449" 
d="M422 1443v-903q0 -141 79.5 -223.5t223.5 -82.5q143 0 222.5 82.5t79.5 223.5v903h302v-933q0 -240 -164.5 -387.5t-439.5 -147.5q-276 0 -440.5 147.5t-164.5 387.5v933h302zM1071 1767v-143h-692v143h692z" />
    <glyph glyph-name="umacron" unicode="&#x16b;" horiz-adv-x="1207" 
d="M1108 1101v-1101h-282v199h-6q-87 -215 -331 -215q-180 0 -287.5 110t-107.5 301v706h292v-645q0 -112 54 -170.5t155 -58.5q102 0 161.5 67.5t59.5 179.5v627h292zM938 1441v-143h-669v143h669z" />
    <glyph glyph-name="Ubreve" unicode="&#x16c;" horiz-adv-x="1449" 
d="M422 1443v-903q0 -141 79.5 -223.5t223.5 -82.5q143 0 222.5 82.5t79.5 223.5v903h302v-933q0 -240 -164.5 -387.5t-439.5 -147.5q-276 0 -440.5 147.5t-164.5 387.5v933h302zM372 1860h178q2 -75 50 -123.5t125 -48.5t125 48.5t50 123.5h178q-2 -137 -97.5 -227
t-255.5 -90t-255.5 90t-97.5 227z" />
    <glyph glyph-name="ubreve" unicode="&#x16d;" horiz-adv-x="1207" 
d="M1108 1101v-1101h-282v199h-6q-87 -215 -331 -215q-180 0 -287.5 110t-107.5 301v706h292v-645q0 -112 54 -170.5t155 -58.5q102 0 161.5 67.5t59.5 179.5v627h292zM244 1570h179q2 -76 51.5 -125.5t127.5 -49.5t127.5 49.5t51.5 125.5h180q-2 -140 -99 -231t-260 -91
q-162 0 -259 91t-99 231z" />
    <glyph glyph-name="Uring" unicode="&#x16e;" horiz-adv-x="1449" 
d="M725 1514q-86 0 -148 60.5t-62 144.5q0 85 62 145.5t148 60.5t147.5 -60.5t61.5 -145.5q0 -84 -61.5 -144.5t-147.5 -60.5zM725 1623q41 0 69.5 28t28.5 68t-28.5 68.5t-69.5 28.5t-69.5 -28.5t-28.5 -68.5t28.5 -68t69.5 -28zM422 1443v-903q0 -141 79.5 -223.5
t223.5 -82.5q143 0 222.5 82.5t79.5 223.5v903h302v-933q0 -240 -164.5 -387.5t-439.5 -147.5q-276 0 -440.5 147.5t-164.5 387.5v933h302z" />
    <glyph glyph-name="uring" unicode="&#x16f;" horiz-adv-x="1207" 
d="M1108 1101v-1101h-282v199h-6q-87 -215 -331 -215q-180 0 -287.5 110t-107.5 301v706h292v-645q0 -112 54 -170.5t155 -58.5q102 0 161.5 67.5t59.5 179.5v627h292zM603 1210q-90 0 -155.5 64t-65.5 153t65.5 153t155.5 64q91 0 156 -64t65 -153t-65 -153t-156 -64z
M603 1327q42 0 72 29.5t30 70.5t-30 71t-72 30q-41 0 -71.5 -30t-30.5 -71t30.5 -70.5t71.5 -29.5z" />
    <glyph glyph-name="Uhungarumlaut" unicode="&#x170;" horiz-adv-x="1449" 
d="M422 1443v-903q0 -141 79.5 -223.5t223.5 -82.5q143 0 222.5 82.5t79.5 223.5v903h302v-933q0 -240 -164.5 -387.5t-439.5 -147.5q-276 0 -440.5 147.5t-164.5 387.5v933h302zM1030 1553h-222l232 310h268zM635 1553h-222l231 310h269z" />
    <glyph glyph-name="uhungarumlaut" unicode="&#x171;" horiz-adv-x="1207" 
d="M678 1263l189 310h252l-233 -310h-208zM307 1263l190 310h251l-233 -310h-208zM1108 1101v-1101h-282v199h-6q-87 -215 -331 -215q-180 0 -287.5 110t-107.5 301v706h292v-645q0 -112 54 -170.5t155 -58.5q102 0 161.5 67.5t59.5 179.5v627h292z" />
    <glyph glyph-name="Uogonek" unicode="&#x172;" horiz-adv-x="1449" 
d="M966 -463q-122 0 -198.5 60.5t-76.5 156.5q0 64 39.5 125.5t107.5 104.5v6q-48 -15 -113 -15q-274 0 -439.5 146.5t-165.5 388.5v933h302v-903q0 -143 81 -224.5t222 -81.5t221.5 81.5t80.5 224.5v903h302v-933q0 -272 -233 -450q-94 -70 -136.5 -128.5t-42.5 -116.5
q0 -47 31.5 -74t86.5 -27q48 0 69 7v-163q-52 -21 -138 -21z" />
    <glyph glyph-name="uogonek" unicode="&#x173;" horiz-adv-x="1207" 
d="M1072 -442q-50 -21 -138 -21q-121 0 -197.5 62t-76.5 160q0 72 46 137t120 100v203h-6q-87 -215 -331 -215q-180 0 -287.5 110t-107.5 301v706h292v-645q0 -112 54 -170.5t155 -58.5q102 0 161.5 67.5t59.5 179.5v627h292v-1101l-36 -7q-82 -22 -134.5 -72.5
t-52.5 -110.5q0 -44 31 -70t87 -26q50 0 69 7v-163z" />
    <glyph glyph-name="Wcircumflex" unicode="&#x174;" horiz-adv-x="1977" 
d="M875 1861h228l274 -318h-222l-163 197h-6l-163 -197h-222zM984 986l-274 -986h-285l-382 1443h313l227 -1045h8l270 1045h255l270 -1045h8l228 1045h313l-383 -1443h-285l-274 986h-9z" />
    <glyph glyph-name="wcircumflex" unicode="&#x175;" horiz-adv-x="1654" 
d="M936 1571l266 -318h-223l-149 189h-7l-148 -189h-224l266 318h219zM1634 1101l-293 -1101h-310l-203 784h-6l-201 -784h-307l-294 1101h294l170 -822h6l199 822h280l200 -822h6l171 822h288z" />
    <glyph glyph-name="Ycircumflex" unicode="&#x176;" horiz-adv-x="1362" 
d="M832 0h-302v539l-502 904h329l323 -616h7l324 616h324l-503 -904v-539zM567 1861h228l274 -318h-222l-163 197h-6l-163 -197h-222z" />
    <glyph glyph-name="ycircumflex" unicode="&#x177;" horiz-adv-x="1136" 
d="M239 -402q-89 0 -111 4v226q15 -3 66 -3q83 0 130.5 30.5t64.5 95.5l10 42l-386 1108h320l238 -864h6l239 864h308l-381 -1123q-70 -210 -183.5 -295t-320.5 -85zM678 1571l266 -318h-223l-149 189h-7l-148 -189h-224l266 318h219z" />
    <glyph glyph-name="Ydieresis" unicode="&#x178;" horiz-adv-x="1362" 
d="M832 0h-302v539l-502 904h329l323 -616h7l324 616h324l-503 -904v-539zM472 1561q-57 0 -96 38.5t-39 92.5t39 92.5t96 38.5t96 -38.5t39 -92.5t-39 -92.5t-96 -38.5zM891 1561q-57 0 -96 38.5t-39 92.5t39 92.5t96 38.5t96 -38.5t39 -92.5t-39 -92.5t-96 -38.5z" />
    <glyph glyph-name="Zacute" unicode="&#x179;" horiz-adv-x="1292" 
d="M755 1553h-228l232 310h273zM89 0v197l733 989v8h-716v249h1077v-196l-730 -990v-7h750v-250h-1114z" />
    <glyph glyph-name="zacute" unicode="&#x17a;" horiz-adv-x="1059" 
d="M642 1263h-231l221 310h273zM78 0v168l553 704v5h-545v224h883v-186l-521 -685v-6h534v-224h-904z" />
    <glyph glyph-name="Zdotaccent" unicode="&#x17b;" horiz-adv-x="1292" 
d="M646 1561q-63 0 -106 43.5t-43 105.5t43 105t106 43t106 -43t43 -105t-43 -105.5t-106 -43.5zM89 0v197l733 989v8h-716v249h1077v-196l-730 -990v-7h750v-250h-1114z" />
    <glyph glyph-name="zdotaccent" unicode="&#x17c;" horiz-adv-x="1059" 
d="M529 1263q-63 0 -107 43.5t-44 104.5q0 62 44 105.5t107 43.5t106.5 -43.5t43.5 -105.5q0 -61 -43.5 -104.5t-106.5 -43.5zM78 0v168l553 704v5h-545v224h883v-186l-521 -685v-6h534v-224h-904z" />
    <glyph glyph-name="Zcaron" unicode="&#x17d;" horiz-adv-x="1292" 
d="M89 0v197l733 989v8h-716v249h1077v-196l-730 -990v-7h750v-250h-1114zM532 1543l-274 318h222l163 -197h6l163 197h222l-274 -318h-228z" />
    <glyph glyph-name="zcaron" unicode="&#x17e;" horiz-adv-x="1059" 
d="M639 1253h-219l-266 318h224l148 -188h7l149 188h223zM78 0v168l553 704v5h-545v224h883v-186l-521 -685v-6h534v-224h-904z" />
    <glyph glyph-name="florin" unicode="&#x192;" horiz-adv-x="1326" 
d="M1260 1424v-234q-74 36 -169 36q-102 0 -158 -48.5t-72 -149.5l-24 -156h350v-210h-382l-43 -278q-33 -209 -151.5 -308.5t-327.5 -99.5q-134 0 -216 40v239q79 -43 179 -43t151 48t68 157l38 245h-318v210h350l29 187q32 205 152.5 303t340.5 98q54 0 111.5 -10
t91.5 -26z" />
    <glyph glyph-name="Ohorn" unicode="&#x1a0;" horiz-adv-x="1599" 
d="M771 -25q-322 0 -509 201t-187 545t187.5 545.5t508.5 201.5q88 0 220.5 -25t210.5 -25q56 0 82.5 21.5t26.5 67.5v163h231v-231q0 -97 -54.5 -151.5t-152.5 -54.5h-61v-7q82 -63 137.5 -208.5t55.5 -296.5q0 -344 -187.5 -545t-508.5 -201zM771 228q178 0 282.5 133.5
t104.5 359.5q0 227 -104.5 361t-282.5 134t-283 -134t-105 -361q0 -226 105 -359.5t283 -133.5z" />
    <glyph glyph-name="ohorn" unicode="&#x1a1;" horiz-adv-x="1284" 
d="M601 206q116 0 181 91t65 254q0 162 -65 253.5t-181 91.5q-115 0 -181 -92t-66 -253q0 -163 65.5 -254t181.5 -91zM1143 533q0 -249 -147 -400.5t-390 -151.5q-256 0 -402 152t-146 418q0 262 146 415.5t397 153.5q76 0 161 -18t132 -18q61 0 85.5 19t24.5 66v145h231
v-220q0 -90 -47 -139.5t-133 -49.5h-46v-6q64 -53 99 -149t35 -217z" />
    <glyph glyph-name="Uhorn" unicode="&#x1af;" horiz-adv-x="1673" 
d="M725 -25q-274 0 -439.5 146.5t-165.5 388.5v933h302v-904q0 -142 81 -223.5t222 -81.5t221.5 81.5t80.5 223.5v904h313q80 0 80 77v182h231v-239q0 -101 -60.5 -157t-166.5 -56h-95v-740q0 -242 -165 -388.5t-439 -146.5z" />
    <glyph glyph-name="uhorn" unicode="&#x1b0;" horiz-adv-x="1413" 
d="M820 199q-87 -215 -331 -215q-180 0 -287.5 110t-107.5 301v706h292v-645q0 -112 54.5 -170.5t154.5 -58.5q101 0 161 67t60 180v627h292q79 0 79 77v159h231v-216q0 -101 -60 -157t-167 -56h-83v-908h-282v199h-6z" />
    <glyph glyph-name="u01C4" unicode="&#x1c4;" horiz-adv-x="2730" 
d="M120 1443h556q326 0 507 -187t181 -529q0 -343 -181.5 -535t-506.5 -192h-556v1443zM422 1194v-944h218q203 0 309.5 121.5t106.5 354.5q0 226 -108 347t-308 121h-218zM1527 0v197l733 989v8h-716v249h1077v-196l-730 -990v-7h750v-250h-1114zM1970 1543l-274 318h222
l163 -197h6l163 197h222l-274 -318h-228z" />
    <glyph glyph-name="u01C5" unicode="&#x1c5;" horiz-adv-x="2497" 
d="M120 1443h556q326 0 507 -187t181 -529q0 -343 -181.5 -535t-506.5 -192h-556v1443zM422 1194v-944h218q203 0 309.5 121.5t106.5 354.5q0 226 -108 347t-308 121h-218zM2077 1253h-219l-266 318h224l148 -188h7l149 188h223zM1516 0v168l553 704v5h-545v224h883v-186
l-521 -685v-6h534v-224h-904z" />
    <glyph glyph-name="u01C6" unicode="&#x1c6;" horiz-adv-x="2308" 
d="M509 -13q-206 0 -328.5 152.5t-122.5 412.5q0 258 123 410t329 152q118 0 206.5 -54t130.5 -147h6v599h292v-1512h-288v188h-5q-41 -92 -132 -146.5t-211 -54.5zM606 878q-114 0 -181.5 -88.5t-67.5 -238.5q0 -151 67.5 -239.5t181.5 -88.5q113 0 181 89t68 238
t-68 238.5t-181 89.5zM1888 1253h-219l-266 318h224l148 -188h7l149 188h223zM1327 0v168l553 704v5h-545v224h883v-186l-521 -685v-6h534v-224h-904z" />
    <glyph glyph-name="u01C7" unicode="&#x1c7;" horiz-adv-x="2255" 
d="M1143 425h293q2 -88 54.5 -141t137.5 -53q95 0 144.5 57t49.5 166v989h302v-991q0 -229 -130 -355.5t-363 -126.5q-221 0 -354.5 124t-133.5 331zM1053 250v-250h-933v1443h302v-1193h631z" />
    <glyph glyph-name="u01C8" unicode="&#x1c8;" horiz-adv-x="1612" 
d="M1508 1101v-1137q0 -168 -99 -253.5t-292 -85.5q-60 0 -78 3v216q6 -1 37 -1q76 0 108 29.5t32 98.5v1130h292zM1362 1221q-65 0 -111 44t-46 109t46 108.5t111 43.5q66 0 112 -43.5t46 -108.5t-46 -109t-112 -44zM1053 250v-250h-933v1443h302v-1193h631z" />
    <glyph glyph-name="u01C9" unicode="&#x1c9;" horiz-adv-x="1005" 
d="M901 1101v-1137q0 -168 -99 -253.5t-292 -85.5q-60 0 -78 3v216q6 -1 37 -1q76 0 108 29.5t32 98.5v1130h292zM755 1221q-65 0 -111 44t-46 109t46 108.5t111 43.5q66 0 112 -43.5t46 -108.5t-46 -109t-112 -44zM107 0v1512h292v-1512h-292z" />
    <glyph glyph-name="u01CA" unicode="&#x1ca;" horiz-adv-x="2606" 
d="M1494 425h293q2 -88 54.5 -141t137.5 -53q95 0 144.5 57t49.5 166v989h302v-991q0 -229 -130 -355.5t-363 -126.5q-221 0 -354.5 124t-133.5 331zM409 0h-289v1443h252l674 -940h8v940h289v-1443h-250l-675 945h-9v-945z" />
    <glyph glyph-name="u01CB" unicode="&#x1cb;" horiz-adv-x="1963" 
d="M1859 1101v-1137q0 -168 -99 -253.5t-292 -85.5q-60 0 -78 3v216q6 -1 37 -1q76 0 108 29.5t32 98.5v1130h292zM1713 1221q-65 0 -111 44t-46 109t46 108.5t111 43.5q66 0 112 -43.5t46 -108.5t-46 -109t-112 -44zM409 0h-289v1443h252l674 -940h8v940h289v-1443h-250
l-675 945h-9v-945z" />
    <glyph glyph-name="u01CC" unicode="&#x1cc;" horiz-adv-x="1707" 
d="M1603 1101v-1137q0 -168 -99 -253.5t-292 -85.5q-60 0 -78 3v216q6 -1 37 -1q76 0 108 29.5t32 98.5v1130h292zM1457 1221q-65 0 -111 44t-46 109t46 108.5t111 43.5q66 0 112 -43.5t46 -108.5t-46 -109t-112 -44zM99 0v1101h282v-197h6q97 213 344 213q182 0 282 -108.5
t100 -302.5v-706h-292v645q0 111 -52 170t-154 59q-104 0 -164 -67.5t-60 -178.5v-628h-292z" />
    <glyph glyph-name="Acaron" unicode="&#x1cd;" horiz-adv-x="1413" 
d="M1065 0l-110 350h-507l-110 -350h-310l501 1443h355l502 -1443h-321zM698 1167l-185 -591h377l-185 591h-7zM593 1543l-274 318h222l163 -197h6l163 197h222l-274 -318h-228z" />
    <glyph glyph-name="acaron" unicode="&#x1ce;" horiz-adv-x="1147" 
d="M520 200q103 0 173 57.5t70 146.5v81l-231 -16q-91 -6 -139 -41t-48 -96t47.5 -96.5t127.5 -35.5zM425 -13q-161 0 -266 92t-105 238q0 149 111 233t323 97l275 17v73q0 79 -51 121.5t-142 42.5q-78 0 -130.5 -37.5t-63.5 -98.5h-267q6 158 136.5 256.5t336.5 98.5
q212 0 340 -100t128 -265v-755h-282v170h-6q-44 -85 -136.5 -134t-200.5 -49zM687 1253h-219l-266 318h224l148 -188h7l149 188h223z" />
    <glyph glyph-name="Icaron" unicode="&#x1cf;" horiz-adv-x="542" 
d="M422 0h-302v1443h302v-1443zM157 1543l-274 318h222l163 -197h6l163 197h222l-274 -318h-228z" />
    <glyph glyph-name="icaron" unicode="&#x1d0;" horiz-adv-x="500" 
d="M359 1253h-219l-266 318h224l148 -188h7l149 188h223zM104 0v1101h292v-1101h-292z" />
    <glyph glyph-name="Ocaron" unicode="&#x1d1;" horiz-adv-x="1541" 
d="M657 1543l-274 318h222l163 -197h6l163 197h222l-274 -318h-228zM771 1468q321 0 508.5 -201t187.5 -546q0 -344 -188 -545t-508 -201q-321 0 -508.5 201t-187.5 545q0 345 187.5 546t508.5 201zM771 1216q-177 0 -282.5 -134t-105.5 -361q0 -226 105 -359.5t283 -133.5
q177 0 282 133.5t105 359.5q0 227 -105 361t-282 134z" />
    <glyph glyph-name="ocaron" unicode="&#x1d2;" horiz-adv-x="1201" 
d="M710 1253h-219l-266 318h224l148 -188h7l149 188h223zM601 -19q-251 0 -397 152t-146 418q0 263 147 416t396 153q250 0 396.5 -152.5t146.5 -416.5q0 -267 -145.5 -418.5t-397.5 -151.5zM601 206q116 0 181 90.5t65 254.5q0 162 -65.5 253.5t-180.5 91.5
q-116 0 -181.5 -91.5t-65.5 -253.5q0 -164 65.5 -254.5t181.5 -90.5z" />
    <glyph glyph-name="Ucaron" unicode="&#x1d3;" horiz-adv-x="1449" 
d="M611 1543l-274 318h222l163 -197h6l163 197h222l-274 -318h-228zM422 1443v-903q0 -141 79.5 -223.5t223.5 -82.5q143 0 222.5 82.5t79.5 223.5v903h302v-933q0 -240 -164.5 -387.5t-439.5 -147.5q-276 0 -440.5 147.5t-164.5 387.5v933h302z" />
    <glyph glyph-name="ucaron" unicode="&#x1d4;" horiz-adv-x="1207" 
d="M712 1253h-219l-266 318h224l148 -188h7l149 188h223zM1108 1101v-1101h-282v199h-6q-87 -215 -331 -215q-180 0 -287.5 110t-107.5 301v706h292v-645q0 -112 54 -170.5t155 -58.5q102 0 161.5 67.5t59.5 179.5v627h292z" />
    <glyph glyph-name="Udieresismacron" unicode="&#x1d5;" horiz-adv-x="1449" 
d="M422 1443v-903q0 -141 79.5 -223.5t223.5 -82.5q143 0 222.5 82.5t79.5 223.5v903h302v-933q0 -240 -164.5 -387.5t-439.5 -147.5q-276 0 -440.5 147.5t-164.5 387.5v933h302zM521 1813q54 0 91 -36.5t37 -87.5q0 -52 -37 -88.5t-91 -36.5q-55 0 -92 36.5t-37 88.5t37 88
t92 36zM379 2073h692v-143h-692v143zM929 1813q55 0 92 -36t37 -88t-37 -88.5t-92 -36.5q-54 0 -91 36.5t-37 88.5q0 51 37 87.5t91 36.5z" />
    <glyph glyph-name="udieresismacron" unicode="&#x1d6;" horiz-adv-x="1207" 
d="M1108 1101v-1101h-282v199h-6q-87 -215 -331 -215q-180 0 -287.5 110t-107.5 301v706h292v-645q0 -112 54 -170.5t155 -58.5q102 0 161.5 67.5t59.5 179.5v627h292zM400 1258q-54 0 -91 36.5t-37 87.5q0 52 37 88t91 36t91 -36t37 -88q0 -51 -37 -87.5t-91 -36.5z
M806 1258q-54 0 -91 36.5t-37 87.5q0 52 37 88t91 36t91 -36t37 -88q0 -51 -37 -87.5t-91 -36.5zM938 1802v-143h-669v143h669z" />
    <glyph glyph-name="Udieresisacute" unicode="&#x1d7;" horiz-adv-x="1449" 
d="M613 1887l194 243h254l-237 -243h-211zM521 1564q-55 0 -92 36.5t-37 88.5t37 88t92 36q54 0 91 -36.5t37 -87.5q0 -52 -37 -88.5t-91 -36.5zM929 1564q-54 0 -91 36.5t-37 88.5q0 51 37 87.5t91 36.5q55 0 92 -36t37 -88t-37 -88.5t-92 -36.5zM422 1443v-903
q0 -141 79.5 -223.5t223.5 -82.5q143 0 222.5 82.5t79.5 223.5v903h302v-933q0 -240 -164.5 -387.5t-439.5 -147.5q-276 0 -440.5 147.5t-164.5 387.5v933h302z" />
    <glyph glyph-name="udieresisacute" unicode="&#x1d8;" horiz-adv-x="1207" 
d="M494 1622l182 269h255l-218 -269h-219zM394 1259q-57 0 -96 38.5t-39 92.5t39 92.5t96 38.5t96 -38.5t39 -92.5t-39 -92.5t-96 -38.5zM813 1259q-57 0 -96 38.5t-39 92.5t39 92.5t96 38.5t96 -38.5t39 -92.5t-39 -92.5t-96 -38.5zM1108 1101v-1101h-282v199h-6
q-87 -215 -331 -215q-180 0 -287.5 110t-107.5 301v706h292v-645q0 -112 54 -170.5t155 -58.5q102 0 161.5 67.5t59.5 179.5v627h292z" />
    <glyph glyph-name="Udieresiscaron" unicode="&#x1d9;" horiz-adv-x="1449" 
d="M615 1888l-257 254h225l133 -136h18l133 136h225l-257 -254h-220zM521 1813q54 0 91 -36.5t37 -87.5q0 -52 -37 -88.5t-91 -36.5q-55 0 -92 36.5t-37 88.5t37 88t92 36zM929 1813q55 0 92 -36t37 -88t-37 -88.5t-92 -36.5q-54 0 -91 36.5t-37 88.5q0 51 37 87.5t91 36.5z
M422 1443v-903q0 -141 79.5 -223.5t223.5 -82.5q143 0 222.5 82.5t79.5 223.5v903h302v-933q0 -240 -164.5 -387.5t-439.5 -147.5q-276 0 -440.5 147.5t-164.5 387.5v933h302z" />
    <glyph glyph-name="udieresiscaron" unicode="&#x1da;" horiz-adv-x="1207" 
d="M400 1258q-55 0 -93 37.5t-38 89.5q0 53 38 89.5t93 36.5t92.5 -36.5t37.5 -89.5q0 -52 -37.5 -89.5t-92.5 -37.5zM806 1258q-54 0 -92 37.5t-38 89.5q0 53 37.5 89.5t92.5 36.5t93 -36.5t38 -89.5q0 -52 -38 -89.5t-93 -37.5zM724 1603h-242l-258 297h222l153 -180h8
l153 180h222zM1108 1101v-1101h-282v199h-6q-87 -215 -331 -215q-180 0 -287.5 110t-107.5 301v706h292v-645q0 -112 54 -170.5t155 -58.5q102 0 161.5 67.5t59.5 179.5v627h292z" />
    <glyph glyph-name="Udieresisgrave" unicode="&#x1db;" horiz-adv-x="1449" 
d="M837 1887h-211l-237 243h254zM521 1564q-55 0 -92 36.5t-37 88.5t37 88t92 36q54 0 91 -36.5t37 -87.5q0 -52 -37 -88.5t-91 -36.5zM929 1564q-54 0 -91 36.5t-37 88.5q0 51 37 87.5t91 36.5q55 0 92 -36t37 -88t-37 -88.5t-92 -36.5zM422 1443v-903q0 -141 79.5 -223.5
t223.5 -82.5q143 0 222.5 82.5t79.5 223.5v903h302v-933q0 -240 -164.5 -387.5t-439.5 -147.5q-276 0 -440.5 147.5t-164.5 387.5v933h302z" />
    <glyph glyph-name="udieresisgrave" unicode="&#x1dc;" horiz-adv-x="1207" 
d="M717 1634h-217l-221 266h265zM394 1259q-57 0 -96 38.5t-39 92.5t39 92.5t96 38.5t96 -38.5t39 -92.5t-39 -92.5t-96 -38.5zM813 1259q-57 0 -96 38.5t-39 92.5t39 92.5t96 38.5t96 -38.5t39 -92.5t-39 -92.5t-96 -38.5zM1108 1101v-1101h-282v199h-6q-87 -215 -331 -215
q-180 0 -287.5 110t-107.5 301v706h292v-645q0 -112 54 -170.5t155 -58.5q102 0 161.5 67.5t59.5 179.5v627h292z" />
    <glyph glyph-name="Adieresismacron" unicode="&#x1de;" horiz-adv-x="1413" 
d="M1065 0l-110 350h-507l-110 -350h-310l501 1443h355l502 -1443h-321zM698 1167l-185 -591h377l-185 591h-7zM503 1813q54 0 91 -36.5t37 -87.5q0 -52 -37 -88.5t-91 -36.5q-55 0 -92 36.5t-37 88.5t37 88t92 36zM361 2073h692v-143h-692v143zM911 1813q55 0 92 -36
t37 -88t-37 -88.5t-92 -36.5q-54 0 -91 36.5t-37 88.5q0 51 37 87.5t91 36.5z" />
    <glyph glyph-name="adieresismacron" unicode="&#x1df;" horiz-adv-x="1147" 
d="M520 200q103 0 173 57.5t70 146.5v81l-231 -16q-91 -6 -139 -41t-48 -96t47.5 -96.5t127.5 -35.5zM425 -13q-161 0 -266 92t-105 238q0 149 111 233t323 97l275 17v73q0 79 -51 121.5t-142 42.5q-78 0 -130.5 -37.5t-63.5 -98.5h-267q6 158 136.5 256.5t336.5 98.5
q212 0 340 -100t128 -265v-755h-282v170h-6q-44 -85 -136.5 -134t-200.5 -49zM375 1258q-54 0 -91 36.5t-37 87.5q0 52 37 88t91 36t91 -36t37 -88q0 -51 -37 -87.5t-91 -36.5zM781 1258q-54 0 -91 36.5t-37 87.5q0 52 37 88t91 36t91 -36t37 -88q0 -51 -37 -87.5t-91 -36.5
zM913 1802v-143h-669v143h669z" />
    <glyph glyph-name="Adotmacron" unicode="&#x1e0;" horiz-adv-x="1413" 
d="M1065 0l-110 350h-507l-110 -350h-310l501 1443h355l502 -1443h-321zM698 1167l-185 -591h377l-185 591h-7zM707 1555q-59 0 -98.5 39t-39.5 95q0 55 39.5 93.5t98.5 38.5t98.5 -38.5t39.5 -93.5q0 -56 -39.5 -95t-98.5 -39zM1053 2073v-143h-692v143h692z" />
    <glyph glyph-name="adotmacron" unicode="&#x1e1;" horiz-adv-x="1147" 
d="M520 200q103 0 173 57.5t70 146.5v81l-231 -16q-91 -6 -139 -41t-48 -96t47.5 -96.5t127.5 -35.5zM425 -13q-161 0 -266 92t-105 238q0 149 111 233t323 97l275 17v73q0 79 -51 121.5t-142 42.5q-78 0 -130.5 -37.5t-63.5 -98.5h-267q6 158 136.5 256.5t336.5 98.5
q212 0 340 -100t128 -265v-755h-282v170h-6q-44 -85 -136.5 -134t-200.5 -49zM578 1252q-62 0 -106 43t-44 104t44 104.5t106 43.5t106 -43.5t44 -104.5t-44 -104t-106 -43zM913 1807v-143h-669v143h669z" />
    <glyph glyph-name="AEmacron" unicode="&#x1e2;" horiz-adv-x="2039" 
d="M830 1211l-255 -612h391v612h-136zM966 0v373h-479l-158 -373h-301l613 1443h1270v-249h-669v-353h632v-232h-632v-360h669v-249h-945zM1794 1767v-143h-692v143h692z" />
    <glyph glyph-name="aemacron" unicode="&#x1e3;" horiz-adv-x="1844" 
d="M1286 -19q-137 0 -244 55t-160 152h-9q-58 -97 -160.5 -149t-240.5 -52q-192 0 -305 90t-113 238q0 149 111 234t322 97l276 15v62q0 78 -56.5 128t-144.5 50q-83 0 -138 -37.5t-62 -98.5h-263q8 159 133.5 257t322.5 98q130 0 226 -45t141 -123h9q115 168 363 168
q223 0 357.5 -147.5t134.5 -399.5v-89h-751v-19q0 -120 70 -193t185 -73q82 0 139.5 36t78.5 101h269q-25 -161 -158.5 -258t-332.5 -97zM1277 902q-100 0 -165.5 -65.5t-73.5 -172.5h466q-4 109 -65.5 173.5t-161.5 64.5zM512 196q104 0 177.5 61t73.5 147v78l-241 -16
q-89 -5 -139 -40t-50 -95t50 -97.5t129 -37.5zM1254 1441v-143h-669v143h669z" />
    <glyph glyph-name="Gcaron" unicode="&#x1e6;" horiz-adv-x="1489" 
d="M637 1543l-274 318h222l163 -197h6l163 197h222l-274 -318h-228zM1410 606q0 -295 -169.5 -463t-470.5 -168q-324 0 -509.5 200t-185.5 551q0 346 184.5 544t503.5 198q252 0 427 -136t207 -355h-303q-33 113 -120.5 177t-209.5 64q-179 0 -280 -129t-101 -359
q0 -234 105.5 -369t286.5 -135q148 0 241.5 83t98.5 217l1 23h-314v220h608v-163z" />
    <glyph glyph-name="gcaron" unicode="&#x1e7;" horiz-adv-x="1244" 
d="M718 1253h-219l-266 318h224l148 -188h7l149 188h223zM604 233q114 0 182 86t68 233q0 149 -68 237.5t-182 88.5q-113 0 -180 -88t-67 -237t66.5 -234.5t180.5 -85.5zM601 -403q-218 0 -357 88.5t-150 236.5h288q14 -54 76.5 -86.5t149.5 -32.5q112 0 178.5 54t66.5 146
v197h-6q-40 -89 -131 -141t-210 -52q-203 0 -325.5 147.5t-122.5 399.5q0 259 122 409.5t331 150.5q117 0 207 -54t134 -147h5v188h288v-1076q0 -196 -147.5 -312t-396.5 -116z" />
    <glyph glyph-name="Kcaron" unicode="&#x1e8;" horiz-adv-x="1353" 
d="M422 0h-302v1443h302v-658h9l542 658h336l-534 -640l571 -803h-361l-428 603l-135 -162v-441zM552 1543l-274 318h222l163 -197h6l163 197h222l-274 -318h-228z" />
    <glyph glyph-name="kcaron" unicode="&#x1e9;" horiz-adv-x="1126" 
d="M403 656l381 445h332l-424 -473l444 -628h-336l-322 452l-79 -85v-367h-292v1512h292v-856h4zM138 1612l-274 318h222l163 -197h6l163 197h222l-274 -318h-228z" />
    <glyph glyph-name="Oogonek" unicode="&#x1ea;" horiz-adv-x="1541" 
d="M1030 -463q-121 0 -197.5 60.5t-76.5 156.5q0 65 39.5 126.5t106.5 103.5v6q-50 -15 -131 -15q-322 0 -509 201t-187 545t187.5 545.5t508.5 201.5t508.5 -201.5t187.5 -545.5q0 -416 -302 -659q-97 -76 -140.5 -134.5t-43.5 -112.5q0 -46 32 -73.5t86 -27.5q50 0 69 7
v-163q-51 -21 -138 -21zM771 1216q-178 0 -283 -134t-105 -361q0 -226 105 -359.5t283 -133.5t282.5 133.5t104.5 359.5q0 227 -104.5 361t-282.5 134z" />
    <glyph glyph-name="oogonek" unicode="&#x1eb;" horiz-adv-x="1201" 
d="M812 -463q-120 0 -194 61.5t-74 160.5q0 137 129 220v6q-28 -4 -72 -4q-251 0 -397 152t-146 418q0 263 147 416t396 153q250 0 396.5 -152.5t146.5 -416.5q0 -155 -57 -280t-161 -207q-163 -132 -163 -249q0 -47 31.5 -74t86.5 -27q50 0 69 7v-163q-51 -21 -138 -21z
M601 206q116 0 181 90.5t65 254.5q0 162 -65.5 253.5t-180.5 91.5q-116 0 -181.5 -91.5t-65.5 -253.5q0 -164 65.5 -254.5t181.5 -90.5z" />
    <glyph glyph-name="Oogonekmacron" unicode="&#x1ec;" horiz-adv-x="1541" 
d="M1030 -463q-121 0 -197.5 60.5t-76.5 156.5q0 65 39.5 126.5t106.5 103.5v6q-50 -15 -131 -15q-322 0 -509 201t-187 545t187.5 545.5t508.5 201.5t508.5 -201.5t187.5 -545.5q0 -416 -302 -659q-97 -76 -140.5 -134.5t-43.5 -112.5q0 -46 32 -73.5t86 -27.5q50 0 69 7
v-163q-51 -21 -138 -21zM771 1216q-178 0 -283 -134t-105 -361q0 -226 105 -359.5t283 -133.5t282.5 133.5t104.5 359.5q0 227 -104.5 361t-282.5 134zM1117 1767v-143h-692v143h692z" />
    <glyph glyph-name="oogonekmacron" unicode="&#x1ed;" horiz-adv-x="1201" 
d="M936 1441v-143h-669v143h669zM812 -463q-120 0 -194 61.5t-74 160.5q0 137 129 220v6q-28 -4 -72 -4q-251 0 -397 152t-146 418q0 263 147 416t396 153q250 0 396.5 -152.5t146.5 -416.5q0 -155 -57 -280t-161 -207q-163 -132 -163 -249q0 -47 31.5 -74t86.5 -27
q50 0 69 7v-163q-51 -21 -138 -21zM601 206q116 0 181 90.5t65 254.5q0 162 -65.5 253.5t-180.5 91.5q-116 0 -181.5 -91.5t-65.5 -253.5q0 -164 65.5 -254.5t181.5 -90.5z" />
    <glyph glyph-name="u01F1" unicode="&#x1f1;" horiz-adv-x="2730" 
d="M1527 0v197l733 989v8h-716v249h1077v-196l-730 -990v-7h750v-250h-1114zM120 1443h556q326 0 507 -187t181 -529q0 -343 -181.5 -535t-506.5 -192h-556v1443zM422 1194v-944h218q203 0 309.5 121.5t106.5 354.5q0 226 -108 347t-308 121h-218z" />
    <glyph glyph-name="u01F2" unicode="&#x1f2;" horiz-adv-x="2497" 
d="M1516 0v168l553 704v5h-545v224h883v-186l-521 -685v-6h534v-224h-904zM120 1443h556q326 0 507 -187t181 -529q0 -343 -181.5 -535t-506.5 -192h-556v1443zM422 1194v-944h218q203 0 309.5 121.5t106.5 354.5q0 226 -108 347t-308 121h-218z" />
    <glyph glyph-name="u01F3" unicode="&#x1f3;" horiz-adv-x="2308" 
d="M1327 0v168l553 704v5h-545v224h883v-186l-521 -685v-6h534v-224h-904zM509 -13q-206 0 -328.5 152.5t-122.5 412.5q0 258 123 410t329 152q118 0 206.5 -54t130.5 -147h6v599h292v-1512h-288v188h-5q-41 -92 -132 -146.5t-211 -54.5zM606 878q-114 0 -181.5 -88.5
t-67.5 -238.5q0 -151 67.5 -239.5t181.5 -88.5q113 0 181 89t68 238t-68 238.5t-181 89.5z" />
    <glyph glyph-name="Gacute" unicode="&#x1f4;" horiz-adv-x="1489" 
d="M860 1553h-228l232 310h273zM1410 606q0 -295 -169.5 -463t-470.5 -168q-324 0 -509.5 200t-185.5 551q0 346 184.5 544t503.5 198q252 0 427 -136t207 -355h-303q-33 113 -120.5 177t-209.5 64q-179 0 -280 -129t-101 -359q0 -234 105.5 -369t286.5 -135q148 0 241.5 83
t98.5 217l1 23h-314v220h608v-163z" />
    <glyph glyph-name="gacute" unicode="&#x1f5;" horiz-adv-x="1244" 
d="M721 1263h-231l221 310h273zM604 233q114 0 182 86t68 233q0 149 -68 237.5t-182 88.5q-113 0 -180 -88t-67 -237t66.5 -234.5t180.5 -85.5zM601 -403q-218 0 -357 88.5t-150 236.5h288q14 -54 76.5 -86.5t149.5 -32.5q112 0 178.5 54t66.5 146v197h-6q-40 -89 -131 -141
t-210 -52q-203 0 -325.5 147.5t-122.5 399.5q0 259 122 409.5t331 150.5q117 0 207 -54t134 -147h5v188h288v-1076q0 -196 -147.5 -312t-396.5 -116z" />
    <glyph glyph-name="Ngrave" unicode="&#x1f8;" horiz-adv-x="1463" 
d="M622 1558l-278 310h273l232 -310h-227zM409 0h-289v1443h252l674 -940h8v940h289v-1443h-250l-675 945h-9v-945z" />
    <glyph glyph-name="ngrave" unicode="&#x1f9;" horiz-adv-x="1207" 
d="M724 1263h-231l-263 310h273zM99 0v1101h282v-197h6q97 213 344 213q182 0 282 -108.5t100 -302.5v-706h-292v645q0 111 -52 170t-154 59q-104 0 -164 -67.5t-60 -178.5v-628h-292z" />
    <glyph glyph-name="Aringacute" unicode="&#x1fa;" horiz-adv-x="1413" 
d="M1065 0l-110 350h-507l-110 -350h-310l501 1443h355l502 -1443h-321zM698 1167l-185 -591h377l-185 591h-7zM707 1497q-88 0 -147.5 58t-59.5 144t59.5 144t147.5 58t147 -58t59 -144t-59 -144t-147 -58zM707 1606q40 0 67 27t27 66q0 40 -27 66.5t-67 26.5t-67 -26.5
t-27 -66.5q0 -39 27 -66t67 -27zM729 2148h249l-170 -193h-197z" />
    <glyph glyph-name="aringacute" unicode="&#x1fb;" horiz-adv-x="1147" 
d="M520 200q103 0 173 57.5t70 146.5v81l-231 -16q-91 -6 -139 -41t-48 -96t47.5 -96.5t127.5 -35.5zM425 -13q-161 0 -266 92t-105 238q0 149 111 233t323 97l275 17v73q0 79 -51 121.5t-142 42.5q-78 0 -130.5 -37.5t-63.5 -98.5h-267q6 158 136.5 256.5t336.5 98.5
q212 0 340 -100t128 -265v-755h-282v170h-6q-44 -85 -136.5 -134t-200.5 -49zM580 1210q-93 0 -156 61.5t-63 151.5q0 91 62.5 152.5t156.5 61.5q93 0 155.5 -61.5t62.5 -152.5q0 -90 -62.5 -151.5t-155.5 -61.5zM482 1423q0 -40 28.5 -68t69.5 -28t69 28t28 68q0 41 -28 69
t-69 28t-69.5 -28t-28.5 -69zM487 1712l133 213h236l-174 -213h-195z" />
    <glyph glyph-name="AEacute" unicode="&#x1fc;" horiz-adv-x="2039" 
d="M1557 1553h-228l232 310h273zM830 1211l-255 -612h391v612h-136zM966 0v373h-479l-158 -373h-301l613 1443h1270v-249h-669v-353h632v-232h-632v-360h669v-249h-945z" />
    <glyph glyph-name="aeacute" unicode="&#x1fd;" horiz-adv-x="1844" 
d="M1031 1263h-231l221 310h273zM1286 -19q-137 0 -244 55t-160 152h-9q-58 -97 -160.5 -149t-240.5 -52q-192 0 -305 90t-113 238q0 149 111 234t322 97l276 15v62q0 78 -56.5 128t-144.5 50q-83 0 -138 -37.5t-62 -98.5h-263q8 159 133.5 257t322.5 98q130 0 226 -45
t141 -123h9q115 168 363 168q223 0 357.5 -147.5t134.5 -399.5v-89h-751v-19q0 -120 70 -193t185 -73q82 0 139.5 36t78.5 101h269q-25 -161 -158.5 -258t-332.5 -97zM1277 902q-100 0 -165.5 -65.5t-73.5 -172.5h466q-4 109 -65.5 173.5t-161.5 64.5zM512 196
q104 0 177.5 61t73.5 147v78l-241 -16q-89 -5 -139 -40t-50 -95t50 -97.5t129 -37.5z" />
    <glyph glyph-name="Oslashacute" unicode="&#x1fe;" horiz-adv-x="1541" 
d="M1182 1863l-277 -310h-228l232 310h273zM1081 1041l-505 -759q85 -54 195 -54q177 0 282 133.5t105 359.5q0 194 -77 320zM484 366l514 773q-94 77 -227 77q-177 0 -282.5 -134t-105.5 -361q0 -223 101 -355zM1350 1446l-100 -150q217 -203 217 -575q0 -344 -188 -545
t-508 -201q-197 0 -347 78l-80 -120l-102 68l80 120q-120 97 -183.5 250t-63.5 350q0 345 187.5 546t508.5 201q220 0 381 -98l90 136z" />
    <glyph glyph-name="oslashacute" unicode="&#x1ff;" horiz-adv-x="1201" 
d="M976 1573l-263 -310h-231l221 310h273zM809 757l-326 -520q53 -31 118 -31q116 0 181 90.5t65 254.5q0 122 -38 206zM399 331l330 526q-54 39 -128 39q-116 0 -181.5 -91.5t-65.5 -253.5q0 -133 45 -220zM1030 1109l-68 -108q182 -154 182 -450q0 -267 -145.5 -418.5
t-397.5 -151.5q-137 0 -248 48l-62 -99l-104 64l62 98q-191 152 -191 459q0 263 147 416t396 153q145 0 259 -54l64 102z" />
    <glyph glyph-name="Adblgrave" unicode="&#x200;" horiz-adv-x="1413" 
d="M1065 0l-110 350h-507l-110 -350h-310l501 1443h355l502 -1443h-321zM698 1167l-185 -591h377l-185 591h-7zM797 1553l-278 310h269l231 -310h-222zM402 1553l-278 310h268l232 -310h-222z" />
    <glyph glyph-name="adblgrave" unicode="&#x201;" horiz-adv-x="1147" 
d="M520 200q103 0 173 57.5t70 146.5v81l-231 -16q-91 -6 -139 -41t-48 -96t47.5 -96.5t127.5 -35.5zM425 -13q-161 0 -266 92t-105 238q0 149 111 233t323 97l275 17v73q0 79 -51 121.5t-142 42.5q-78 0 -130.5 -37.5t-63.5 -98.5h-267q6 158 136.5 256.5t336.5 98.5
q212 0 340 -100t128 -265v-755h-282v170h-6q-44 -85 -136.5 -134t-200.5 -49zM503 1263h-208l-233 310h252zM873 1263h-208l-233 310h252z" />
    <glyph glyph-name="Ainvertedbreve" unicode="&#x202;" horiz-adv-x="1413" 
d="M1065 0l-110 350h-507l-110 -350h-310l501 1443h355l502 -1443h-321zM698 1167l-185 -591h377l-185 591h-7zM354 1543q2 137 97.5 227t255.5 90t255.5 -90t97.5 -227h-178q-2 75 -50 123.5t-125 48.5t-125 -48.5t-50 -123.5h-178z" />
    <glyph glyph-name="ainvertedbreve" unicode="&#x203;" horiz-adv-x="1147" 
d="M520 200q103 0 173 57.5t70 146.5v81l-231 -16q-91 -6 -139 -41t-48 -96t47.5 -96.5t127.5 -35.5zM425 -13q-161 0 -266 92t-105 238q0 149 111 233t323 97l275 17v73q0 79 -51 121.5t-142 42.5q-78 0 -130.5 -37.5t-63.5 -98.5h-267q6 158 136.5 256.5t336.5 98.5
q212 0 340 -100t128 -265v-755h-282v170h-6q-44 -85 -136.5 -134t-200.5 -49zM219 1253q2 140 99 231t260 91t260 -91t99 -231h-180q-2 76 -51.5 126t-127.5 50t-127.5 -50t-51.5 -126h-180z" />
    <glyph glyph-name="Edblgrave" unicode="&#x204;" horiz-adv-x="1174" 
d="M688 1553l-278 310h269l231 -310h-222zM293 1553l-278 310h268l232 -310h-222zM1076 250v-250h-956v1443h956v-249h-654v-348h617v-232h-617v-364h654z" />
    <glyph glyph-name="edblgrave" unicode="&#x205;" horiz-adv-x="1164" 
d="M590 902q-100 0 -166.5 -66t-74.5 -172h475q-4 108 -68 173t-166 65zM828 336h269q-24 -160 -161 -257.5t-338 -97.5q-251 0 -395.5 151t-144.5 414t143.5 418.5t385.5 155.5q238 0 378.5 -148t140.5 -399v-90h-760v-18q0 -119 71 -192.5t186 -73.5q83 0 143.5 36.5
t81.5 100.5zM511 1263h-208l-233 310h252zM881 1263h-208l-233 310h252z" />
    <glyph glyph-name="Einvertedbreve" unicode="&#x206;" horiz-adv-x="1174" 
d="M1076 250v-250h-956v1443h956v-249h-654v-348h617v-232h-617v-364h654zM245 1543q2 137 97.5 227t255.5 90t255.5 -90t97.5 -227h-178q-2 75 -50 123.5t-125 48.5t-125 -48.5t-50 -123.5h-178z" />
    <glyph glyph-name="einvertedbreve" unicode="&#x207;" horiz-adv-x="1164" 
d="M590 902q-100 0 -166.5 -66t-74.5 -172h475q-4 108 -68 173t-166 65zM828 336h269q-24 -160 -161 -257.5t-338 -97.5q-251 0 -395.5 151t-144.5 414t143.5 418.5t385.5 155.5q238 0 378.5 -148t140.5 -399v-90h-760v-18q0 -119 71 -192.5t186 -73.5q83 0 143.5 36.5
t81.5 100.5zM227 1253q2 140 99 231t260 91t260 -91t99 -231h-180q-2 76 -51.5 126t-127.5 50t-127.5 -50t-51.5 -126h-180z" />
    <glyph glyph-name="Idblgrave" unicode="&#x208;" horiz-adv-x="542" 
d="M422 0h-302v1443h302v-1443zM361 1553l-278 310h269l231 -310h-222zM-34 1553l-278 310h268l232 -310h-222z" />
    <glyph glyph-name="idblgrave" unicode="&#x209;" horiz-adv-x="500" 
d="M104 0v1101h292v-1101h-292zM175 1263h-208l-233 310h252zM545 1263h-208l-233 310h252z" />
    <glyph glyph-name="Iinvertedbreve" unicode="&#x20a;" horiz-adv-x="542" 
d="M422 0h-302v1443h302v-1443zM-82 1543q2 137 97.5 227t255.5 90t255.5 -90t97.5 -227h-178q-2 75 -50 123.5t-125 48.5t-125 -48.5t-50 -123.5h-178z" />
    <glyph glyph-name="iinvertedbreve" unicode="&#x20b;" horiz-adv-x="500" 
d="M104 0v1101h292v-1101h-292zM-109 1253q2 140 99 231t260 91t260 -91t99 -231h-180q-2 76 -51.5 126t-127.5 50t-127.5 -50t-51.5 -126h-180z" />
    <glyph glyph-name="Odblgrave" unicode="&#x20c;" horiz-adv-x="1541" 
d="M861 1553l-278 310h269l231 -310h-222zM466 1553l-278 310h268l232 -310h-222zM771 1468q321 0 508.5 -201t187.5 -546q0 -344 -188 -545t-508 -201q-321 0 -508.5 201t-187.5 545q0 345 187.5 546t508.5 201zM771 1216q-177 0 -282.5 -134t-105.5 -361
q0 -226 105 -359.5t283 -133.5q177 0 282 133.5t105 359.5q0 227 -105 361t-282 134z" />
    <glyph glyph-name="odblgrave" unicode="&#x20d;" horiz-adv-x="1201" 
d="M601 -19q-251 0 -397 152t-146 418q0 263 147 416t396 153q250 0 396.5 -152.5t146.5 -416.5q0 -267 -145.5 -418.5t-397.5 -151.5zM601 206q116 0 181 90.5t65 254.5q0 162 -65.5 253.5t-180.5 91.5q-116 0 -181.5 -91.5t-65.5 -253.5q0 -164 65.5 -254.5t181.5 -90.5z
M526 1263h-208l-233 310h252zM896 1263h-208l-233 310h252z" />
    <glyph glyph-name="Oinvertedbreve" unicode="&#x20e;" horiz-adv-x="1541" 
d="M418 1543q2 137 97.5 227t255.5 90t255.5 -90t97.5 -227h-178q-2 75 -50 123.5t-125 48.5t-125 -48.5t-50 -123.5h-178zM771 1468q321 0 508.5 -201t187.5 -546q0 -344 -188 -545t-508 -201q-321 0 -508.5 201t-187.5 545q0 345 187.5 546t508.5 201zM771 1216
q-177 0 -282.5 -134t-105.5 -361q0 -226 105 -359.5t283 -133.5q177 0 282 133.5t105 359.5q0 227 -105 361t-282 134z" />
    <glyph glyph-name="oinvertedbreve" unicode="&#x20f;" horiz-adv-x="1201" 
d="M601 -19q-251 0 -397 152t-146 418q0 263 147 416t396 153q250 0 396.5 -152.5t146.5 -416.5q0 -267 -145.5 -418.5t-397.5 -151.5zM601 206q116 0 181 90.5t65 254.5q0 162 -65.5 253.5t-180.5 91.5q-116 0 -181.5 -91.5t-65.5 -253.5q0 -164 65.5 -254.5t181.5 -90.5z
M242 1253q2 140 99 231t260 91t260 -91t99 -231h-180q-2 76 -51.5 126t-127.5 50t-127.5 -50t-51.5 -126h-180z" />
    <glyph glyph-name="Rdblgrave" unicode="&#x210;" horiz-adv-x="1316" 
d="M706 1553l-278 310h269l231 -310h-222zM311 1553l-278 310h268l232 -310h-222zM422 1207v-460h265q114 0 177.5 61t63.5 169q0 105 -66 167.5t-178 62.5h-262zM422 528v-528h-302v1443h596q247 0 384.5 -122.5t137.5 -337.5q0 -141 -69.5 -251.5t-192.5 -158.5l304 -573
h-342l-269 528h-247z" />
    <glyph glyph-name="rdblgrave" unicode="&#x211;" horiz-adv-x="759" 
d="M99 0v1101h282v-197h6q28 101 96 155.5t166 54.5q52 0 85 -11v-258q-43 17 -108 17q-111 0 -173 -65t-62 -181v-616h-292zM328 1263h-208l-233 310h252zM698 1263h-208l-233 310h252z" />
    <glyph glyph-name="Rinvertedbreve" unicode="&#x212;" horiz-adv-x="1316" 
d="M422 1207v-460h265q114 0 177.5 61t63.5 169q0 105 -66 167.5t-178 62.5h-262zM422 528v-528h-302v1443h596q247 0 384.5 -122.5t137.5 -337.5q0 -141 -69.5 -251.5t-192.5 -158.5l304 -573h-342l-269 528h-247zM263 1543q2 137 97.5 227t255.5 90t255.5 -90t97.5 -227
h-178q-2 75 -50 123.5t-125 48.5t-125 -48.5t-50 -123.5h-178z" />
    <glyph glyph-name="rinvertedbreve" unicode="&#x213;" horiz-adv-x="759" 
d="M99 0v1101h282v-197h6q28 101 96 155.5t166 54.5q52 0 85 -11v-258q-43 17 -108 17q-111 0 -173 -65t-62 -181v-616h-292zM44 1253q2 140 99 231t260 91t260 -91t99 -231h-180q-2 76 -51.5 126t-127.5 50t-127.5 -50t-51.5 -126h-180z" />
    <glyph glyph-name="Udblgrave" unicode="&#x214;" horiz-adv-x="1449" 
d="M815 1553l-278 310h269l231 -310h-222zM420 1553l-278 310h268l232 -310h-222zM422 1443v-903q0 -141 79.5 -223.5t223.5 -82.5q143 0 222.5 82.5t79.5 223.5v903h302v-933q0 -240 -164.5 -387.5t-439.5 -147.5q-276 0 -440.5 147.5t-164.5 387.5v933h302z" />
    <glyph glyph-name="udblgrave" unicode="&#x215;" horiz-adv-x="1207" 
d="M1108 1101v-1101h-282v199h-6q-87 -215 -331 -215q-180 0 -287.5 110t-107.5 301v706h292v-645q0 -112 54 -170.5t155 -58.5q102 0 161.5 67.5t59.5 179.5v627h292zM528 1263h-208l-233 310h252zM898 1263h-208l-233 310h252z" />
    <glyph glyph-name="Uinvertedbreve" unicode="&#x216;" horiz-adv-x="1449" 
d="M422 1443v-903q0 -141 79.5 -223.5t223.5 -82.5q143 0 222.5 82.5t79.5 223.5v903h302v-933q0 -240 -164.5 -387.5t-439.5 -147.5q-276 0 -440.5 147.5t-164.5 387.5v933h302zM372 1543q2 137 97.5 227t255.5 90t255.5 -90t97.5 -227h-178q-2 75 -50 123.5t-125 48.5
t-125 -48.5t-50 -123.5h-178z" />
    <glyph glyph-name="uinvertedbreve" unicode="&#x217;" horiz-adv-x="1207" 
d="M1108 1101v-1101h-282v199h-6q-87 -215 -331 -215q-180 0 -287.5 110t-107.5 301v706h292v-645q0 -112 54 -170.5t155 -58.5q102 0 161.5 67.5t59.5 179.5v627h292zM244 1253q2 140 99 231t260 91t260 -91t99 -231h-180q-2 76 -51.5 126t-127.5 50t-127.5 -50t-51.5 -126
h-180z" />
    <glyph glyph-name="Scommaaccent" unicode="&#x218;" horiz-adv-x="1293" 
d="M66 411h291q10 -88 93.5 -142.5t204.5 -54.5q120 0 195.5 51.5t75.5 131.5q0 70 -56 113t-187 72l-188 41q-397 85 -397 403q0 198 154.5 320t397.5 122q250 0 399 -118.5t153 -315.5h-283q-7 91 -80.5 143.5t-187.5 52.5q-112 0 -180.5 -49t-68.5 -129q0 -66 55.5 -107
t180.5 -70l175 -37q217 -46 316 -143.5t99 -262.5q0 -210 -158 -333.5t-427 -123.5q-261 0 -415.5 116.5t-161.5 319.5zM624 -500h-217l121 345h256z" />
    <glyph glyph-name="scommaaccent" unicode="&#x219;" horiz-adv-x="1078" 
d="M80 777q0 155 126 249t335 94q204 0 329 -95.5t128 -253.5h-270q-5 65 -56 103.5t-135 38.5q-79 0 -127 -32.5t-48 -85.5q0 -81 147 -115l207 -45q166 -38 237.5 -107t71.5 -192q0 -160 -134 -257.5t-351 -97.5q-215 0 -345.5 95.5t-141.5 256.5h285q11 -70 65 -107.5
t145 -37.5q87 0 137 31.5t50 85.5q0 43 -31.5 68t-106.5 43l-203 46q-314 71 -314 315zM515 -500h-217l121 345h256z" />
    <glyph glyph-name="Tcommaaccent" unicode="&#x21a;" horiz-adv-x="1242" 
d="M599 -500h-217l121 345h256zM772 0h-302v1194h-422v249h1147v-249h-423v-1194z" />
    <glyph glyph-name="tcommaaccent" unicode="&#x21b;" horiz-adv-x="741" 
d="M402 -500h-217l121 345h256zM177 1346h292v-245h204v-221h-204v-535q0 -126 131 -126q43 0 73 5v-216q-60 -12 -141 -12q-191 0 -273 70t-82 231v583h-149v221h149v245z" />
    <glyph glyph-name="Hcaron" unicode="&#x21e;" horiz-adv-x="1494" 
d="M1374 0h-302v608h-650v-608h-302v1443h302v-586h650v586h302v-1443zM633 1543l-274 318h222l163 -197h6l163 197h222l-274 -318h-228z" />
    <glyph glyph-name="hcaron" unicode="&#x21f;" horiz-adv-x="1225" 
d="M107 0v1512h287v-608h6q95 213 346 213q182 0 283.5 -110.5t101.5 -302.5v-704h-292v643q0 110 -54 170.5t-157 60.5q-107 0 -168 -68t-61 -181v-625h-292zM138 1612l-274 318h222l163 -197h6l163 197h222l-274 -318h-228z" />
    <glyph glyph-name="Adotaccent" unicode="&#x226;" horiz-adv-x="1413" 
d="M1065 0l-110 350h-507l-110 -350h-310l501 1443h355l502 -1443h-321zM698 1167l-185 -591h377l-185 591h-7zM707 1561q-63 0 -106 43.5t-43 105.5t43 105t106 43t106 -43t43 -105t-43 -105.5t-106 -43.5z" />
    <glyph glyph-name="adotaccent" unicode="&#x227;" horiz-adv-x="1147" 
d="M520 200q103 0 173 57.5t70 146.5v81l-231 -16q-91 -6 -139 -41t-48 -96t47.5 -96.5t127.5 -35.5zM425 -13q-161 0 -266 92t-105 238q0 149 111 233t323 97l275 17v73q0 79 -51 121.5t-142 42.5q-78 0 -130.5 -37.5t-63.5 -98.5h-267q6 158 136.5 256.5t336.5 98.5
q212 0 340 -100t128 -265v-755h-282v170h-6q-44 -85 -136.5 -134t-200.5 -49zM577 1263q-63 0 -107 43.5t-44 104.5q0 62 44 105.5t107 43.5t106.5 -43.5t43.5 -105.5q0 -61 -43.5 -104.5t-106.5 -43.5z" />
    <glyph glyph-name="Ecedilla" unicode="&#x228;" horiz-adv-x="1174" 
d="M1076 1194h-654v-348h617v-232h-617v-364h654v-250h-386l-49 -116q88 0 136.5 -41.5t48.5 -117.5q0 -86 -64 -135.5t-177 -50.5q-88 0 -140 16v120q40 -14 111 -14q107 0 107 55q0 31 -28.5 43.5t-96.5 12.5h-56v101l58 127h-420v1443h956v-249z" />
    <glyph glyph-name="ecedilla" unicode="&#x229;" horiz-adv-x="1164" 
d="M349 664h475q-4 108 -68 173t-166 65q-100 0 -166.5 -66t-74.5 -172zM1106 483h-760v-18q0 -119 71 -192.5t186 -73.5q83 0 143.5 36.5t81.5 100.5h269q-22 -143 -135.5 -237.5t-285.5 -113.5l-43 -101q88 0 136.5 -41.5t48.5 -117.5q0 -86 -64 -135.5t-177 -50.5
q-88 0 -140 16v120q40 -14 111 -14q107 0 107 55q0 31 -28.5 43.5t-96.5 12.5h-56v101l51 112q-219 22 -343 170t-124 391q0 263 143.5 418.5t385.5 155.5q238 0 378.5 -148t140.5 -399v-90z" />
    <glyph glyph-name="Odieresismacron" unicode="&#x22a;" horiz-adv-x="1541" 
d="M771 1468q321 0 508.5 -201t187.5 -546q0 -344 -188 -545t-508 -201q-321 0 -508.5 201t-187.5 545q0 345 187.5 546t508.5 201zM771 1216q-177 0 -282.5 -134t-105.5 -361q0 -226 105 -359.5t283 -133.5q177 0 282 133.5t105 359.5q0 227 -105 361t-282 134zM567 1813
q54 0 91 -36.5t37 -87.5q0 -52 -37 -88.5t-91 -36.5q-55 0 -92 36.5t-37 88.5t37 88t92 36zM425 2073h692v-143h-692v143zM975 1813q55 0 92 -36t37 -88t-37 -88.5t-92 -36.5q-54 0 -91 36.5t-37 88.5q0 51 37 87.5t91 36.5z" />
    <glyph glyph-name="odieresismacron" unicode="&#x22b;" horiz-adv-x="1201" 
d="M398 1258q-54 0 -91 36.5t-37 87.5q0 52 37 88t91 36t91 -36t37 -88q0 -51 -37 -87.5t-91 -36.5zM804 1258q-54 0 -91 36.5t-37 87.5q0 52 37 88t91 36t91 -36t37 -88q0 -51 -37 -87.5t-91 -36.5zM936 1802v-143h-669v143h669zM601 -19q-251 0 -397 152t-146 418
q0 263 147 416t396 153q250 0 396.5 -152.5t146.5 -416.5q0 -267 -145.5 -418.5t-397.5 -151.5zM601 206q116 0 181 90.5t65 254.5q0 162 -65.5 253.5t-180.5 91.5q-116 0 -181.5 -91.5t-65.5 -253.5q0 -164 65.5 -254.5t181.5 -90.5z" />
    <glyph glyph-name="Otildemacron" unicode="&#x22c;" horiz-adv-x="1541" 
d="M906 1536q-38 0 -72 14t-58 34t-45.5 40t-43 34t-41.5 14q-33 0 -50.5 -32t-18.5 -87h-158q0 126 59.5 199t154.5 73q48 0 90.5 -21.5t67.5 -47t53.5 -47t51.5 -21.5q63 0 65 122h158q0 -125 -60 -199.5t-153 -74.5zM1117 2073v-143h-692v143h692zM771 1468
q321 0 508.5 -201t187.5 -546q0 -344 -188 -545t-508 -201q-321 0 -508.5 201t-187.5 545q0 345 187.5 546t508.5 201zM771 1216q-177 0 -282.5 -134t-105.5 -361q0 -226 105 -359.5t283 -133.5q177 0 282 133.5t105 359.5q0 227 -105 361t-282 134z" />
    <glyph glyph-name="otildemacron" unicode="&#x22d;" horiz-adv-x="1201" 
d="M743 1252q-38 0 -71.5 14t-57.5 34t-45 40t-42.5 34t-41.5 14q-33 0 -50.5 -32.5t-18.5 -86.5h-158q0 126 60 198.5t155 72.5q39 0 74 -14t59 -34t45 -39.5t42.5 -33.5t40.5 -14q63 0 65 122h158q0 -125 -60.5 -200t-153.5 -75zM936 1802v-143h-669v143h669zM601 -19
q-251 0 -397 152t-146 418q0 263 147 416t396 153q250 0 396.5 -152.5t146.5 -416.5q0 -267 -145.5 -418.5t-397.5 -151.5zM601 206q116 0 181 90.5t65 254.5q0 162 -65.5 253.5t-180.5 91.5q-116 0 -181.5 -91.5t-65.5 -253.5q0 -164 65.5 -254.5t181.5 -90.5z" />
    <glyph glyph-name="Odotaccent" unicode="&#x22e;" horiz-adv-x="1541" 
d="M771 1561q-63 0 -106 43.5t-43 105.5t43 105t106 43t106 -43t43 -105t-43 -105.5t-106 -43.5zM771 1468q321 0 508.5 -201t187.5 -546q0 -344 -188 -545t-508 -201q-321 0 -508.5 201t-187.5 545q0 345 187.5 546t508.5 201zM771 1216q-177 0 -282.5 -134t-105.5 -361
q0 -226 105 -359.5t283 -133.5q177 0 282 133.5t105 359.5q0 227 -105 361t-282 134z" />
    <glyph glyph-name="odotaccent" unicode="&#x22f;" horiz-adv-x="1201" 
d="M600 1263q-63 0 -107 43.5t-44 104.5q0 62 44 105.5t107 43.5t106.5 -43.5t43.5 -105.5q0 -61 -43.5 -104.5t-106.5 -43.5zM601 -19q-251 0 -397 152t-146 418q0 263 147 416t396 153q250 0 396.5 -152.5t146.5 -416.5q0 -267 -145.5 -418.5t-397.5 -151.5zM601 206
q116 0 181 90.5t65 254.5q0 162 -65.5 253.5t-180.5 91.5q-116 0 -181.5 -91.5t-65.5 -253.5q0 -164 65.5 -254.5t181.5 -90.5z" />
    <glyph glyph-name="Odotaccentmacron" unicode="&#x230;" horiz-adv-x="1541" 
d="M771 1555q-59 0 -98.5 39t-39.5 95q0 55 39.5 93.5t98.5 38.5t98.5 -38.5t39.5 -93.5q0 -56 -39.5 -95t-98.5 -39zM1117 2073v-143h-692v143h692zM771 1468q321 0 508.5 -201t187.5 -546q0 -344 -188 -545t-508 -201q-321 0 -508.5 201t-187.5 545q0 345 187.5 546
t508.5 201zM771 1216q-177 0 -282.5 -134t-105.5 -361q0 -226 105 -359.5t283 -133.5q177 0 282 133.5t105 359.5q0 227 -105 361t-282 134z" />
    <glyph glyph-name="odotaccentmacron" unicode="&#x231;" horiz-adv-x="1201" 
d="M601 -19q-251 0 -397 152t-146 418q0 263 147 416t396 153q250 0 396.5 -152.5t146.5 -416.5q0 -267 -145.5 -418.5t-397.5 -151.5zM601 206q116 0 181 90.5t65 254.5q0 162 -65.5 253.5t-180.5 91.5q-116 0 -181.5 -91.5t-65.5 -253.5q0 -164 65.5 -254.5t181.5 -90.5z
M601 1252q-62 0 -106 43t-44 104t44 104.5t106 43.5t106 -43.5t44 -104.5t-44 -104t-106 -43zM936 1807v-143h-669v143h669z" />
    <glyph glyph-name="Ymacron" unicode="&#x232;" horiz-adv-x="1362" 
d="M832 0h-302v539l-502 904h329l323 -616h7l324 616h324l-503 -904v-539zM1027 1767v-143h-692v143h692z" />
    <glyph glyph-name="ymacron" unicode="&#x233;" horiz-adv-x="1136" 
d="M239 -402q-89 0 -111 4v226q15 -3 66 -3q83 0 130.5 30.5t64.5 95.5l10 42l-386 1108h320l238 -864h6l239 864h308l-381 -1123q-70 -210 -183.5 -295t-320.5 -85zM904 1441v-143h-669v143h669z" />
    <glyph glyph-name="dotlessj" unicode="&#x237;" horiz-adv-x="499" 
d="M396 1101v-1137q0 -168 -99 -253.5t-292 -85.5q-60 0 -78 3v216q6 -1 37 -1q76 0 108 29.5t32 98.5v1130h292z" />
    <glyph glyph-name="quoteright" unicode="&#x2bc;" horiz-adv-x="593" 
d="M366 880h-238l102 563h273z" />
    <glyph glyph-name="quoteright" unicode="&#x2019;" horiz-adv-x="593" 
d="M366 880h-238l102 563h273z" />
    <glyph glyph-name="circumflex" unicode="&#x2c6;" horiz-adv-x="1011" 
d="M615 1571l266 -318h-223l-149 189h-7l-148 -189h-224l266 318h219z" />
    <glyph glyph-name="caron" unicode="&#x2c7;" horiz-adv-x="1011" 
d="M615 1253h-219l-266 318h224l148 -188h7l149 188h223z" />
    <glyph glyph-name="breve" unicode="&#x2d8;" horiz-adv-x="1000" 
d="M142 1570h179q2 -76 51.5 -125.5t127.5 -49.5t127.5 49.5t51.5 125.5h180q-2 -140 -99 -231t-260 -91q-162 0 -259 91t-99 231z" />
    <glyph glyph-name="dotaccent" unicode="&#x2d9;" horiz-adv-x="949" 
d="M474 1263q-63 0 -107 43.5t-44 104.5q0 62 44 105.5t107 43.5t106.5 -43.5t43.5 -105.5q0 -61 -43.5 -104.5t-106.5 -43.5z" />
    <glyph glyph-name="ring" unicode="&#x2da;" horiz-adv-x="1032" 
d="M516 1211q-90 0 -155.5 64t-65.5 153t65.5 153t155.5 64q91 0 156 -64t65 -153t-65 -153t-156 -64zM516 1328q42 0 72 29.5t30 70.5t-30 71t-72 30q-41 0 -71.5 -30t-30.5 -71t30.5 -70.5t71.5 -29.5z" />
    <glyph glyph-name="ogonek" unicode="&#x2db;" horiz-adv-x="1000" 
d="M694 -296v-154q-57 -20 -138 -20q-106 0 -172 57.5t-66 149.5q0 154 168 263h155q-69 -50 -101 -98.5t-32 -103.5q0 -46 31.5 -74.5t83.5 -28.5q37 0 71 9z" />
    <glyph glyph-name="tilde" unicode="&#x2dc;" horiz-adv-x="1011" 
d="M641 1258q-38 0 -71.5 14t-57.5 34t-45 40t-42.5 34t-41.5 14q-33 0 -50.5 -32.5t-18.5 -86.5h-158q0 126 60 198.5t155 72.5q39 0 74 -14t59 -34t45 -39.5t42.5 -33.5t40.5 -14q63 0 65 122h158q0 -125 -60.5 -200t-153.5 -75z" />
    <glyph glyph-name="hungarumlaut" unicode="&#x2dd;" horiz-adv-x="1000" 
d="M469 1263l189 310h252l-233 -310h-208zM98 1263l190 310h251l-233 -310h-208z" />
    <glyph glyph-name="gravecmb" unicode="&#x300;" 
d="M119 1263h-231l-263 310h273z" />
    <glyph glyph-name="acutecmb" unicode="&#x301;" 
d="M112 1263h-231l221 310h273z" />
    <glyph glyph-name="circumflexcmb" unicode="&#x302;" 
d="M109 1571l266 -318h-223l-149 189h-7l-148 -189h-224l266 318h219z" />
    <glyph glyph-name="tildecmb" unicode="&#x303;" 
d="M142 1258q-38 0 -71.5 14t-57.5 34t-45 40t-42.5 34t-41.5 14q-33 0 -50.5 -32.5t-18.5 -86.5h-158q0 126 60 198.5t155 72.5q39 0 74 -14t59 -34t45 -39.5t42.5 -33.5t40.5 -14q63 0 65 122h158q0 -125 -60.5 -200t-153.5 -75z" />
    <glyph glyph-name="macroncmb" unicode="&#x304;" 
d="M335 1441v-143h-669v143h669z" />
    <glyph glyph-name="brevecmb" unicode="&#x306;" 
d="M-359 1570h179q2 -76 51 -125.5t128 -49.5t128 49.5t51 125.5h180q-2 -140 -99 -231t-260 -91q-162 0 -259 91t-99 231z" />
    <glyph glyph-name="dotaccentcmb" unicode="&#x307;" 
d="M-1 1263q-63 0 -107 43.5t-44 104.5q0 62 44 105.5t107 43.5t106.5 -43.5t43.5 -105.5q0 -61 -43.5 -104.5t-106.5 -43.5z" />
    <glyph glyph-name="dieresiscmb" unicode="&#x308;" 
d="M-209 1259q-57 0 -96 38.5t-39 92.5t39 92.5t96 38.5t96 -38.5t39 -92.5t-39 -92.5t-96 -38.5zM210 1259q-57 0 -96 38.5t-39 92.5t39 92.5t96 38.5t96 -38.5t39 -92.5t-39 -92.5t-96 -38.5z" />
    <glyph glyph-name="hookabovecmb" unicode="&#x309;" 
d="M-152 1484v135q64 27 150 27q106 0 169.5 -56t63.5 -150q0 -70 -50 -132t-139 -100l-85 104q51 23 73.5 49t22.5 65q0 35 -28.5 57t-74.5 22q-52 0 -102 -21z" />
    <glyph glyph-name="ringcmb" unicode="&#x30a;" 
d="M0 1210q-90 0 -155.5 64t-65.5 153t65.5 153t155.5 64q91 0 156 -64t65 -153t-65 -153t-156 -64zM0 1327q42 0 72 29.5t30 70.5t-30 71t-72 30q-41 0 -71.5 -30t-30.5 -71t30.5 -70.5t71.5 -29.5z" />
    <glyph glyph-name="hungarumlautcmb" unicode="&#x30b;" 
d="M75 1263l189 310h252l-233 -310h-208zM-296 1263l190 310h251l-233 -310h-208z" />
    <glyph glyph-name="caroncmb" unicode="&#x30c;" 
d="M109 1253h-219l-266 318h224l148 -188h7l149 188h223z" />
    <glyph glyph-name="dblgravecmb" unicode="&#x30f;" 
d="M-75 1263h-208l-233 310h252zM295 1263h-208l-233 310h252z" />
    <glyph glyph-name="invertedbrevecmb" unicode="&#x311;" 
d="M-359 1253q2 140 99 231t260 91t260 -91t99 -231h-180q-2 76 -51.5 126t-127.5 50t-127.5 -50t-51.5 -126h-180z" />
    <glyph glyph-name="horncmb" unicode="&#x31b;" 
d="M0 924v193q32 -23 71 -21q43 2 62 32t19 94v152h222v-207q0 -125 -66 -198.5t-178 -73.5q-85 0 -130 29z" />
    <glyph glyph-name="dotbelowcmb" unicode="&#x323;" 
d="M0 -458q-63 0 -106 43.5t-43 105.5t43 105t106 43t106 -43t43 -105t-43 -105.5t-106 -43.5z" />
    <glyph glyph-name="dieresisbelowcmb" unicode="&#x324;" 
d="M-209 -430q-57 0 -96 38.5t-39 92.5t39 92.5t96 38.5t96 -38.5t39 -92.5t-39 -92.5t-96 -38.5zM210 -430q-57 0 -96 38.5t-39 92.5t39 92.5t96 38.5t96 -38.5t39 -92.5t-39 -92.5t-96 -38.5z" />
    <glyph glyph-name="ringbelowcmb" unicode="&#x325;" 
d="M0 -580q-90 0 -155.5 64t-65.5 153t65.5 153t155.5 64q91 0 156 -64t65 -153t-65 -153t-156 -64zM0 -463q42 0 72 29.5t30 70.5t-30 71t-72 30q-41 0 -71.5 -30t-30.5 -71t30.5 -70.5t71.5 -29.5z" />
    <glyph glyph-name="commabelowcmb" unicode="&#x326;" 
d="M-22 -500h-217l121 345h256z" />
    <glyph glyph-name="cedillacmb" unicode="&#x327;" 
d="M-116 -228v101l63 139l145 -12l-49 -116q88 0 136.5 -41.5t48.5 -117.5q0 -86 -64 -135.5t-177 -50.5q-88 0 -140 16v120q40 -14 111 -14q107 0 107 55q0 31 -28.5 43.5t-96.5 12.5h-56z" />
    <glyph glyph-name="ogonekcmb" unicode="&#x328;" 
d="M176 -296v-154q-57 -20 -138 -20q-106 0 -172 57.5t-66 149.5q0 154 168 263h155q-69 -50 -101 -98.5t-32 -103.5q0 -46 31.5 -74.5t83.5 -28.5q37 0 71 9z" />
    <glyph glyph-name="circumflexbelowcmb" unicode="&#x32d;" 
d="M-114 -160h228l274 -318h-222l-163 197h-6l-163 -197h-222z" />
    <glyph glyph-name="brevebelowcmb" unicode="&#x32e;" 
d="M-353 -176h178q2 -75 50 -123.5t125 -48.5t125 48.5t50 123.5h178q-2 -137 -97.5 -227t-255.5 -90t-255.5 90t-97.5 227z" />
    <glyph glyph-name="tildebelowcmb" unicode="&#x330;" 
d="M140 -435q-46 0 -87.5 21.5t-65.5 46.5t-52.5 46.5t-52.5 21.5q-33 0 -50.5 -32.5t-18.5 -86.5h-158q0 126 60 198.5t155 72.5q39 0 74 -14t59 -34t45 -39.5t42.5 -33.5t40.5 -14q63 0 65 122h158q0 -125 -60.5 -200t-153.5 -75z" />
    <glyph glyph-name="macronbelowcmb" unicode="&#x331;" 
d="M346 -230v-143h-692v143h692z" />
    <glyph glyph-name="greekquestionmark" unicode="&#x37e;" horiz-adv-x="569" 
d="M285 703q-67 0 -114 47t-47 114q0 68 47 114.5t114 46.5t114 -46.5t47 -114.5q0 -67 -47 -114t-114 -47zM276 -271h-221l82 541h276z" />
    <glyph glyph-name="tonosgreek" unicode="&#x384;" horiz-adv-x="904" 
d="M259 1263l81 325h306l-155 -325h-232z" />
    <glyph glyph-name="dieresistonosgreek" unicode="&#x385;" horiz-adv-x="1303" 
d="M311 1259q-57 0 -96 38.5t-39 92.5t39 92.5t96 38.5t96 -38.5t39 -92.5t-39 -92.5t-96 -38.5zM993 1259q-57 0 -96 38.5t-39 92.5t39 92.5t96 38.5t96 -38.5t39 -92.5t-39 -92.5t-96 -38.5zM708 1263h-192l26 325h292z" />
    <glyph glyph-name="Alphatonosgreek" unicode="&#x386;" horiz-adv-x="1501" 
d="M1153 0l-110 350h-507l-110 -350h-310l501 1443h355l502 -1443h-321zM786 1167l-185 -591h377l-185 591h-7zM310 1118h-222l76 325h306z" />
    <glyph glyph-name="anoteleia" unicode="&#x387;" horiz-adv-x="632" 
d="M317 779q-67 0 -114 47t-47 114q0 68 47 114.5t114 46.5t114 -46.5t47 -114.5q0 -67 -47 -114t-114 -47z" />
    <glyph glyph-name="Epsilontonosgreek" unicode="&#x388;" horiz-adv-x="1602" 
d="M262 1118h-222l76 325h306zM1504 250v-250h-956v1443h956v-249h-654v-348h617v-232h-617v-364h654z" />
    <glyph glyph-name="Etatonosgreek" unicode="&#x389;" horiz-adv-x="1922" 
d="M262 1118h-222l76 325h306zM1802 0h-302v608h-650v-608h-302v1443h302v-586h650v586h302v-1443z" />
    <glyph glyph-name="Iotatonosgreek" unicode="&#x38a;" horiz-adv-x="970" 
d="M850 0h-302v1443h302v-1443zM262 1118h-222l76 325h306z" />
    <glyph glyph-name="Omicrontonosgreek" unicode="&#x38c;" horiz-adv-x="1794" 
d="M1024 1468q321 0 508.5 -201t187.5 -546q0 -344 -188 -545t-508 -201q-321 0 -508.5 201t-187.5 545q0 345 187.5 546t508.5 201zM1024 1216q-177 0 -282.5 -134t-105.5 -361q0 -226 105 -359.5t283 -133.5q177 0 282 133.5t105 359.5q0 227 -105 361t-282 134zM250 1118
h-222l76 325h306z" />
    <glyph glyph-name="Upsilontonosgreek" unicode="&#x38e;" horiz-adv-x="1810" 
d="M252 1118h-222l76 325h306zM1280 0h-302v539l-502 904h329l323 -616h7l324 616h324l-503 -904v-539z" />
    <glyph glyph-name="Omegatonosgreek" unicode="&#x38f;" horiz-adv-x="1828" 
d="M1440 788q0 199 -107 313.5t-288 114.5t-288 -114.5t-107 -313.5q0 -167 68 -285t206 -204v-299h-577v239h292v8q-136 82 -214 230t-78 333q0 293 193.5 475.5t504.5 182.5q312 0 505.5 -182.5t193.5 -475.5q0 -185 -78.5 -332.5t-213.5 -230.5v-8h292v-239h-577v299
q138 86 205.5 204t67.5 285zM265 1118h-222l76 325h306z" />
    <glyph glyph-name="iotadieresistonosgreek" unicode="&#x390;" horiz-adv-x="641" 
d="M103 1101h292v-756q0 -126 131 -126q39 0 72 5l10 -216q-53 -12 -150 -12q-190 0 -272.5 70t-82.5 231v804zM-63 1259q-57 0 -96 38.5t-39 92.5t39 92.5t96 38.5t96 -38.5t39 -92.5t-39 -92.5t-96 -38.5zM619 1259q-57 0 -96 38.5t-39 92.5t39 92.5t96 38.5t96 -38.5
t39 -92.5t-39 -92.5t-96 -38.5zM334 1263h-192l26 325h292z" />
    <glyph glyph-name="Alphagreek" unicode="&#x391;" horiz-adv-x="1413" 
d="M1065 0l-110 350h-507l-110 -350h-310l501 1443h355l502 -1443h-321zM698 1167l-185 -591h377l-185 591h-7z" />
    <glyph glyph-name="Betagreek" unicode="&#x392;" horiz-adv-x="1319" 
d="M768 0h-648v1443h637q203 0 322 -97t119 -263q0 -118 -77.5 -207t-193.5 -106v-8q148 -11 244 -109t96 -240q0 -191 -134 -302t-365 -111zM422 1218v-375h226q121 0 187 50.5t66 142.5q0 87 -58 134.5t-164 47.5h-257zM422 225h269q131 0 199.5 54.5t68.5 157.5
q0 101 -70.5 154t-204.5 53h-262v-419z" />
    <glyph glyph-name="Gammagreek" unicode="&#x393;" horiz-adv-x="1103" 
d="M422 0h-302v1443h925v-249h-623v-1194z" />
    <glyph glyph-name="Deltagreek" unicode="&#x394;" horiz-adv-x="1394" 
d="M1342 0h-1289v172l467 1271h355l467 -1271v-172zM370 257v-8h633v8l-311 920h-7z" />
    <glyph glyph-name="Epsilongreek" unicode="&#x395;" horiz-adv-x="1174" 
d="M1076 250v-250h-956v1443h956v-249h-654v-348h617v-232h-617v-364h654z" />
    <glyph glyph-name="Zetagreek" unicode="&#x396;" horiz-adv-x="1292" 
d="M89 0v197l733 989v8h-716v249h1077v-196l-730 -990v-7h750v-250h-1114z" />
    <glyph glyph-name="Etagreek" unicode="&#x397;" horiz-adv-x="1494" 
d="M1374 0h-302v608h-650v-608h-302v1443h302v-586h650v586h302v-1443z" />
    <glyph glyph-name="Thetagreek" unicode="&#x398;" horiz-adv-x="1586" 
d="M1048 603h-511v228h511v-228zM793 1468q339 0 528.5 -201t189.5 -545t-191.5 -545.5t-526.5 -201.5t-526.5 201.5t-191.5 545.5t189.5 545t528.5 201zM793 1216q-194 0 -303.5 -131.5t-109.5 -362.5q0 -232 109 -363t304 -131t304 131t109 363q0 231 -109 362.5
t-304 131.5z" />
    <glyph glyph-name="Iotagreek" unicode="&#x399;" horiz-adv-x="542" 
d="M422 0h-302v1443h302v-1443z" />
    <glyph glyph-name="Kappagreek" unicode="&#x39a;" horiz-adv-x="1353" 
d="M422 0h-302v1443h302v-658h9l542 658h336l-534 -640l571 -803h-361l-428 603l-135 -162v-441z" />
    <glyph glyph-name="Lambdagreek" unicode="&#x39b;" horiz-adv-x="1383" 
d="M1025 0l-334 1152h-7l-336 -1152h-320l486 1443h355l486 -1443h-330z" />
    <glyph glyph-name="Mugreek" unicode="&#x39c;" horiz-adv-x="1768" 
d="M1648 1443v-1443h-269v974h-8l-392 -960h-190l-392 960h-8v-974h-269v1443h350l410 -1023h8l410 1023h350z" />
    <glyph glyph-name="Nugreek" unicode="&#x39d;" horiz-adv-x="1463" 
d="M409 0h-289v1443h252l674 -940h8v940h289v-1443h-250l-675 945h-9v-945z" />
    <glyph glyph-name="Xigreek" unicode="&#x39e;" horiz-adv-x="1283" 
d="M98 1443h1087v-255h-1087v255zM1098 609h-913v238h913v-238zM98 255h1087v-255h-1087v255z" />
    <glyph glyph-name="Omicrongreek" unicode="&#x39f;" horiz-adv-x="1541" 
d="M771 1468q321 0 508.5 -201t187.5 -546q0 -344 -188 -545t-508 -201q-321 0 -508.5 201t-187.5 545q0 345 187.5 546t508.5 201zM771 1216q-177 0 -282.5 -134t-105.5 -361q0 -226 105 -359.5t283 -133.5q177 0 282 133.5t105 359.5q0 227 -105 361t-282 134z" />
    <glyph glyph-name="Pigreek" unicode="&#x3a0;" horiz-adv-x="1474" 
d="M1354 0h-302v1194h-630v-1194h-302v1443h1234v-1443z" />
    <glyph glyph-name="Rhogreek" unicode="&#x3a1;" horiz-adv-x="1280" 
d="M120 1443h602q223 0 361.5 -136t138.5 -358q0 -221 -143 -357.5t-372 -136.5h-285v-455h-302v1443zM422 1204v-513h219q130 0 202 67t72 190t-71.5 189.5t-201.5 66.5h-220z" />
    <glyph glyph-name="Sigmagreek" unicode="&#x3a3;" horiz-adv-x="1267" 
d="M459 257v-7h719v-250h-1089v184l382 540l-361 506v213h1042v-249h-665v-8l312 -448v-7z" />
    <glyph glyph-name="Taugreek" unicode="&#x3a4;" horiz-adv-x="1242" 
d="M772 0h-302v1194h-422v249h1147v-249h-423v-1194z" />
    <glyph glyph-name="Upsilongreek" unicode="&#x3a5;" horiz-adv-x="1362" 
d="M832 0h-302v539l-502 904h329l323 -616h7l324 616h324l-503 -904v-539z" />
    <glyph glyph-name="Phigreek" unicode="&#x3a6;" horiz-adv-x="1787" 
d="M1429 714q0 190 -104.5 303t-292.5 127v-860q188 14 292.5 127t104.5 303zM358 714q0 -190 104.5 -303t292.5 -127v860q-188 -14 -292.5 -127t-104.5 -303zM1032 -106h-277v151q-311 15 -502 198.5t-191 470.5q0 190 87 339t244 235t362 95v152h277v-152
q311 -14 502 -197.5t191 -471.5q0 -287 -191 -470.5t-502 -198.5v-151z" />
    <glyph glyph-name="Chigreek" unicode="&#x3a7;" horiz-adv-x="1404" 
d="M43 0l458 723v8l-455 712h355l306 -520h8l309 520h337l-472 -718v-7l466 -718h-344l-316 505h-8l-318 -505h-326z" />
    <glyph glyph-name="Psigreek" unicode="&#x3a8;" horiz-adv-x="1684" 
d="M986 0h-287v309q-278 5 -438.5 165.5t-160.5 428.5v540h287v-542q0 -160 78.5 -248t233.5 -98v888h287v-888q154 10 232.5 98t78.5 248v542h287v-540q0 -269 -160.5 -429.5t-437.5 -164.5v-309z" />
    <glyph glyph-name="Omegagreek" unicode="&#x3a9;" horiz-adv-x="1566" 
d="M1178 788q0 199 -107 313.5t-288 114.5t-288 -114.5t-107 -313.5q0 -167 68 -285t206 -204v-299h-577v239h292v8q-136 82 -214 230t-78 333q0 293 193.5 475.5t504.5 182.5q312 0 505.5 -182.5t193.5 -475.5q0 -185 -78.5 -332.5t-213.5 -230.5v-8h292v-239h-577v299
q138 86 205.5 204t67.5 285z" />
    <glyph glyph-name="Iotadieresisgreek" unicode="&#x3aa;" horiz-adv-x="542" 
d="M422 0h-302v1443h302v-1443zM62 1561q-57 0 -96 38.5t-39 92.5t39 92.5t96 38.5t96 -38.5t39 -92.5t-39 -92.5t-96 -38.5zM481 1561q-57 0 -96 38.5t-39 92.5t39 92.5t96 38.5t96 -38.5t39 -92.5t-39 -92.5t-96 -38.5z" />
    <glyph glyph-name="Upsilondieresisgreek" unicode="&#x3ab;" horiz-adv-x="1362" 
d="M832 0h-302v539l-502 904h329l323 -616h7l324 616h324l-503 -904v-539zM472 1561q-57 0 -96 38.5t-39 92.5t39 92.5t96 38.5t96 -38.5t39 -92.5t-39 -92.5t-96 -38.5zM891 1561q-57 0 -96 38.5t-39 92.5t39 92.5t96 38.5t96 -38.5t39 -92.5t-39 -92.5t-96 -38.5z" />
    <glyph glyph-name="alphatonosgreek" unicode="&#x3ac;" horiz-adv-x="1333" 
d="M590 224q113 0 181 89t68 238q0 147 -68 238t-179 91q-106 0 -170.5 -89.5t-64.5 -238.5q0 -152 62.5 -240t170.5 -88zM515 -12q-212 0 -334.5 151.5t-122.5 413.5q0 259 122.5 410.5t332.5 151.5q223 0 324 -201h5v188h288v-761q0 -68 22 -97t70 -29q33 0 56 9l10 -212
q-60 -17 -144 -17q-223 0 -279 169q-9 16 -11 21h-5q-51 -95 -137 -146t-197 -51zM489 1263l81 325h306l-155 -325h-232z" />
    <glyph glyph-name="epsilontonosgreek" unicode="&#x3ad;" horiz-adv-x="1168" 
d="M473 1263l81 325h306l-155 -325h-232zM560 -19q-230 0 -362.5 85.5t-132.5 232.5q0 92 53 159.5t148 96.5v6q-179 65 -179 237q0 146 133.5 234t357.5 88q238 0 373.5 -99t155.5 -282h-286q-18 81 -75 119t-172 38q-101 0 -151 -33t-50 -91t47 -85.5t155 -27.5h146v-208
h-145q-105 0 -158.5 -32t-53.5 -88q0 -125 207 -125q220 0 262 165h298q-24 -176 -180 -283t-391 -107z" />
    <glyph glyph-name="etatonosgreek" unicode="&#x3ae;" horiz-adv-x="1336" 
d="M1235 -360h-292v997q0 117 -49.5 177t-158.5 60q-99 0 -158 -68t-59 -177v-629h-292v760q0 69 -23 98.5t-71 29.5q-34 0 -66 -10v213q64 16 149 16q214 0 278 -157q8 -23 14 -46h6q95 213 337 213q187 0 286 -108.5t99 -304.5v-1064zM487 1263l81 325h306l-155 -325h-232
z" />
    <glyph glyph-name="iotatonosgreek" unicode="&#x3af;" horiz-adv-x="641" 
d="M103 1103h292v-756q0 -126 131 -126q39 0 72 5l10 -216q-53 -12 -150 -12q-190 0 -272.5 70t-82.5 231v804zM125 1263l81 325h306l-155 -325h-232z" />
    <glyph glyph-name="upsilondieresistonosgreek" unicode="&#x3b0;" horiz-adv-x="1156" 
d="M216 1259q-57 0 -96 38.5t-39 92.5t39 92.5t96 38.5t96 -38.5t39 -92.5t-39 -92.5t-96 -38.5zM898 1259q-57 0 -96 38.5t-39 92.5t39 92.5t96 38.5t96 -38.5t39 -92.5t-39 -92.5t-96 -38.5zM613 1263h-192l26 325h292zM569 -16q-475 0 -475 470v647h277v-622
q0 -131 47.5 -190.5t150.5 -59.5q119 0 172 86.5t53 264.5q0 275 -91 521h284q42 -97 67 -231t25 -279q0 -294 -130.5 -450.5t-379.5 -156.5z" />
    <glyph glyph-name="alphagreek" unicode="&#x3b1;" horiz-adv-x="1333" 
d="M590 223q113 0 181 89t68 238q0 147 -68 238t-179 91q-106 0 -170.5 -89.5t-64.5 -238.5q0 -152 62.5 -240t170.5 -88zM515 -13q-212 0 -334.5 151.5t-122.5 413.5q0 259 122.5 410.5t332.5 151.5q223 0 324 -201h5v188h288v-761q0 -68 22 -97t70 -29q33 0 56 9l10 -212
q-60 -17 -144 -17q-223 0 -279 169q-9 16 -11 21h-5q-51 -95 -137 -146t-197 -51z" />
    <glyph glyph-name="betagreek" unicode="&#x3b2;" horiz-adv-x="1243" 
d="M518 696v213h72q107 0 163 51t56 146q0 87 -55.5 137t-149.5 50q-215 0 -215 -278v-461q0 -161 66.5 -246t200.5 -85q107 0 169 61.5t62 161.5q0 120 -74.5 185t-219.5 65h-75zM99 977q0 268 128.5 407t380.5 139q219 0 343 -100t124 -279q0 -109 -57.5 -191t-161.5 -123
v-5q329 -74 329 -400q0 -198 -121 -318t-321 -120q-122 0 -211 51t-135 147h-6v-545h-292v1337z" />
    <glyph glyph-name="gammagreek" unicode="&#x3b3;" horiz-adv-x="1181" 
d="M1103 925q0 -240 -94.5 -456t-307.5 -507v-313h-286v292l-395 1160h304l256 -867h6q122 183 179 343t57 347q0 91 -11 177h281q11 -80 11 -176z" />
    <glyph glyph-name="deltagreek" unicode="&#x3b4;" horiz-adv-x="1183" 
d="M592 -19q-248 0 -391 137.5t-143 375.5q0 190 106.5 318t280.5 158v5q-212 99 -212 269q0 134 108.5 206.5t300.5 72.5q234 0 380 -67l-10 -211q-171 67 -332 67q-143 0 -143 -88q0 -35 29.5 -63.5t118.5 -75.5q244 -135 341 -269.5t97 -306.5q0 -241 -145.5 -384.5
t-385.5 -143.5zM586 193q111 0 174 82t63 229q0 150 -63.5 231.5t-171.5 81.5q-114 0 -176 -86.5t-62 -230.5q0 -142 63 -224.5t173 -82.5z" />
    <glyph glyph-name="epsilongreek" unicode="&#x3b5;" horiz-adv-x="1168" 
d="M560 -19q-230 0 -362.5 85.5t-132.5 232.5q0 92 53 159.5t148 96.5v6q-179 65 -179 237q0 146 133.5 234t357.5 88q238 0 373.5 -99t155.5 -282h-286q-18 81 -75 119t-172 38q-101 0 -151 -33t-50 -91t47 -85.5t155 -27.5h146v-208h-145q-105 0 -158.5 -32t-53.5 -88
q0 -125 207 -125q220 0 262 165h298q-24 -176 -180 -283t-391 -107z" />
    <glyph glyph-name="zetagreek" unicode="&#x3b6;" horiz-adv-x="978" 
d="M861 -367l-225 51q39 63 53.5 104.5t14.5 84.5q0 64 -42.5 103.5t-160.5 78.5q-249 82 -348.5 197t-99.5 303t122 376t345 344v6h-391v231h824v-200q-312 -195 -459 -368t-147 -351q0 -80 23 -129.5t83.5 -90t176.5 -80.5q195 -69 269 -148.5t74 -212.5q0 -138 -112 -299
z" />
    <glyph glyph-name="etagreek" unicode="&#x3b7;" horiz-adv-x="1329" 
d="M1235 -360h-292v997q0 117 -49.5 177t-158.5 60q-99 0 -158 -68t-59 -177v-629h-292v760q0 69 -23 98.5t-71 29.5q-34 0 -66 -10v213q64 16 149 16q214 0 278 -157q8 -23 14 -46h6q95 213 337 213q187 0 286 -108.5t99 -304.5v-1064z" />
    <glyph glyph-name="thetagreek" unicode="&#x3b8;" horiz-adv-x="1255" 
d="M628 -19q-275 0 -412.5 196t-137.5 580q0 376 140.5 571t409.5 195q268 0 408.5 -196t140.5 -571q0 -383 -138.5 -579t-410.5 -196zM628 199q129 0 191 110t66 345h-515q4 -235 66 -345t192 -110zM370 870h515q-12 436 -257 436q-246 0 -258 -436z" />
    <glyph glyph-name="iotagreek" unicode="&#x3b9;" horiz-adv-x="641" 
d="M103 1101h292v-756q0 -126 131 -126q39 0 72 5l10 -216q-53 -12 -150 -12q-190 0 -272.5 70t-82.5 231v804z" />
    <glyph glyph-name="kappagreek" unicode="&#x3ba;" horiz-adv-x="1219" 
d="M107 0v1101h286v-507h5l282 326q95 111 158.5 149t156.5 38q82 0 132 -16v-213q-22 10 -73 10q-44 0 -77 -20.5t-88 -83.5l-136 -152l413 -632h-309l-298 462l-166 -181v-281h-286z" />
    <glyph glyph-name="lambdagreek" unicode="&#x3bb;" horiz-adv-x="1195" 
d="M20 0l441 1037l-36 96q-38 103 -78 137t-119 34q-47 0 -75 -10v212q58 17 135 17q108 0 174 -30.5t118 -108.5t106 -232l288 -819q25 -69 54.5 -94t82.5 -25q32 0 57 9l10 -212q-53 -17 -144 -17q-122 0 -189.5 47.5t-107.5 170.5l-160 480h-5l-265 -692h-287z" />
    <glyph glyph-name="mugreek" unicode="&#x3bc;" horiz-adv-x="1314" 
d="M99 -360v1461h290v-639q0 -234 208 -234q107 0 167 67t60 179v627h289v-761q0 -69 20 -97.5t66 -28.5q35 0 57 9l10 -212q-58 -17 -148 -17q-107 0 -170 38.5t-97 124.5l-6 18.5l-5 15.5h-5q-36 -97 -104.5 -152t-156.5 -55q-58 0 -106.5 24t-71.5 61h-5v-429h-292z" />
    <glyph glyph-name="nugreek" unicode="&#x3bd;" horiz-adv-x="1170" 
d="M395 0l-375 1101h304l256 -867h6q120 183 171 340t51 350q0 93 -11 177h284q12 -89 12 -176q0 -234 -80.5 -437.5t-282.5 -487.5h-335z" />
    <glyph glyph-name="xigreek" unicode="&#x3be;" horiz-adv-x="1012" 
d="M871 -367l-225 51q68 111 68 189q0 66 -44.5 105.5t-174.5 82.5q-172 59 -268 118t-132.5 124t-36.5 156q0 116 72 196.5t207 109.5v5q-112 40 -164.5 101.5t-52.5 158.5q0 191 233 246v5h-229v231h824v-203l-129 -16q-231 -27 -324 -77t-93 -146q0 -80 69 -115.5
t214 -35.5h186v-221h-199q-320 0 -320 -181q0 -48 23 -81.5t86 -68.5t184 -76q188 -65 263 -145t75 -213q0 -74 -26.5 -144.5t-85.5 -155.5z" />
    <glyph glyph-name="omicrongreek" unicode="&#x3bf;" horiz-adv-x="1196" 
d="M598 -19q-250 0 -395 153t-145 417q0 262 145.5 415.5t394.5 153.5q250 0 395.5 -153t145.5 -416q0 -264 -145 -417t-396 -153zM598 212q115 0 178.5 89t63.5 250q0 158 -65 248.5t-177 90.5t-176.5 -90.5t-64.5 -248.5q0 -161 63 -250t178 -89z" />
    <glyph glyph-name="pigreek" unicode="&#x3c0;" horiz-adv-x="1473" 
d="M285 0v872h-220v229h1330v-229h-228v-537q0 -63 25 -92t79 -29q23 0 56 9l10 -212q-56 -17 -150 -17q-163 0 -231 67.5t-68 230.5v580h-324v-872h-279z" />
    <glyph glyph-name="rhogreek" unicode="&#x3c1;" horiz-adv-x="1231" 
d="M620 223q119 0 187 88t68 244q0 157 -66.5 246t-181.5 89q-119 0 -184 -88.5t-65 -246.5q0 -154 66 -243t176 -89zM87 -360v898q0 271 146.5 426.5t396.5 155.5t397 -153t147 -414q0 -262 -123.5 -414t-337.5 -152q-111 0 -198 53t-131 145h-6v-545h-291z" />
    <glyph glyph-name="sigmafinalgreek" unicode="&#x3c2;" horiz-adv-x="1127" 
d="M871 -367l-225 51q68 111 68 186q0 66 -41.5 105.5t-160.5 79.5q-248 84 -351 204t-103 326q0 247 141.5 391t384.5 144q220 0 349.5 -112t146.5 -313h-272q-14 93 -70 144t-145 51q-114 0 -177.5 -75t-63.5 -207q0 -121 61 -189t227 -126q195 -68 269 -147.5t74 -212.5
q0 -139 -112 -300z" />
    <glyph glyph-name="sigmagreek" unicode="&#x3c3;" horiz-adv-x="1355" 
d="M596 -19q-248 0 -393 148.5t-145 400.5q0 258 157.5 414.5t417.5 156.5h654v-229h-289v-6q61 -55 95.5 -145t34.5 -195q0 -245 -142.5 -395t-389.5 -150zM595 208q113 0 179 90t66 244q0 148 -62 234t-169 86q-116 0 -184 -88t-68 -239q0 -150 65.5 -238.5t172.5 -88.5z
" />
    <glyph glyph-name="taugreek" unicode="&#x3c4;" horiz-adv-x="1115" 
d="M732 -4q-193 0 -274 71t-81 234v571h-327v229h990v-229h-371v-525q0 -64 32 -96t102 -32q20 0 70 5l10 -216q-59 -12 -151 -12z" />
    <glyph glyph-name="upsilongreek" unicode="&#x3c5;" horiz-adv-x="1156" 
d="M569 -16q-475 0 -475 470v647h277v-622q0 -131 47.5 -190.5t150.5 -59.5q119 0 172 86.5t53 264.5q0 275 -91 521h284q42 -97 67 -231t25 -279q0 -294 -130.5 -450.5t-379.5 -156.5z" />
    <glyph glyph-name="phigreek" unicode="&#x3c6;" horiz-adv-x="1564" 
d="M649 -360v341q-266 10 -432.5 163t-166.5 407q0 256 166 410t433 161v224h266v-224q268 -7 433.5 -160.5t165.5 -410.5q0 -254 -166.5 -407t-432.5 -163v-341h-266zM910 204q151 10 237.5 101t86.5 246q0 158 -85 249t-239 98v-694zM654 204v694q-154 -7 -239 -98
t-85 -249q0 -155 86.5 -246t237.5 -101z" />
    <glyph glyph-name="chigreek" unicode="&#x3c7;" horiz-adv-x="1244" 
d="M78 -360l408 724l-212 406q-38 72 -69.5 95t-87.5 23q-32 0 -62 -10v213q64 16 140 16q114 0 179.5 -42.5t123.5 -153.5l155 -302h5l259 492h291l-421 -742l209 -399q33 -64 61 -85.5t74 -21.5q35 0 62 10l10 -213q-56 -16 -132 -16q-122 0 -182.5 37.5t-116.5 144.5
l-155 299h-5l-243 -475h-291z" />
    <glyph glyph-name="psigreek" unicode="&#x3c8;" horiz-adv-x="1556" 
d="M631 -360v344q-259 2 -398 123.5t-139 347.5v646h277v-586q0 -156 60 -221t200 -65v1117h276v-1115q137 1 212 90t75 259q0 275 -91 521h284q92 -211 92 -507q0 -292 -149 -451t-423 -159v-344h-276z" />
    <glyph glyph-name="omegagreek" unicode="&#x3c9;" horiz-adv-x="1619" 
d="M486 -19q-207 0 -310 139t-103 401q0 158 41 311.5t113 268.5h293q-163 -288 -163 -587q0 -149 40 -218.5t124 -69.5q73 0 114 54.5t41 152.5v354h266v-354q0 -98 41 -152.5t115 -54.5q84 0 124 69.5t40 218.5q0 299 -163 587h293q72 -115 113 -268.5t41 -311.5
q0 -262 -103 -401t-311 -139q-225 0 -319 244h-7q-94 -244 -320 -244z" />
    <glyph glyph-name="iotadieresisgreek" unicode="&#x3ca;" horiz-adv-x="641" 
d="M43 1259q-57 0 -96 38.5t-39 92.5t39 92.5t96 38.5t96 -38.5t39 -92.5t-39 -92.5t-96 -38.5zM462 1259q-57 0 -96 38.5t-39 92.5t39 92.5t96 38.5t96 -38.5t39 -92.5t-39 -92.5t-96 -38.5zM103 1101h292v-756q0 -126 131 -126q39 0 72 5l10 -216q-53 -12 -150 -12
q-190 0 -272.5 70t-82.5 231v804z" />
    <glyph glyph-name="upsilondieresisgreek" unicode="&#x3cb;" horiz-adv-x="1156" 
d="M355 1259q-57 0 -96 38.5t-39 92.5t39 92.5t96 38.5t96 -38.5t39 -92.5t-39 -92.5t-96 -38.5zM774 1259q-57 0 -96 38.5t-39 92.5t39 92.5t96 38.5t96 -38.5t39 -92.5t-39 -92.5t-96 -38.5zM569 -16q-475 0 -475 470v647h277v-622q0 -131 47.5 -190.5t150.5 -59.5
q119 0 172 86.5t53 264.5q0 275 -91 521h284q42 -97 67 -231t25 -279q0 -294 -130.5 -450.5t-379.5 -156.5z" />
    <glyph glyph-name="omicrontonosgreek" unicode="&#x3cc;" horiz-adv-x="1196" 
d="M598 -19q-250 0 -395 153t-145 417q0 262 145.5 415.5t394.5 153.5q250 0 395.5 -153t145.5 -416q0 -264 -145 -417t-396 -153zM598 212q115 0 178.5 89t63.5 250q0 158 -65 248.5t-177 90.5t-176.5 -90.5t-64.5 -248.5q0 -161 63 -250t178 -89zM493 1263l81 325h306
l-155 -325h-232z" />
    <glyph glyph-name="upsilontonosgreek" unicode="&#x3cd;" horiz-adv-x="1156" 
d="M432 1263l81 325h306l-155 -325h-232zM569 -16q-475 0 -475 470v647h277v-622q0 -131 47.5 -190.5t150.5 -59.5q119 0 172 86.5t53 264.5q0 275 -91 521h284q42 -97 67 -231t25 -279q0 -294 -130.5 -450.5t-379.5 -156.5z" />
    <glyph glyph-name="omegatonosgreek" unicode="&#x3ce;" horiz-adv-x="1619" 
d="M486 -19q-207 0 -310 139t-103 401q0 158 41 311.5t113 268.5h293q-163 -288 -163 -587q0 -149 40 -218.5t124 -69.5q73 0 114 54.5t41 152.5v354h266v-354q0 -98 41 -152.5t115 -54.5q84 0 124 69.5t40 218.5q0 299 -163 587h293q72 -115 113 -268.5t41 -311.5
q0 -262 -103 -401t-311 -139q-225 0 -319 244h-7q-94 -244 -320 -244zM695 1263l81 325h306l-155 -325h-232z" />
    <glyph glyph-name="Iocyrillic" unicode="&#x401;" horiz-adv-x="1195" 
d="M399 1561q-57 0 -96 38.5t-39 92.5t39 92.5t96 38.5t96 -38.5t39 -92.5t-39 -92.5t-96 -38.5zM818 1561q-57 0 -96 38.5t-39 92.5t39 92.5t96 38.5t96 -38.5t39 -92.5t-39 -92.5t-96 -38.5zM1086 250v-250h-956v1443h956v-249h-654v-348h617v-232h-617v-364h654z" />
    <glyph glyph-name="Djecyrillic" unicode="&#x402;" horiz-adv-x="1743" 
d="M1134 -67q-105 0 -146 17v237q36 -12 118 -12q109 0 171.5 62.5t62.5 173.5q0 110 -69 174.5t-187 64.5q-97 0 -178.5 -45.5t-117.5 -117.5v-487h-302v1194h-423v249h1148v-249h-423v-409h8q130 122 348 122q234 0 366.5 -133t132.5 -345q0 -225 -136.5 -360.5
t-372.5 -135.5z" />
    <glyph glyph-name="Gjecyrillic" unicode="&#x403;" horiz-adv-x="1123" 
d="M727 1538h-228l232 310h273zM433 0h-303v1443h930v-250h-627v-1193z" />
    <glyph glyph-name="Ecyrillic" unicode="&#x404;" horiz-adv-x="1477" 
d="M1401 472q-35 -232 -205.5 -368t-427.5 -136q-315 0 -499 202.5t-184 551.5q0 348 184.5 550.5t498.5 202.5q252 0 427.5 -144.5t204.5 -374.5h-297q-29 119 -120 190.5t-215 71.5q-148 0 -248.5 -99.5t-118.5 -269.5h566v-234h-569q14 -180 115.5 -285t255.5 -105
q126 0 214.5 65.5t120.5 181.5h297z" />
    <glyph glyph-name="Dzecyrillic" unicode="&#x405;" horiz-adv-x="1314" 
d="M76 411h291q10 -88 93.5 -142.5t204.5 -54.5q120 0 195.5 51.5t75.5 131.5q0 70 -56 113t-187 72l-188 41q-397 85 -397 403q0 198 154.5 320t397.5 122q250 0 399 -118.5t153 -315.5h-283q-7 91 -80.5 143.5t-187.5 52.5q-112 0 -180.5 -49t-68.5 -129q0 -66 55.5 -107
t180.5 -70l175 -37q217 -46 316 -143.5t99 -262.5q0 -210 -158 -333.5t-427 -123.5q-261 0 -415.5 116.5t-161.5 319.5z" />
    <glyph glyph-name="Icyrillic" unicode="&#x406;" horiz-adv-x="562" 
d="M432 0h-302v1443h302v-1443z" />
    <glyph glyph-name="Yicyrillic" unicode="&#x407;" horiz-adv-x="562" 
d="M432 0h-302v1443h302v-1443zM72 1561q-57 0 -96 38.5t-39 92.5t39 92.5t96 38.5t96 -38.5t39 -92.5t-39 -92.5t-96 -38.5zM491 1561q-57 0 -96 38.5t-39 92.5t39 92.5t96 38.5t96 -38.5t39 -92.5t-39 -92.5t-96 -38.5z" />
    <glyph glyph-name="Jecyrillic" unicode="&#x408;" horiz-adv-x="1163" 
d="M41 425h293q2 -88 54.5 -141t137.5 -53q95 0 144.5 57t49.5 166v989h302v-991q0 -229 -130 -355.5t-363 -126.5q-221 0 -354.5 124t-133.5 331z" />
    <glyph glyph-name="Ljecyrillic" unicode="&#x409;" horiz-adv-x="2226" 
d="M596 570q-7 -138 -33 -241.5t-75 -182t-129 -119t-190 -40.5q-71 0 -109 14v264q37 -8 67 -8q43 0 75.5 17t52.5 45t33.5 72t20 90.5t9.5 108.5l43 853h993v-484h279q229 0 372 -132.5t143 -346.5q0 -215 -138 -347.5t-361 -132.5h-597v1194h-421zM1354 241h215
q129 0 200 62t71 177q0 116 -71.5 178.5t-201.5 62.5h-213v-480z" />
    <glyph glyph-name="Njecyrillic" unicode="&#x40a;" horiz-adv-x="2216" 
d="M1354 241h230q124 0 192 52.5t68 148.5q0 91 -68 140.5t-193 49.5h-229v-391zM432 623v-623h-302v1443h302v-576h620v576h302v-576h280q230 0 372.5 -118t142.5 -309q0 -197 -138 -318.5t-362 -121.5h-597v623h-620z" />
    <glyph glyph-name="Tshecyrillic" unicode="&#x40b;" horiz-adv-x="1753" 
d="M1073 650q-94 0 -171.5 -46t-113.5 -117v-487h-302v1194h-423v249h1148v-249h-423v-408h8q127 121 339 121q234 0 363.5 -141.5t129.5 -378.5v-387h-302v369q0 133 -66 207t-187 74z" />
    <glyph glyph-name="Kjecyrillic" unicode="&#x40c;" horiz-adv-x="1377" 
d="M1079 1848l-277 -310h-228l232 310h273zM716 760l645 -760h-377l-544 634h-8v-634h-302v1443h302v-611h8l533 611h341z" />
    <glyph glyph-name="Ushortcyrillic" unicode="&#x40e;" horiz-adv-x="1336" 
d="M332 1838h176q1 -76 48.5 -122t122.5 -46t122.5 46t48.5 122h176q0 -140 -96 -225t-251 -85t-251 85t-96 225zM350 -13q-42 0 -80 5t-45 10v246q30 -9 88 -9q69 0 118 24t86 81l-479 1099h320l317 -802h8l302 802h318l-442 -1030q-98 -228 -211 -327t-300 -99z" />
    <glyph glyph-name="Dzhecyrillic" unicode="&#x40f;" horiz-adv-x="1499" 
d="M608 0h-478v1443h302v-1194h635v1194h302v-1443h-478v-285h-283v285z" />
    <glyph glyph-name="Acyrillic" unicode="&#x410;" horiz-adv-x="1433" 
d="M1075 0l-110 350h-507l-110 -350h-310l501 1443h355l502 -1443h-321zM708 1167l-185 -591h377l-185 591h-7z" />
    <glyph glyph-name="Becyrillic" unicode="&#x411;" horiz-adv-x="1307" 
d="M1222 455q0 -204 -138.5 -329.5t-361.5 -125.5h-592v1443h959v-249h-657v-293h280q227 0 368.5 -123t141.5 -323zM432 241h215q127 0 196.5 55t69.5 159t-69.5 160t-197.5 56h-214v-430z" />
    <glyph glyph-name="Vecyrillic" unicode="&#x412;" horiz-adv-x="1339" 
d="M778 0h-648v1443h637q203 0 322 -97t119 -263q0 -118 -77.5 -207t-193.5 -106v-8q148 -11 244 -109t96 -240q0 -191 -134 -302t-365 -111zM432 1218v-375h226q121 0 187 50.5t66 142.5q0 87 -58 134.5t-164 47.5h-257zM432 225h269q131 0 199.5 54.5t68.5 157.5
q0 101 -70.5 154t-204.5 53h-262v-419z" />
    <glyph glyph-name="Gecyrillic" unicode="&#x413;" horiz-adv-x="1123" 
d="M433 0h-303v1443h930v-250h-627v-1193z" />
    <glyph glyph-name="Decyrillic" unicode="&#x414;" horiz-adv-x="1561" 
d="M546 605q-9 -131 -30 -212.5t-66 -134.5v-8h589v945h-455zM299 0v-285h-274v535h101q72 49 102 135.5t40 242.5l50 815h1023v-1193h180v-535h-273v285h-949z" />
    <glyph glyph-name="Iecyrillic" unicode="&#x415;" horiz-adv-x="1195" 
d="M1086 250v-250h-956v1443h956v-249h-654v-348h617v-232h-617v-364h654z" />
    <glyph glyph-name="Zhecyrillic" unicode="&#x416;" horiz-adv-x="2064" 
d="M1451 759l596 -759h-370l-492 634h-8v-634h-294v634h-8l-495 -634h-362l590 754l-556 689h342l481 -611h8v611h294v-611h8l482 611h336z" />
    <glyph glyph-name="Zecyrillic" unicode="&#x417;" horiz-adv-x="1286" 
d="M445 620v235h191q108 0 175.5 55t67.5 144t-64 140t-175 51q-112 0 -181 -56t-75 -151h-279q7 204 153.5 323t389.5 119q232 0 375.5 -108.5t143.5 -282.5q0 -122 -75 -213t-197 -117v-8q146 -16 232 -111.5t86 -240.5q0 -190 -161.5 -313t-410.5 -123q-248 0 -403 122.5
t-165 324.5h289q7 -93 83 -148t199 -55q116 0 187.5 58.5t71.5 153.5q0 94 -70 147.5t-194 53.5h-194z" />
    <glyph glyph-name="Iicyrillic" unicode="&#x418;" horiz-adv-x="1519" 
d="M1088 0v976h-12l-655 -976h-291v1443h301v-977h12l655 977h291v-1443h-301z" />
    <glyph glyph-name="Iishortcyrillic" unicode="&#x419;" horiz-adv-x="1519" 
d="M418 1838h176q1 -76 48.5 -122t122.5 -46t122.5 46t48.5 122h176q0 -140 -96 -225t-251 -85t-251 85t-96 225zM1088 0v976h-12l-655 -976h-291v1443h301v-977h12l655 977h291v-1443h-301z" />
    <glyph glyph-name="Kacyrillic" unicode="&#x41a;" horiz-adv-x="1382" 
d="M716 760l645 -760h-377l-544 634h-8v-634h-302v1443h302v-611h8l533 611h341z" />
    <glyph glyph-name="Elcyrillic" unicode="&#x41b;" horiz-adv-x="1469" 
d="M1339 0h-302v1194h-421l-35 -624q-16 -290 -116.5 -436.5t-310.5 -146.5q-69 0 -109 14v264q37 -8 67 -8q97 0 139.5 81t51.5 252l43 853h993v-1443z" />
    <glyph glyph-name="Emcyrillic" unicode="&#x41c;" horiz-adv-x="1788" 
d="M1658 1443v-1443h-269v974h-8l-392 -960h-190l-392 960h-8v-974h-269v1443h350l410 -1023h8l410 1023h350z" />
    <glyph glyph-name="Encyrillic" unicode="&#x41d;" horiz-adv-x="1514" 
d="M1384 0h-302v608h-650v-608h-302v1443h302v-586h650v586h302v-1443z" />
    <glyph glyph-name="Ocyrillic" unicode="&#x41e;" horiz-adv-x="1561" 
d="M781 1468q321 0 508.5 -201t187.5 -546q0 -344 -188 -545t-508 -201q-321 0 -508.5 201t-187.5 545q0 345 187.5 546t508.5 201zM781 1216q-177 0 -282.5 -134t-105.5 -361q0 -226 105 -359.5t283 -133.5q177 0 282 133.5t105 359.5q0 227 -105 361t-282 134z" />
    <glyph glyph-name="Pecyrillic" unicode="&#x41f;" horiz-adv-x="1499" 
d="M1369 0h-301v1193h-635v-1193h-303v1443h1239v-1443z" />
    <glyph glyph-name="Ercyrillic" unicode="&#x420;" horiz-adv-x="1310" 
d="M130 1443h602q223 0 361.5 -136t138.5 -358q0 -221 -143 -357.5t-372 -136.5h-285v-455h-302v1443zM432 1204v-513h219q130 0 202 67t72 190t-71.5 189.5t-201.5 66.5h-220z" />
    <glyph glyph-name="Escyrillic" unicode="&#x421;" horiz-adv-x="1477" 
d="M768 -32q-315 0 -499 202.5t-184 551.5q0 348 184.5 550.5t498.5 202.5q252 0 427.5 -144.5t204.5 -374.5h-297q-29 119 -120 190.5t-215 71.5q-171 0 -273 -134t-102 -361q0 -231 101 -364.5t275 -133.5q126 0 214.5 65.5t120.5 181.5h297q-35 -232 -205.5 -368
t-427.5 -136z" />
    <glyph glyph-name="Tecyrillic" unicode="&#x422;" horiz-adv-x="1278" 
d="M782 0h-302v1194h-422v249h1147v-249h-423v-1194z" />
    <glyph glyph-name="Ucyrillic" unicode="&#x423;" horiz-adv-x="1336" 
d="M350 -13q-42 0 -80 5t-45 10v246q30 -9 88 -9q69 0 118 24t86 81l-479 1099h320l317 -802h8l302 802h318l-442 -1030q-98 -228 -211 -327t-300 -99z" />
    <glyph glyph-name="Efcyrillic" unicode="&#x424;" horiz-adv-x="1776" 
d="M743 367v715q-167 -8 -265.5 -103.5t-98.5 -253.5q0 -160 98.5 -255.5t265.5 -102.5zM1397 724q0 159 -98.5 254.5t-265.5 103.5v-715q167 8 265.5 103t98.5 254zM740 124q-304 9 -484.5 169t-180.5 432q0 270 180.5 429.5t484.5 169.5v149h297v-149q304 -9 484 -168.5
t180 -431.5q0 -271 -180.5 -430.5t-483.5 -169.5v-154h-297v154z" />
    <glyph glyph-name="Xacyrillic" unicode="&#x425;" horiz-adv-x="1424" 
d="M53 0l458 723v8l-455 712h355l306 -520h8l309 520h337l-472 -718v-7l466 -718h-344l-316 505h-8l-318 -505h-326z" />
    <glyph glyph-name="Tsecyrillic" unicode="&#x426;" horiz-adv-x="1589" 
d="M1549 -285h-273v285h-1146v1443h302v-1194h635v1194h302v-1194h180v-534z" />
    <glyph glyph-name="Checyrillic" unicode="&#x427;" horiz-adv-x="1452" 
d="M1322 0h-302v621h-8q-139 -123 -358 -123q-239 0 -385 146.5t-146 388.5v410h302v-381q0 -143 76 -224t212 -81q106 0 187.5 44.5t119.5 121.5v520h302v-1443z" />
    <glyph glyph-name="Shacyrillic" unicode="&#x428;" horiz-adv-x="1986" 
d="M130 0v1443h302v-1194h410v1194h302v-1194h410v1194h302v-1443h-1726z" />
    <glyph glyph-name="Shchacyrillic" unicode="&#x429;" horiz-adv-x="2076" 
d="M2036 -285h-273v285h-1633v1443h302v-1194h410v1194h302v-1194h410v1194h302v-1194h180v-534z" />
    <glyph glyph-name="Hardsigncyrillic" unicode="&#x42a;" horiz-adv-x="1579" 
d="M1012 0h-597v1195h-335v248h637v-484h280q229 0 372 -132.5t143 -346.5q0 -215 -138.5 -347.5t-361.5 -132.5zM717 241h215q130 0 200.5 61.5t70.5 177.5t-71 178.5t-201 62.5h-214v-480z" />
    <glyph glyph-name="Yericyrillic" unicode="&#x42b;" horiz-adv-x="1817" 
d="M1687 0h-302v1443h302v-1443zM130 0v1443h302v-484h280q229 0 372 -132.5t143 -346.5q0 -215 -138.5 -347.5t-361.5 -132.5h-597zM432 241h215q130 0 200.5 61.5t70.5 177.5t-71 178.5t-201 62.5h-214v-480z" />
    <glyph glyph-name="Softsigncyrillic" unicode="&#x42c;" horiz-adv-x="1294" 
d="M130 0v1443h302v-484h280q229 0 372 -132.5t143 -346.5q0 -215 -138.5 -347.5t-361.5 -132.5h-597zM432 241h215q130 0 200.5 61.5t70.5 177.5t-71 178.5t-201 62.5h-214v-480z" />
    <glyph glyph-name="Ereversedcyrillic" unicode="&#x42d;" horiz-adv-x="1477" 
d="M715 -32q-258 0 -431 136.5t-208 367.5h297q32 -116 122.5 -181.5t218.5 -65.5q152 0 252 105t113 285h-569v234h566q-16 170 -115 269.5t-246 99.5q-126 0 -219.5 -71.5t-121.5 -190.5h-297q19 152 106 270t226 183.5t306 65.5q312 0 494.5 -202.5t182.5 -550.5
q0 -349 -181.5 -551.5t-495.5 -202.5z" />
    <glyph glyph-name="IUcyrillic" unicode="&#x42e;" horiz-adv-x="2089" 
d="M1321 -37q-288 0 -468 172t-210 473h-211v-608h-302v1443h302v-586h213q35 291 214.5 457t461.5 166q315 0 499 -204t184 -554t-183.5 -554.5t-499.5 -204.5zM1320 1224q-171 0 -274 -136t-103 -366t102 -366.5t275 -136.5q172 0 274 136.5t102 366.5t-102 366t-274 136z
" />
    <glyph glyph-name="IAcyrillic" unicode="&#x42f;" horiz-adv-x="1369" 
d="M939 746v460h-249q-121 0 -189.5 -61.5t-68.5 -168.5q0 -109 68 -169.5t190 -60.5h249zM732 521l-343 -521h-334l380 563q-142 44 -227 154t-85 260q0 210 142.5 338t381.5 128h592v-1443h-300v521h-207z" />
    <glyph glyph-name="acyrillic" unicode="&#x430;" horiz-adv-x="1167" 
d="M530 200q103 0 173 57.5t70 146.5v81l-231 -16q-91 -6 -139 -41t-48 -96t47.5 -96.5t127.5 -35.5zM435 -13q-161 0 -266 92t-105 238q0 149 111 233t323 97l275 17v73q0 79 -51 121.5t-142 42.5q-78 0 -130.5 -37.5t-63.5 -98.5h-267q6 158 136.5 256.5t336.5 98.5
q212 0 340 -100t128 -265v-755h-282v170h-6q-44 -85 -136.5 -134t-200.5 -49z" />
    <glyph glyph-name="becyrillic" unicode="&#x431;" horiz-adv-x="1239" 
d="M629 -24q-268 0 -411 168t-143 490q0 233 38 399.5t115.5 271.5t189.5 156t266 56l125 4q96 4 180 18t110 28v-228q-16 -14 -92.5 -29.5t-178.5 -18.5l-119 -4q-103 -3 -174.5 -29.5t-119 -81t-74 -130.5t-40.5 -189h8q108 206 372 206q223 0 356.5 -142t133.5 -383
q0 -260 -145.5 -411t-396.5 -151zM623 207q118 0 183.5 84.5t65.5 239.5q0 148 -65.5 230.5t-183.5 82.5q-117 0 -183 -82.5t-66 -230.5q0 -155 65.5 -239.5t183.5 -84.5z" />
    <glyph glyph-name="vecyrillic" unicode="&#x432;" horiz-adv-x="1144" 
d="M579 914h-184v-259h168q84 0 127.5 33.5t43.5 96.5q0 62 -40.5 95.5t-114.5 33.5zM578 483h-183v-295h198q89 0 136 38t47 110q0 147 -198 147zM109 0v1101h546q171 0 268 -74t97 -204q0 -88 -57 -156t-141 -82v-8q110 -14 178.5 -84.5t68.5 -173.5q0 -146 -109 -232.5
t-295 -86.5h-556z" />
    <glyph glyph-name="gecyrillic" unicode="&#x433;" horiz-adv-x="938" 
d="M873 880h-473v-880h-291v1101h764v-221z" />
    <glyph glyph-name="decyrillic" unicode="&#x434;" horiz-adv-x="1328" 
d="M846 222v659h-336l-25 -356q-15 -196 -82 -295v-8h443zM286 -285h-266v507h85q104 58 122 321l36 558h873v-879h164v-507h-266v285h-748v-285z" />
    <glyph glyph-name="iecyrillic" unicode="&#x435;" horiz-adv-x="1184" 
d="M600 902q-100 0 -166.5 -66t-74.5 -172h475q-4 108 -68 173t-166 65zM838 336h269q-24 -160 -161 -257.5t-338 -97.5q-251 0 -395.5 151t-144.5 414t143.5 418.5t385.5 155.5q238 0 378.5 -148t140.5 -399v-90h-760v-18q0 -119 71 -192.5t186 -73.5q83 0 143.5 36.5
t81.5 100.5z" />
    <glyph glyph-name="zhecyrillic" unicode="&#x436;" horiz-adv-x="1708" 
d="M1268 590l427 -590h-348l-343 476h-8v-476h-288v476h-8l-344 -476h-343l424 583l-411 518h336l338 -446h8v446h288v-446h8l337 446h333z" />
    <glyph glyph-name="zecyrillic" unicode="&#x437;" horiz-adv-x="1103" 
d="M550 -23q-213 0 -343.5 98t-146.5 270h280q38 -142 210 -142q90 0 139.5 37t49.5 100q0 129 -188 129h-153v192h145q164 0 164 120q0 56 -41.5 89.5t-120.5 33.5q-80 0 -129 -34.5t-59 -96.5h-275q16 164 139 258t323 94q215 0 331 -82.5t116 -230.5q0 -83 -45 -145.5
t-122 -83.5v-8q100 -25 153 -89t53 -156q0 -163 -129 -258t-351 -95z" />
    <glyph glyph-name="iicyrillic" unicode="&#x438;" horiz-adv-x="1244" 
d="M395 0h-286v1101h286v-697h8l446 697h286v-1101h-286v705h-8z" />
    <glyph glyph-name="iishortcyrillic" unicode="&#x439;" horiz-adv-x="1244" 
d="M272 1587h178q2 -81 49 -132.5t125 -51.5q77 0 124 51.5t49 132.5h179q0 -148 -97 -238.5t-255 -90.5t-255 90.5t-97 238.5zM395 0h-286v1101h286v-697h8l446 697h286v-1101h-286v705h-8z" />
    <glyph glyph-name="kacyrillic" unicode="&#x43a;" horiz-adv-x="1153" 
d="M671 590l470 -590h-353l-380 476h-8v-476h-291v1101h291v-446h8l374 446h334z" />
    <glyph glyph-name="elcyrillic" unicode="&#x43b;" horiz-adv-x="1212" 
d="M503 525q-7 -128 -29 -222t-65 -167.5t-113.5 -111t-169.5 -37.5q-58 0 -93 14v247q32 -8 63 -8q39 0 66.5 22t44 64.5t25 94.5t12.5 122l32 558h827v-1101h-291v880h-286z" />
    <glyph glyph-name="emcyrillic" unicode="&#x43c;" horiz-adv-x="1565" 
d="M383 0h-274v1101h377l295 -728h8l294 728h373v-1101h-275v739h-8l-289 -679h-203l-290 679h-8v-739z" />
    <glyph glyph-name="encyrillic" unicode="&#x43d;" horiz-adv-x="1231" 
d="M831 0v454h-431v-454h-291v1101h291v-425h431v425h291v-1101h-291z" />
    <glyph glyph-name="ocyrillic" unicode="&#x43e;" horiz-adv-x="1221" 
d="M611 -19q-251 0 -397 152t-146 418q0 263 147 416t396 153q250 0 396.5 -152.5t146.5 -416.5q0 -267 -145.5 -418.5t-397.5 -151.5zM611 206q116 0 181 90.5t65 254.5q0 162 -65.5 253.5t-180.5 91.5q-116 0 -181.5 -91.5t-65.5 -253.5q0 -164 65.5 -254.5t181.5 -90.5z
" />
    <glyph glyph-name="pecyrillic" unicode="&#x43f;" horiz-adv-x="1221" 
d="M821 0v880h-421v-880h-291v1101h1003v-1101h-291z" />
    <glyph glyph-name="ercyrillic" unicode="&#x440;" horiz-adv-x="1267" 
d="M745 1114q210 0 331 -150.5t121 -412.5t-120.5 -413t-327.5 -151q-119 0 -208 52t-134 146h-6v-545h-292v1461h288v-188h6q44 93 135 147t207 54zM648 223q114 0 182 89t68 239q0 148 -68.5 237.5t-181.5 89.5q-112 0 -180 -90t-68 -238t68 -237.5t180 -89.5z" />
    <glyph glyph-name="escyrillic" unicode="&#x441;" horiz-adv-x="1154" 
d="M1095 727h-273q-19 75 -75 119t-141 44q-113 0 -179 -90.5t-66 -248.5q0 -160 66 -249.5t180 -89.5q85 0 141 41.5t76 119.5h272q-21 -181 -153 -286.5t-339 -105.5q-247 0 -391.5 152.5t-144.5 417.5q0 261 144.5 415t389.5 154q207 0 339.5 -109t153.5 -284z" />
    <glyph glyph-name="tecyrillic" unicode="&#x442;" horiz-adv-x="1041" 
d="M996 1101v-221h-330v-880h-291v880h-330v221h951z" />
    <glyph glyph-name="ucyrillic" unicode="&#x443;" horiz-adv-x="1156" 
d="M249 -402q-89 0 -111 4v226q15 -3 66 -3q83 0 130.5 30.5t64.5 95.5l10 42l-386 1108h320l238 -864h6l239 864h308l-381 -1123q-70 -210 -183.5 -295t-320.5 -85z" />
    <glyph glyph-name="efcyrillic" unicode="&#x444;" horiz-adv-x="1609" 
d="M665 206v690q-139 -4 -221 -95.5t-82 -249.5q0 -159 81.5 -250t221.5 -95zM1247 551q0 159 -81.5 249.5t-221.5 95.5v-690q139 4 221 96t82 249zM662 -16q-273 6 -433.5 157t-160.5 410q0 256 161.5 408t432.5 158v334h285v-334q274 -6 434 -157t160 -410
q0 -256 -161.5 -408t-432.5 -158v-344h-285v344z" />
    <glyph glyph-name="hacyrillic" unicode="&#x445;" horiz-adv-x="1124" 
d="M558 385h-6l-211 -385h-308l348 549l-345 552h329l202 -375h6l201 375h317l-346 -545l344 -556h-319z" />
    <glyph glyph-name="tsecyrillic" unicode="&#x446;" horiz-adv-x="1301" 
d="M1273 -285h-266v285h-898v1101h291v-879h416v879h291v-879h166v-507z" />
    <glyph glyph-name="checyrillic" unicode="&#x447;" horiz-adv-x="1185" 
d="M1076 0h-291v480h-8q-107 -129 -305 -129q-175 0 -279.5 110t-104.5 296v344h291v-303q0 -96 49.5 -150t134.5 -54q148 0 222 111v396h291v-1101z" />
    <glyph glyph-name="shacyrillic" unicode="&#x448;" horiz-adv-x="1718" 
d="M109 0v1101h291v-879h314v879h291v-879h313v879h291v-1101h-1500z" />
    <glyph glyph-name="shchacyrillic" unicode="&#x449;" horiz-adv-x="1796" 
d="M1769 -285h-266v285h-1394v1101h291v-879h314v879h291v-879h313v879h291v-879h160v-507z" />
    <glyph glyph-name="hardsigncyrillic" unicode="&#x44a;" horiz-adv-x="1321" 
d="M835 0h-505v880h-285v221h576v-320h214q195 0 310.5 -106t115.5 -285t-115.5 -284.5t-310.5 -105.5zM789 564h-168v-345h168q83 0 133 47.5t50 125.5q0 77 -50 124.5t-133 47.5z" />
    <glyph glyph-name="yericyrillic" unicode="&#x44b;" horiz-adv-x="1549" 
d="M1149 0v1101h291v-1101h-291zM568 564h-168v-345h168q83 0 133 47.5t50 125.5q0 77 -50 124.5t-133 47.5zM109 0v1101h291v-320h214q195 0 310.5 -106t115.5 -285t-115.5 -284.5t-310.5 -105.5h-505z" />
    <glyph glyph-name="softsigncyrillic" unicode="&#x44c;" horiz-adv-x="1100" 
d="M568 564h-168v-345h168q83 0 133 47.5t50 125.5q0 77 -50 124.5t-133 47.5zM109 0v1101h291v-320h214q195 0 310.5 -106t115.5 -285t-115.5 -284.5t-310.5 -105.5h-505z" />
    <glyph glyph-name="ereversedcyrillic" unicode="&#x44d;" horiz-adv-x="1154" 
d="M330 372q20 -77 77.5 -118.5t143.5 -41.5q99 0 165 68t75 189h-402v192h398q-15 106 -79 167.5t-156 61.5q-86 0 -143.5 -44t-76.5 -119h-273q21 175 154.5 284t342.5 109q243 0 386.5 -153.5t143.5 -415.5q0 -265 -143.5 -417.5t-388.5 -152.5q-209 0 -342 105.5
t-154 285.5h272z" />
    <glyph glyph-name="iucyrillic" unicode="&#x44e;" horiz-adv-x="1699" 
d="M1093 -24q-226 0 -366 126t-165 352h-162v-454h-291v1101h291v-425h165q33 212 172.5 330.5t355.5 118.5q249 0 393.5 -153t144.5 -421q0 -271 -143 -423t-395 -152zM1092 207q114 0 177 90t63 254q0 163 -63.5 253t-176.5 90t-176.5 -90t-63.5 -253q0 -164 63 -254
t177 -90z" />
    <glyph glyph-name="iacyrillic" unicode="&#x44f;" horiz-adv-x="1138" 
d="M562 564h182v319h-182q-81 0 -129 -44.5t-48 -118.5q0 -69 48.5 -112.5t128.5 -43.5zM744 0v358h-126l-246 -358h-324l290 402q-114 36 -178 118.5t-64 199.5q0 175 119 278t319 103h495v-1101h-285z" />
    <glyph glyph-name="iocyrillic" unicode="&#x451;" horiz-adv-x="1184" 
d="M600 902q-100 0 -166.5 -66t-74.5 -172h475q-4 108 -68 173t-166 65zM838 336h269q-24 -160 -161 -257.5t-338 -97.5q-251 0 -395.5 151t-144.5 414t143.5 418.5t385.5 155.5q238 0 378.5 -148t140.5 -399v-90h-760v-18q0 -119 71 -192.5t186 -73.5q83 0 143.5 36.5
t81.5 100.5zM387 1259q-57 0 -96 38.5t-39 92.5t39 92.5t96 38.5t96 -38.5t39 -92.5t-39 -92.5t-96 -38.5zM806 1259q-57 0 -96 38.5t-39 92.5t39 92.5t96 38.5t96 -38.5t39 -92.5t-39 -92.5t-96 -38.5z" />
    <glyph glyph-name="djecyrillic" unicode="&#x452;" horiz-adv-x="1245" 
d="M404 904h6q95 213 346 213q182 0 283.5 -110.5t101.5 -302.5v-742q0 -167 -99.5 -252t-292.5 -85q-60 0 -78 3v216q6 -1 37 -1q77 0 109 29.5t32 98.5v672q0 110 -54 170.5t-157 60.5q-107 0 -168 -68t-61 -181v-625h-292v1252h-82v150h82v110h287v-110h234v-150h-234
v-348z" />
    <glyph glyph-name="gjecyrillic" unicode="&#x453;" horiz-adv-x="954" 
d="M599 1263h-231l221 310h273zM873 880h-473v-880h-291v1101h764v-221z" />
    <glyph glyph-name="ecyrillic" unicode="&#x454;" horiz-adv-x="1156" 
d="M826 372h273q-22 -180 -154 -285.5t-338 -105.5q-247 0 -392 153t-145 417q0 261 145 415t390 154q207 0 339.5 -109t153.5 -284h-274q-19 75 -75.5 119t-142.5 44q-93 0 -157.5 -61.5t-78.5 -167.5h397v-192h-401q9 -121 75 -189t166 -68q86 0 142.5 41t76.5 119z" />
    <glyph glyph-name="dzecyrillic" unicode="&#x455;" horiz-adv-x="1098" 
d="M90 777q0 155 126 249t335 94q204 0 329 -95.5t128 -253.5h-270q-5 65 -56 103.5t-135 38.5q-79 0 -127 -32.5t-48 -85.5q0 -81 147 -115l207 -45q166 -38 237.5 -107t71.5 -192q0 -160 -134 -257.5t-351 -97.5q-215 0 -345.5 95.5t-141.5 256.5h285q11 -70 65 -107.5
t145 -37.5q87 0 137 31.5t50 85.5q0 43 -31.5 68t-106.5 43l-203 46q-314 71 -314 315z" />
    <glyph glyph-name="icyrillic" unicode="&#x456;" horiz-adv-x="520" 
d="M114 0v1101h292v-1101h-292zM260 1221q-65 0 -111 44t-46 109t46 108.5t111 43.5q66 0 112 -43.5t46 -108.5t-46 -109t-112 -44z" />
    <glyph glyph-name="yicyrillic" unicode="&#x457;" horiz-adv-x="517" 
d="M79 1244q-57 0 -96 40t-39 96q0 57 39 96.5t96 39.5t96 -39.5t39 -96.5q0 -56 -39 -96t-96 -40zM438 1244q-57 0 -96 40t-39 96q0 57 39 96.5t96 39.5t96 -39.5t39 -96.5q0 -56 -39 -96t-96 -40zM104 0v1101h292v-1101h-292z" />
    <glyph glyph-name="jecyrillic" unicode="&#x458;" horiz-adv-x="527" 
d="M407 1101v-1137q0 -168 -99 -253.5t-292 -85.5q-60 0 -78 3v216q6 -1 37 -1q76 0 108 29.5t32 98.5v1130h292zM261 1221q-65 0 -111 44t-46 109t46 108.5t111 43.5q66 0 112 -43.5t46 -108.5t-46 -109t-112 -44z" />
    <glyph glyph-name="ljecyrillic" unicode="&#x459;" horiz-adv-x="1806" 
d="M503 525q-7 -128 -29 -222t-65 -167.5t-113.5 -111t-169.5 -37.5q-58 0 -93 14v247q32 -8 63 -8q39 0 66.5 22t44 64.5t25 94.5t12.5 122l32 558h830v-320h214q195 0 310.5 -106t115.5 -285t-115.5 -284.5t-310.5 -105.5h-505v880h-289zM1274 564h-168v-345h168
q83 0 132.5 47.5t49.5 125.5q0 77 -50 124.5t-132 47.5z" />
    <glyph glyph-name="njecyrillic" unicode="&#x45a;" horiz-adv-x="1807" 
d="M1294 502h-187v-285h187q76 0 121.5 39.5t45.5 102.5t-46 103t-121 40zM816 0v494h-416v-494h-291v1101h291v-390h416v390h291v-385h219q193 0 307 -97t114 -261t-114 -261t-307 -97h-510z" />
    <glyph glyph-name="tshecyrillic" unicode="&#x45b;" horiz-adv-x="1245" 
d="M404 904h6q95 213 346 213q182 0 283.5 -110.5t101.5 -302.5v-704h-292v643q0 110 -54 170.5t-157 60.5q-107 0 -168 -68t-61 -181v-625h-292v1252h-82v150h82v110h287v-110h234v-150h-234v-348z" />
    <glyph glyph-name="kjecyrillic" unicode="&#x45c;" horiz-adv-x="1153" 
d="M977 1573l-263 -310h-231l221 310h273zM671 590l470 -590h-353l-380 476h-8v-476h-291v1101h291v-446h8l374 446h334z" />
    <glyph glyph-name="ushortcyrillic" unicode="&#x45e;" horiz-adv-x="1156" 
d="M232 1587h178q2 -81 49 -132.5t125 -51.5q77 0 124 51.5t49 132.5h179q0 -148 -97 -238.5t-255 -90.5t-255 90.5t-97 238.5zM249 -402q-89 0 -111 4v226q15 -3 66 -3q83 0 130.5 30.5t64.5 95.5l10 42l-386 1108h320l238 -864h6l239 864h308l-381 -1123
q-70 -210 -183.5 -295t-320.5 -85z" />
    <glyph glyph-name="dzhecyrillic" unicode="&#x45f;" horiz-adv-x="1226" 
d="M1117 0h-371v-285h-266v285h-371v1101h291v-879h426v879h291v-1101z" />
    <glyph glyph-name="Geupturncyrillic" unicode="&#x490;" horiz-adv-x="1123" 
d="M433 1193v-1193h-303v1443h647v285h283v-535h-627z" />
    <glyph glyph-name="geupturncyrillic" unicode="&#x491;" horiz-adv-x="938" 
d="M873 880h-473v-880h-291v1101h498v285h266v-506z" />
    <glyph glyph-name="baht" unicode="&#xe3f;" horiz-adv-x="1326" 
d="M683 643v-417q230 12 230 211q0 193 -230 206zM401 225h142v419h-142v-419zM401 1219v-376h142v376h-142zM683 1216v-368q88 13 134.5 60t46.5 123q0 79 -47.5 127t-133.5 58zM891 775v-18q144 -11 237 -108t93 -236q0 -191 -133.5 -302t-364.5 -111h-40v-136h-140v136
h-438v1443h438v147h140v-147h22q209 0 328 -96t119 -264q0 -115 -75 -203t-186 -105z" />
    <glyph glyph-name="Aringbelow" unicode="&#x1e00;" horiz-adv-x="1413" 
d="M1065 0l-110 350h-507l-110 -350h-310l501 1443h355l502 -1443h-321zM698 1167l-185 -591h377l-185 591h-7zM707 -580q-90 0 -155.5 64t-65.5 153t65.5 153t155.5 64q91 0 156 -64t65 -153t-65 -153t-156 -64zM707 -463q42 0 72 29.5t30 70.5t-30 71t-72 30
q-41 0 -71.5 -30t-30.5 -71t30.5 -70.5t71.5 -29.5z" />
    <glyph glyph-name="aringbelow" unicode="&#x1e01;" horiz-adv-x="1147" 
d="M520 200q103 0 173 57.5t70 146.5v81l-231 -16q-91 -6 -139 -41t-48 -96t47.5 -96.5t127.5 -35.5zM425 -13q-161 0 -266 92t-105 238q0 149 111 233t323 97l275 17v73q0 79 -51 121.5t-142 42.5q-78 0 -130.5 -37.5t-63.5 -98.5h-267q6 158 136.5 256.5t336.5 98.5
q212 0 340 -100t128 -265v-755h-282v170h-6q-44 -85 -136.5 -134t-200.5 -49zM567 -580q-90 0 -155.5 64t-65.5 153t65.5 153t155.5 64q91 0 156 -64t65 -153t-65 -153t-156 -64zM567 -463q42 0 72 29.5t30 70.5t-30 71t-72 30q-41 0 -71.5 -30t-30.5 -71t30.5 -70.5
t71.5 -29.5z" />
    <glyph glyph-name="Bdotaccent" unicode="&#x1e02;" horiz-adv-x="1319" 
d="M626 1561q-63 0 -106 43.5t-43 105.5t43 105t106 43t106 -43t43 -105t-43 -105.5t-106 -43.5zM768 0h-648v1443h637q203 0 322 -97t119 -263q0 -118 -77.5 -207t-193.5 -106v-8q148 -11 244 -109t96 -240q0 -191 -134 -302t-365 -111zM422 1218v-375h226q121 0 187 50.5
t66 142.5q0 87 -58 134.5t-164 47.5h-257zM422 225h269q131 0 199.5 54.5t68.5 157.5q0 101 -70.5 154t-204.5 53h-262v-419z" />
    <glyph glyph-name="bdotaccent" unicode="&#x1e03;" horiz-adv-x="1252" 
d="M253 1630q-63 0 -106 43.5t-43 105.5t43 105t106 43t106 -43t43 -105t-43 -105.5t-106 -43.5zM746 -13q-120 0 -210 52.5t-136 148.5h-6v-188h-287v1512h292v-599h6q46 96 134.5 148.5t205.5 52.5q209 0 329 -150.5t120 -412.5t-120 -413t-328 -151zM647 878
q-112 0 -180.5 -90t-69.5 -238q1 -148 69.5 -237.5t180.5 -89.5q113 0 180.5 89t67.5 239q0 149 -67.5 238t-180.5 89z" />
    <glyph glyph-name="Bdotbelow" unicode="&#x1e04;" horiz-adv-x="1319" 
d="M626 -458q-63 0 -106 43.5t-43 105.5t43 105t106 43t106 -43t43 -105t-43 -105.5t-106 -43.5zM768 0h-648v1443h637q203 0 322 -97t119 -263q0 -118 -77.5 -207t-193.5 -106v-8q148 -11 244 -109t96 -240q0 -191 -134 -302t-365 -111zM422 1218v-375h226q121 0 187 50.5
t66 142.5q0 87 -58 134.5t-164 47.5h-257zM422 225h269q131 0 199.5 54.5t68.5 157.5q0 101 -70.5 154t-204.5 53h-262v-419z" />
    <glyph glyph-name="bdotbelow" unicode="&#x1e05;" horiz-adv-x="1252" 
d="M642 -458q-63 0 -106 43.5t-43 105.5t43 105t106 43t106 -43t43 -105t-43 -105.5t-106 -43.5zM746 -13q-120 0 -210 52.5t-136 148.5h-6v-188h-287v1512h292v-599h6q46 96 134.5 148.5t205.5 52.5q209 0 329 -150.5t120 -412.5t-120 -413t-328 -151zM647 878
q-112 0 -180.5 -90t-69.5 -238q1 -148 69.5 -237.5t180.5 -89.5q113 0 180.5 89t67.5 239q0 149 -67.5 238t-180.5 89z" />
    <glyph glyph-name="Blinebelow" unicode="&#x1e06;" horiz-adv-x="1319" 
d="M768 0h-648v1443h637q203 0 322 -97t119 -263q0 -118 -77.5 -207t-193.5 -106v-8q148 -11 244 -109t96 -240q0 -191 -134 -302t-365 -111zM422 1218v-375h226q121 0 187 50.5t66 142.5q0 87 -58 134.5t-164 47.5h-257zM422 225h269q131 0 199.5 54.5t68.5 157.5
q0 101 -70.5 154t-204.5 53h-262v-419zM972 -230v-143h-692v143h692z" />
    <glyph glyph-name="blinebelow" unicode="&#x1e07;" horiz-adv-x="1252" 
d="M988 -230v-143h-692v143h692zM746 -13q-120 0 -210 52.5t-136 148.5h-6v-188h-287v1512h292v-599h6q46 96 134.5 148.5t205.5 52.5q209 0 329 -150.5t120 -412.5t-120 -413t-328 -151zM647 878q-112 0 -180.5 -90t-69.5 -238q1 -148 69.5 -237.5t180.5 -89.5
q113 0 180.5 89t67.5 239q0 149 -67.5 238t-180.5 89z" />
    <glyph glyph-name="Ccedillaacute" unicode="&#x1e08;" horiz-adv-x="1459" 
d="M1131 1864l-277 -310h-228l232 310h273zM1099 501h294q-24 -224 -175.5 -364t-389.5 -159l-40 -94q88 0 136.5 -41.5t48.5 -117.5q0 -86 -64 -135.5t-177 -50.5q-88 0 -140 16v120q40 -14 111 -14q107 0 107 55q0 31 -28.5 43.5t-96.5 12.5h-56v101l48 106
q-281 26 -441.5 222t-160.5 521q0 347 184 546.5t499 199.5q172 0 312.5 -68t225.5 -192t96 -283h-294q-21 133 -114.5 213t-225.5 80q-171 0 -273 -134t-102 -361q0 -231 101 -364.5t275 -133.5q134 0 225 74t115 202z" />
    <glyph glyph-name="ccedillaacute" unicode="&#x1e09;" horiz-adv-x="1142" 
d="M957 1573l-263 -310h-231l221 310h273zM823 400h272q-12 -175 -126 -286t-301 -130l-42 -100q88 0 136.5 -41.5t48.5 -117.5q0 -86 -64 -135.5t-177 -50.5q-88 0 -140 16v120q40 -14 111 -14q107 0 107 55q0 31 -28.5 43.5t-96.5 12.5h-56v101l51 112q-214 25 -337 174.5
t-123 391.5q0 261 145.5 415t391.5 154q218 0 353 -119t146 -306h-272q-12 88 -71 141.5t-152 53.5q-113 0 -179 -90.5t-66 -248.5q0 -160 66 -249.5t180 -89.5q93 0 151 49t72 139z" />
    <glyph glyph-name="Ddotaccent" unicode="&#x1e0a;" horiz-adv-x="1438" 
d="M644 1561q-63 0 -106 43.5t-43 105.5t43 105t106 43t106 -43t43 -105t-43 -105.5t-106 -43.5zM120 1443h556q326 0 507 -187t181 -529q0 -343 -181.5 -535t-506.5 -192h-556v1443zM422 1194v-944h218q203 0 309.5 121.5t106.5 354.5q0 226 -108 347t-308 121h-218z" />
    <glyph glyph-name="ddotaccent" unicode="&#x1e0b;" horiz-adv-x="1249" 
d="M1006 1630q-63 0 -106 43.5t-43 105.5t43 105t106 43t106 -43t43 -105t-43 -105.5t-106 -43.5zM509 -13q-206 0 -328.5 152.5t-122.5 412.5q0 258 123 410t329 152q118 0 206.5 -54t130.5 -147h6v599h292v-1512h-288v188h-5q-41 -92 -132 -146.5t-211 -54.5zM606 878
q-114 0 -181.5 -88.5t-67.5 -238.5q0 -151 67.5 -239.5t181.5 -88.5q113 0 181 89t68 238t-68 238.5t-181 89.5z" />
    <glyph glyph-name="Ddotbelow" unicode="&#x1e0c;" horiz-adv-x="1438" 
d="M644 -458q-63 0 -106 43.5t-43 105.5t43 105t106 43t106 -43t43 -105t-43 -105.5t-106 -43.5zM120 1443h556q326 0 507 -187t181 -529q0 -343 -181.5 -535t-506.5 -192h-556v1443zM422 1194v-944h218q203 0 309.5 121.5t106.5 354.5q0 226 -108 347t-308 121h-218z" />
    <glyph glyph-name="ddotbelow" unicode="&#x1e0d;" horiz-adv-x="1249" 
d="M595 -458q-63 0 -106 43.5t-43 105.5t43 105t106 43t106 -43t43 -105t-43 -105.5t-106 -43.5zM509 -13q-206 0 -328.5 152.5t-122.5 412.5q0 258 123 410t329 152q118 0 206.5 -54t130.5 -147h6v599h292v-1512h-288v188h-5q-41 -92 -132 -146.5t-211 -54.5zM606 878
q-114 0 -181.5 -88.5t-67.5 -238.5q0 -151 67.5 -239.5t181.5 -88.5q113 0 181 89t68 238t-68 238.5t-181 89.5z" />
    <glyph glyph-name="Dlinebelow" unicode="&#x1e0e;" horiz-adv-x="1438" 
d="M990 -230v-143h-692v143h692zM120 1443h556q326 0 507 -187t181 -529q0 -343 -181.5 -535t-506.5 -192h-556v1443zM422 1194v-944h218q203 0 309.5 121.5t106.5 354.5q0 226 -108 347t-308 121h-218z" />
    <glyph glyph-name="dlinebelow" unicode="&#x1e0f;" horiz-adv-x="1249" 
d="M941 -230v-143h-692v143h692zM509 -13q-206 0 -328.5 152.5t-122.5 412.5q0 258 123 410t329 152q118 0 206.5 -54t130.5 -147h6v599h292v-1512h-288v188h-5q-41 -92 -132 -146.5t-211 -54.5zM606 878q-114 0 -181.5 -88.5t-67.5 -238.5q0 -151 67.5 -239.5t181.5 -88.5
q113 0 181 89t68 238t-68 238.5t-181 89.5z" />
    <glyph glyph-name="Dcommaaccent" unicode="&#x1e10;" horiz-adv-x="1438" 
d="M622 -500h-217l121 345h256zM120 1443h556q326 0 507 -187t181 -529q0 -343 -181.5 -535t-506.5 -192h-556v1443zM422 1194v-944h218q203 0 309.5 121.5t106.5 354.5q0 226 -108 347t-308 121h-218z" />
    <glyph glyph-name="dcommaaccent" unicode="&#x1e11;" horiz-adv-x="1249" 
d="M573 -500h-217l121 345h256zM509 -13q-206 0 -328.5 152.5t-122.5 412.5q0 258 123 410t329 152q118 0 206.5 -54t130.5 -147h6v599h292v-1512h-288v188h-5q-41 -92 -132 -146.5t-211 -54.5zM606 878q-114 0 -181.5 -88.5t-67.5 -238.5q0 -151 67.5 -239.5t181.5 -88.5
q113 0 181 89t68 238t-68 238.5t-181 89.5z" />
    <glyph glyph-name="Dcircumflexbelow" unicode="&#x1e12;" horiz-adv-x="1438" 
d="M120 1443h556q326 0 507 -187t181 -529q0 -343 -181.5 -535t-506.5 -192h-556v1443zM422 1194v-944h218q203 0 309.5 121.5t106.5 354.5q0 226 -108 347t-308 121h-218zM530 -160h228l274 -318h-222l-163 197h-6l-163 -197h-222z" />
    <glyph glyph-name="dcircumflexbelow" unicode="&#x1e13;" horiz-adv-x="1249" 
d="M509 -13q-206 0 -328.5 152.5t-122.5 412.5q0 258 123 410t329 152q118 0 206.5 -54t130.5 -147h6v599h292v-1512h-288v188h-5q-41 -92 -132 -146.5t-211 -54.5zM606 878q-114 0 -181.5 -88.5t-67.5 -238.5q0 -151 67.5 -239.5t181.5 -88.5q113 0 181 89t68 238
t-68 238.5t-181 89.5zM481 -160h228l274 -318h-222l-163 197h-6l-163 -197h-222z" />
    <glyph glyph-name="Emacrongrave" unicode="&#x1e14;" horiz-adv-x="1174" 
d="M252 1624v143h692v-143h-692zM710 1887h-211l-237 243h254zM1076 250v-250h-956v1443h956v-249h-654v-348h617v-232h-617v-364h654z" />
    <glyph glyph-name="emacrongrave" unicode="&#x1e15;" horiz-adv-x="1164" 
d="M590 902q-100 0 -166.5 -66t-74.5 -172h475q-4 108 -68 173t-166 65zM828 336h269q-24 -160 -161 -257.5t-338 -97.5q-251 0 -395.5 151t-144.5 414t143.5 418.5t385.5 155.5q238 0 378.5 -148t140.5 -399v-90h-760v-18q0 -119 71 -192.5t186 -73.5q83 0 143.5 36.5
t81.5 100.5zM692 1619h-206l-216 272h255zM921 1441v-143h-669v143h669z" />
    <glyph glyph-name="Emacronacute" unicode="&#x1e16;" horiz-adv-x="1174" 
d="M944 1624h-692v143h692v-143zM486 1887l194 243h254l-237 -243h-211zM1076 250v-250h-956v1443h956v-249h-654v-348h617v-232h-617v-364h654z" />
    <glyph glyph-name="emacronacute" unicode="&#x1e17;" horiz-adv-x="1164" 
d="M590 902q-100 0 -166.5 -66t-74.5 -172h475q-4 108 -68 173t-166 65zM828 336h269q-24 -160 -161 -257.5t-338 -97.5q-251 0 -395.5 151t-144.5 414t143.5 418.5t385.5 155.5q238 0 378.5 -148t140.5 -399v-90h-760v-18q0 -119 71 -192.5t186 -73.5q83 0 143.5 36.5
t81.5 100.5zM477 1622l182 269h255l-218 -269h-219zM921 1441v-143h-669v143h669z" />
    <glyph glyph-name="Ecircumflexbelow" unicode="&#x1e18;" horiz-adv-x="1174" 
d="M1076 250v-250h-956v1443h956v-249h-654v-348h617v-232h-617v-364h654zM484 -160h228l274 -318h-222l-163 197h-6l-163 -197h-222z" />
    <glyph glyph-name="ecircumflexbelow" unicode="&#x1e19;" horiz-adv-x="1164" 
d="M590 902q-100 0 -166.5 -66t-74.5 -172h475q-4 108 -68 173t-166 65zM828 336h269q-24 -160 -161 -257.5t-338 -97.5q-251 0 -395.5 151t-144.5 414t143.5 418.5t385.5 155.5q238 0 378.5 -148t140.5 -399v-90h-760v-18q0 -119 71 -192.5t186 -73.5q83 0 143.5 36.5
t81.5 100.5zM476 -160h228l274 -318h-222l-163 197h-6l-163 -197h-222z" />
    <glyph glyph-name="Etildebelow" unicode="&#x1e1a;" horiz-adv-x="1174" 
d="M738 -435q-46 0 -87.5 21.5t-65.5 46.5t-52.5 46.5t-52.5 21.5q-33 0 -50.5 -32.5t-18.5 -86.5h-158q0 126 60 198.5t155 72.5q39 0 74 -14t59 -34t45 -39.5t42.5 -33.5t40.5 -14q63 0 65 122h158q0 -125 -60.5 -200t-153.5 -75zM1076 250v-250h-956v1443h956v-249h-654
v-348h617v-232h-617v-364h654z" />
    <glyph glyph-name="etildebelow" unicode="&#x1e1b;" horiz-adv-x="1164" 
d="M730 -435q-46 0 -87.5 21.5t-65.5 46.5t-52.5 46.5t-52.5 21.5q-33 0 -50.5 -32.5t-18.5 -86.5h-158q0 126 60 198.5t155 72.5q39 0 74 -14t59 -34t45 -39.5t42.5 -33.5t40.5 -14q63 0 65 122h158q0 -125 -60.5 -200t-153.5 -75zM590 902q-100 0 -166.5 -66t-74.5 -172
h475q-4 108 -68 173t-166 65zM828 336h269q-24 -160 -161 -257.5t-338 -97.5q-251 0 -395.5 151t-144.5 414t143.5 418.5t385.5 155.5q238 0 378.5 -148t140.5 -399v-90h-760v-18q0 -119 71 -192.5t186 -73.5q83 0 143.5 36.5t81.5 100.5z" />
    <glyph glyph-name="Ecedillabreve" unicode="&#x1e1c;" horiz-adv-x="1174" 
d="M773 1860h178q-2 -137 -97.5 -227t-255.5 -90t-255.5 90t-97.5 227h178q2 -75 50 -123.5t125 -48.5t125 48.5t50 123.5zM1076 1194h-654v-348h617v-232h-617v-364h654v-250h-386l-49 -116q88 0 136.5 -41.5t48.5 -117.5q0 -86 -64 -135.5t-177 -50.5q-88 0 -140 16v120
q40 -14 111 -14q107 0 107 55q0 31 -28.5 43.5t-96.5 12.5h-56v101l58 127h-420v1443h956v-249z" />
    <glyph glyph-name="ecedillabreve" unicode="&#x1e1d;" horiz-adv-x="1164" 
d="M764 1570h180q-2 -140 -99 -231t-260 -91q-162 0 -259 91t-99 231h179q2 -76 51 -125.5t128 -49.5t128 49.5t51 125.5zM349 664h475q-4 108 -68 173t-166 65q-100 0 -166.5 -66t-74.5 -172zM1106 483h-760v-18q0 -119 71 -192.5t186 -73.5q83 0 143.5 36.5t81.5 100.5
h269q-22 -143 -135.5 -237.5t-285.5 -113.5l-43 -101q88 0 136.5 -41.5t48.5 -117.5q0 -86 -64 -135.5t-177 -50.5q-88 0 -140 16v120q40 -14 111 -14q107 0 107 55q0 31 -28.5 43.5t-96.5 12.5h-56v101l51 112q-219 22 -343 170t-124 391q0 263 143.5 418.5t385.5 155.5
q238 0 378.5 -148t140.5 -399v-90z" />
    <glyph glyph-name="Fdotaccent" unicode="&#x1e1e;" horiz-adv-x="1123" 
d="M580 1561q-63 0 -106 43.5t-43 105.5t43 105t106 43t106 -43t43 -105t-43 -105.5t-106 -43.5zM422 0h-302v1443h945v-249h-643v-387h587v-239h-587v-568z" />
    <glyph glyph-name="fdotaccent" unicode="&#x1e1f;" horiz-adv-x="734" 
d="M437 1612q-63 0 -106 43.5t-43 105.5t43 105t106 43t106 -43t43 -105t-43 -105.5t-106 -43.5zM177 0v880h-149v221h149v98q0 159 82.5 229t273.5 70q68 0 135 -10v-203q-37 7 -80 7q-66 0 -95 -26t-30 -84v-81h206v-221h-200v-880h-292z" />
    <glyph glyph-name="Gmacron" unicode="&#x1e20;" horiz-adv-x="1489" 
d="M1410 606q0 -295 -169.5 -463t-470.5 -168q-324 0 -509.5 200t-185.5 551q0 346 184.5 544t503.5 198q252 0 427 -136t207 -355h-303q-33 113 -120.5 177t-209.5 64q-179 0 -280 -129t-101 -359q0 -234 105.5 -369t286.5 -135q148 0 241.5 83t98.5 217l1 23h-314v220h608
v-163zM1097 1767v-143h-692v143h692z" />
    <glyph glyph-name="gmacron" unicode="&#x1e21;" horiz-adv-x="1244" 
d="M944 1441v-143h-669v143h669zM604 233q114 0 182 86t68 233q0 149 -68 237.5t-182 88.5q-113 0 -180 -88t-67 -237t66.5 -234.5t180.5 -85.5zM601 -403q-218 0 -357 88.5t-150 236.5h288q14 -54 76.5 -86.5t149.5 -32.5q112 0 178.5 54t66.5 146v197h-6
q-40 -89 -131 -141t-210 -52q-203 0 -325.5 147.5t-122.5 399.5q0 259 122 409.5t331 150.5q117 0 207 -54t134 -147h5v188h288v-1076q0 -196 -147.5 -312t-396.5 -116z" />
    <glyph glyph-name="Hdotaccent" unicode="&#x1e22;" horiz-adv-x="1494" 
d="M1374 0h-302v608h-650v-608h-302v1443h302v-586h650v586h302v-1443zM747 1561q-63 0 -106 43.5t-43 105.5t43 105t106 43t106 -43t43 -105t-43 -105.5t-106 -43.5z" />
    <glyph glyph-name="hdotaccent" unicode="&#x1e23;" horiz-adv-x="1225" 
d="M107 0v1512h287v-608h6q95 213 346 213q182 0 283.5 -110.5t101.5 -302.5v-704h-292v643q0 110 -54 170.5t-157 60.5q-107 0 -168 -68t-61 -181v-625h-292zM252 1630q-63 0 -106 43.5t-43 105.5t43 105t106 43t106 -43t43 -105t-43 -105.5t-106 -43.5z" />
    <glyph glyph-name="Hdotbelow" unicode="&#x1e24;" horiz-adv-x="1494" 
d="M1374 0h-302v608h-650v-608h-302v1443h302v-586h650v586h302v-1443zM747 -458q-63 0 -106 43.5t-43 105.5t43 105t106 43t106 -43t43 -105t-43 -105.5t-106 -43.5z" />
    <glyph glyph-name="hdotbelow" unicode="&#x1e25;" horiz-adv-x="1225" 
d="M107 0v1512h287v-608h6q95 213 346 213q182 0 283.5 -110.5t101.5 -302.5v-704h-292v643q0 110 -54 170.5t-157 60.5q-107 0 -168 -68t-61 -181v-625h-292zM618 -458q-63 0 -106 43.5t-43 105.5t43 105t106 43t106 -43t43 -105t-43 -105.5t-106 -43.5z" />
    <glyph glyph-name="Hdieresis" unicode="&#x1e26;" horiz-adv-x="1494" 
d="M1374 0h-302v608h-650v-608h-302v1443h302v-586h650v586h302v-1443zM538 1561q-57 0 -96 38.5t-39 92.5t39 92.5t96 38.5t96 -38.5t39 -92.5t-39 -92.5t-96 -38.5zM957 1561q-57 0 -96 38.5t-39 92.5t39 92.5t96 38.5t96 -38.5t39 -92.5t-39 -92.5t-96 -38.5z" />
    <glyph glyph-name="hdieresis" unicode="&#x1e27;" horiz-adv-x="1225" 
d="M107 0v1512h287v-608h6q95 213 346 213q182 0 283.5 -110.5t101.5 -302.5v-704h-292v643q0 110 -54 170.5t-157 60.5q-107 0 -168 -68t-61 -181v-625h-292zM43 1630q-57 0 -96 38.5t-39 92.5t39 92.5t96 38.5t96 -38.5t39 -92.5t-39 -92.5t-96 -38.5zM462 1630
q-57 0 -96 38.5t-39 92.5t39 92.5t96 38.5t96 -38.5t39 -92.5t-39 -92.5t-96 -38.5z" />
    <glyph glyph-name="Hcedilla" unicode="&#x1e28;" horiz-adv-x="1494" 
d="M1072 1443h302v-1443h-302v608h-650v-608h-110l-49 -116q88 0 136.5 -41.5t48.5 -117.5q0 -86 -64 -135.5t-177 -50.5q-88 0 -140 16v120q40 -14 111 -14q107 0 107 55q0 31 -28.5 43.5t-96.5 12.5h-56v101l58 127h-42v1443h302v-586h650v586z" />
    <glyph glyph-name="hcedilla" unicode="&#x1e29;" horiz-adv-x="1225" 
d="M394 904h6q95 213 346 213q182 0 283.5 -110.5t101.5 -302.5v-704h-292v643q0 110 -54 170.5t-157 60.5q-107 0 -168 -68t-61 -181v-625h-94l-49 -116q88 0 136.5 -41.5t48.5 -117.5q0 -86 -64 -135.5t-177 -50.5q-88 0 -140 16v120q40 -14 111 -14q107 0 107 55
q0 31 -28.5 43.5t-96.5 12.5h-56v101l58 127h-48v1512h287v-608z" />
    <glyph glyph-name="Hbrevebelow" unicode="&#x1e2a;" horiz-adv-x="1494" 
d="M394 -176h178q2 -75 50 -123.5t125 -48.5t125 48.5t50 123.5h178q-2 -137 -97.5 -227t-255.5 -90t-255.5 90t-97.5 227zM1374 0h-302v608h-650v-608h-302v1443h302v-586h650v586h302v-1443z" />
    <glyph glyph-name="hbrevebelow" unicode="&#x1e2b;" horiz-adv-x="1225" 
d="M265 -176h178q2 -75 50 -123.5t125 -48.5t125 48.5t50 123.5h178q-2 -137 -97.5 -227t-255.5 -90t-255.5 90t-97.5 227zM107 0v1512h287v-608h6q95 213 346 213q182 0 283.5 -110.5t101.5 -302.5v-704h-292v643q0 110 -54 170.5t-157 60.5q-107 0 -168 -68t-61 -181v-625
h-292z" />
    <glyph glyph-name="Itildebelow" unicode="&#x1e2c;" horiz-adv-x="542" 
d="M422 0h-302v1443h302v-1443zM411 -435q-46 0 -87.5 21.5t-65.5 46.5t-52.5 46.5t-52.5 21.5q-33 0 -50.5 -32.5t-18.5 -86.5h-158q0 126 60 198.5t155 72.5q39 0 74 -14t59 -34t45 -39.5t42.5 -33.5t40.5 -14q63 0 65 122h158q0 -125 -60.5 -200t-153.5 -75z" />
    <glyph glyph-name="itildebelow" unicode="&#x1e2d;" horiz-adv-x="500" 
d="M104 0v1101h292v-1101h-292zM250 1221q-65 0 -111 44t-46 109t46 108.5t111 43.5q66 0 112 -43.5t46 -108.5t-46 -109t-112 -44zM390 -435q-46 0 -87.5 21.5t-65.5 46.5t-52.5 46.5t-52.5 21.5q-33 0 -50.5 -32.5t-18.5 -86.5h-158q0 126 60 198.5t155 72.5q39 0 74 -14
t59 -34t45 -39.5t42.5 -33.5t40.5 -14q63 0 65 122h158q0 -125 -60.5 -200t-153.5 -75z" />
    <glyph glyph-name="Idieresisacute" unicode="&#x1e2e;" horiz-adv-x="542" 
d="M422 0h-302v1443h302v-1443zM159 1887l194 243h254l-237 -243h-211zM67 1564q-55 0 -92 36.5t-37 88.5t37 88t92 36q54 0 91 -36.5t37 -87.5q0 -52 -37 -88.5t-91 -36.5zM475 1564q-54 0 -91 36.5t-37 88.5q0 51 37 87.5t91 36.5q55 0 92 -36t37 -88t-37 -88.5t-92 -36.5
z" />
    <glyph glyph-name="idieresisacute" unicode="&#x1e2f;" horiz-adv-x="500" 
d="M141 1622l182 269h255l-218 -269h-219zM41 1259q-57 0 -96 38.5t-39 92.5t39 92.5t96 38.5t96 -38.5t39 -92.5t-39 -92.5t-96 -38.5zM460 1259q-57 0 -96 38.5t-39 92.5t39 92.5t96 38.5t96 -38.5t39 -92.5t-39 -92.5t-96 -38.5zM104 0v1101h292v-1101h-292z" />
    <glyph glyph-name="Kacute" unicode="&#x1e30;" horiz-adv-x="1353" 
d="M775 1553h-228l232 310h273zM422 0h-302v1443h302v-658h9l542 658h336l-534 -640l571 -803h-361l-428 603l-135 -162v-441z" />
    <glyph glyph-name="kacute" unicode="&#x1e31;" horiz-adv-x="1126" 
d="M361 1622h-228l232 310h273zM403 656l381 445h332l-424 -473l444 -628h-336l-322 452l-79 -85v-367h-292v1512h292v-856h4z" />
    <glyph glyph-name="Kdotbelow" unicode="&#x1e32;" horiz-adv-x="1353" 
d="M666 -458q-63 0 -106 43.5t-43 105.5t43 105t106 43t106 -43t43 -105t-43 -105.5t-106 -43.5zM422 0h-302v1443h302v-658h9l542 658h336l-534 -640l571 -803h-361l-428 603l-135 -162v-441z" />
    <glyph glyph-name="kdotbelow" unicode="&#x1e33;" horiz-adv-x="1126" 
d="M585 -458q-63 0 -106 43.5t-43 105.5t43 105t106 43t106 -43t43 -105t-43 -105.5t-106 -43.5zM403 656l381 445h332l-424 -473l444 -628h-336l-322 452l-79 -85v-367h-292v1512h292v-856h4z" />
    <glyph glyph-name="Klinebelow" unicode="&#x1e34;" horiz-adv-x="1353" 
d="M422 0h-302v1443h302v-658h9l542 658h336l-534 -640l571 -803h-361l-428 603l-135 -162v-441zM1012 -230v-143h-692v143h692z" />
    <glyph glyph-name="klinebelow" unicode="&#x1e35;" horiz-adv-x="1126" 
d="M403 656l381 445h332l-424 -473l444 -628h-336l-322 452l-79 -85v-367h-292v1512h292v-856h4zM931 -230v-143h-692v143h692z" />
    <glyph glyph-name="Ldotbelow" unicode="&#x1e36;" horiz-adv-x="1112" 
d="M577 -458q-63 0 -106 43.5t-43 105.5t43 105t106 43t106 -43t43 -105t-43 -105.5t-106 -43.5zM1053 250v-250h-933v1443h302v-1193h631z" />
    <glyph glyph-name="ldotbelow" unicode="&#x1e37;" horiz-adv-x="505" 
d="M253 -458q-63 0 -106 43.5t-43 105.5t43 105t106 43t106 -43t43 -105t-43 -105.5t-106 -43.5zM107 0v1512h292v-1512h-292z" />
    <glyph glyph-name="Ldotbelowmacron" unicode="&#x1e38;" horiz-adv-x="1112" 
d="M577 -458q-63 0 -106 43.5t-43 105.5t43 105t106 43t106 -43t43 -105t-43 -105.5t-106 -43.5zM1053 250v-250h-933v1443h302v-1193h631zM617 1767v-143h-692v143h692z" />
    </font>
</defs>
</svg>
