<?xml version="1.0" standalone="no"?>
<!DOCTYPE svg PUBLIC "-//W3C//DTD SVG 1.1//EN" "http://www.w3.org/Graphics/SVG/1.1/DTD/svg11.dtd" >
<svg>
<metadata>
Created by FontForge 20090622 at Thu Jul 26 12:26:07 2018
 By deploy user
&#194;&#169; 2015 Apple Inc. All rights reserved.
</metadata>
<defs>
<font id="SFUIDisplay-Light" horiz-adv-x="0" >
  <font-face 
    font-family="SF UI Display"
    font-weight="300"
    font-stretch="normal"
    units-per-em="2048"
    panose-1="0 0 4 0 0 0 0 0 0 0"
    ascent="1638"
    descent="-410"
    x-height="1077"
    cap-height="1443"
    bbox="-516 -882 2508 2091"
    underline-thickness="95"
    underline-position="-275"
    unicode-range="U+0020-U+FB02"
  />
<missing-glyph horiz-adv-x="2048" 
d="M100 -494v308h1848v-308h-1848zM100 -67v308h1848v-308h-1848zM100 361v307h1848v-307h-1848zM100 788v307h1848v-307h-1848zM100 1215v308h1848v-308h-1848zM100 1642v308h1848v-308h-1848z" />
    <glyph glyph-name=".notdef" horiz-adv-x="2048" 
d="M100 -494v308h1848v-308h-1848zM100 -67v308h1848v-308h-1848zM100 361v307h1848v-307h-1848zM100 788v307h1848v-307h-1848zM100 1215v308h1848v-308h-1848zM100 1642v308h1848v-308h-1848z" />
    <glyph glyph-name=".null" 
 />
    <glyph glyph-name="nonmarkingreturn" 
 />
    <glyph glyph-name="space" unicode=" " horiz-adv-x="454" 
 />
    <glyph glyph-name="exclam" unicode="!" horiz-adv-x="531" 
d="M196 1443h138l-8 -987h-121zM265 -10q-40 0 -67.5 27.5t-27.5 67.5t27.5 67.5t67.5 27.5q41 0 68.5 -27.5t27.5 -67.5t-28 -67.5t-68 -27.5z" />
    <glyph glyph-name="quotedbl" unicode="&#x22;" horiz-adv-x="703" 
d="M246 955h-123v488h123v-488zM580 955h-123v488h123v-488z" />
    <glyph glyph-name="numbersign" unicode="#" horiz-adv-x="1214" 
d="M1180 918h-250l-77 -381h235l-21 -111h-237l-87 -426h-112l88 426h-341l-87 -426h-111l87 426h-229l21 111h232l76 381h-218l22 110h218l87 417h111l-85 -417h339l87 417h111l-86 -417h248zM478 919l-78 -384h342l77 384h-341z" />
    <glyph glyph-name="dollar" unicode="$" horiz-adv-x="1219" 
d="M662 -150h-104v141q-203 13 -331 123t-130 277h130q8 -115 98.5 -191.5t232.5 -89.5v579l-55 15q-189 48 -280 139t-91 232q0 161 116.5 266.5t309.5 119.5v138h104v-137q186 -13 305.5 -119.5t124.5 -262.5h-130q-4 104 -88.5 178t-211.5 85v-544l58 -15
q210 -53 304 -144.5t94 -244.5q0 -172 -123 -280.5t-333 -122.5v-142zM986 385q0 112 -75.5 178t-248.5 105v-560q147 7 235.5 82.5t88.5 194.5zM263 1082q0 -101 71 -163.5t224 -96.5v521q-128 -6 -211.5 -79.5t-83.5 -181.5z" />
    <glyph glyph-name="percent" unicode="%" horiz-adv-x="1470" 
d="M1421 340q0 -161 -76 -257.5t-205 -96.5t-205.5 96.5t-76.5 257.5q0 160 76.5 256.5t205.5 96.5t205 -96.5t76 -256.5zM1140 81q73 0 115.5 70t42.5 189t-42 188t-116 69t-116.5 -69.5t-42.5 -187.5q0 -119 42.5 -189t116.5 -70zM613 1105q0 -161 -76 -257.5t-205 -96.5
t-205.5 96.5t-76.5 257.5q0 160 76.5 256.5t205.5 96.5t205 -96.5t76 -256.5zM332 846q73 0 115.5 70t42.5 189t-42 188t-116 69t-116.5 -69.5t-42.5 -187.5q0 -119 42.5 -189t116.5 -70zM268 0h-136l1065 1443h134z" />
    <glyph glyph-name="ampersand" unicode="&#x26;" horiz-adv-x="1372" 
d="M1184 0l-159 168q-92 -90 -217.5 -140.5t-257.5 -50.5q-208 0 -339.5 111.5t-131.5 287.5q0 242 279 391q9 4 27 13.5l32 17t17 8.5q-109 112 -152.5 189.5t-43.5 157.5q0 133 102.5 222.5t253.5 89.5q152 0 252 -88t100 -224q0 -108 -76 -196.5t-250 -178.5l397 -425
q93 158 93 401v58h127v-59q0 -291 -131 -491l250 -262h-172zM437 684q-117 -67 -170 -139.5t-53 -160.5q0 -128 96.5 -209.5t250.5 -81.5q106 0 211 44.5t171 117.5l-434 468q-41 -18 -72 -39zM545 856q145 72 209 141t64 151q0 90 -63.5 149t-160.5 59q-96 0 -161 -60.5
t-65 -149.5q0 -63 38.5 -126t138.5 -164z" />
    <glyph glyph-name="quotesingle" unicode="'" horiz-adv-x="369" 
d="M246 955h-123v488h123v-488z" />
    <glyph glyph-name="parenleft" unicode="(" horiz-adv-x="607" 
d="M555 -268h-120q-53 68 -98 148.5t-85 187.5t-63 243.5t-23 286.5q0 151 22 281t63.5 232.5t86 178.5t104.5 152h115q-46 -57 -88 -134.5t-82 -182t-63.5 -241.5t-23.5 -284q0 -476 255 -868z" />
    <glyph glyph-name="parenright" unicode=")" horiz-adv-x="607" 
d="M52 -268q255 392 255 868q0 147 -23.5 284t-63 241.5t-81.5 182t-88 134.5h115q60 -76 104.5 -152t86 -178.5t63.5 -232.5t22 -281q0 -150 -23 -286.5t-63.5 -243.5t-85.5 -187.5t-98 -148.5h-120z" />
    <glyph glyph-name="asterisk" unicode="*" horiz-adv-x="973" 
d="M785 886l-258 162l12 -303h-105l12 304l-258 -163l-50 90l268 142l-268 141l50 92l258 -165l-12 306h105l-12 -306l258 165l50 -91l-267 -142l267 -142z" />
    <glyph glyph-name="plus" unicode="+" horiz-adv-x="1218" 
d="M671 510v-478h-124v478h-438v124h438v465h124v-465h438v-124h-438z" />
    <glyph glyph-name="comma" unicode="," horiz-adv-x="509" 
d="M225 -242h-104l86 434h141z" />
    <glyph glyph-name="hyphen" unicode="-" horiz-adv-x="874" 
d="M765 510h-656v124h656v-124z" />
    <glyph glyph-name="hyphen" unicode="&#x2011;" horiz-adv-x="874" 
d="M765 510h-656v124h656v-124z" />
    <glyph glyph-name="period" unicode="." horiz-adv-x="509" 
d="M255 -10q-40 0 -67.5 27.5t-27.5 67.5t27.5 67.5t67.5 27.5q41 0 68 -27t27 -68q0 -40 -27.5 -67.5t-67.5 -27.5z" />
    <glyph glyph-name="slash" unicode="/" horiz-adv-x="559" 
d="M113 -330h-113l443 1774h116z" />
    <glyph glyph-name="zero" unicode="0" horiz-adv-x="1222" 
d="M611 -23q-245 0 -384 200.5t-139 544.5q0 342 140 543t383 201q244 0 383 -200.5t139 -542.5q0 -344 -139 -545t-383 -201zM611 97q181 0 283 168t102 457q0 287 -102.5 455t-282.5 168q-179 0 -282 -169t-103 -453q0 -290 102 -458t283 -168z" />
    <glyph glyph-name="one" unicode="1" horiz-adv-x="863" 
d="M485 0v1298h-4q-8 -5 -81 -56.5l-164.5 -115t-141.5 -94.5v146q20 12 194 133t195 134h134v-1445h-132z" />
    <glyph glyph-name="two" unicode="2" horiz-adv-x="1152" 
d="M115 1039q1 184 132.5 305.5t329.5 121.5q189 0 319 -114t130 -280q0 -118 -65.5 -228.5t-245.5 -297.5l-402 -420v-4h750v-122h-941v96l510 539q155 163 206.5 249t51.5 180q0 118 -92 200t-225 82q-139 0 -231.5 -87.5t-94.5 -219.5v-1h-132v1z" />
    <glyph glyph-name="three" unicode="3" horiz-adv-x="1183" 
d="M399 687v116h168q141 0 230 78t89 199q0 119 -84.5 192.5t-228.5 73.5q-134 0 -222 -74t-99 -194h-132q13 174 138.5 281t320.5 107q191 0 318 -104.5t127 -264.5q0 -135 -81 -227t-220 -117v-4q166 -10 264.5 -105.5t98.5 -248.5q0 -120 -66 -216t-180 -149t-253 -53
q-216 0 -353 111t-144 286h132q8 -122 108.5 -199.5t255.5 -77.5q157 0 259 83t102 211q0 138 -100 217t-274 79h-174z" />
    <glyph glyph-name="four" unicode="4" horiz-adv-x="1214" 
d="M807 0v326h-732v125q222 373 665 994h200v-998h215v-121h-215v-326h-133zM213 451v-4h594v878h-2q-364 -504 -592 -874z" />
    <glyph glyph-name="five" unicode="5" horiz-adv-x="1186" 
d="M605 -23q-130 0 -237.5 51t-172.5 142t-74 206h134q14 -121 113 -199.5t239 -78.5q161 0 264.5 102.5t103.5 261.5q0 158 -102.5 262t-259.5 104q-109 0 -199 -49t-140 -135h-131l82 799h800v-122h-687l-54 -533h4q53 74 145.5 116.5t201.5 42.5q206 0 341.5 -137
t135.5 -345q0 -214 -143 -351t-364 -137z" />
    <glyph glyph-name="six" unicode="6" horiz-adv-x="1206" 
d="M629 -23q-145 0 -259.5 71t-181.5 202q-97 169 -97 441q0 363 145.5 569t402.5 206q180 0 307 -100t158 -266h-138q-27 110 -117 177.5t-211 67.5q-198 0 -306.5 -176.5t-108.5 -497.5h3q44 122 161.5 198t263.5 76q206 0 342.5 -136t136.5 -341q0 -212 -142 -351.5
t-359 -139.5zM628 99q152 0 257.5 106t105.5 259q0 155 -102.5 257.5t-259.5 102.5q-154 0 -260.5 -101.5t-106.5 -248.5q0 -158 105.5 -266.5t260.5 -108.5z" />
    <glyph glyph-name="seven" unicode="7" horiz-adv-x="1105" 
d="M213 0l669 1317v4h-803v122h940v-128l-661 -1315h-145z" />
    <glyph glyph-name="eight" unicode="8" horiz-adv-x="1211" 
d="M605 -23q-226 0 -370 117t-144 298q0 136 89 238t233 133v3q-123 34 -195 120.5t-72 202.5q0 164 130 270.5t329 106.5q200 0 329 -106.5t129 -270.5q0 -114 -72 -201t-194 -122v-3q144 -31 233 -133t89 -238q0 -182 -143.5 -298.5t-370.5 -116.5zM605 97
q166 0 270.5 85.5t104.5 217.5q0 130 -104.5 213t-270.5 83q-165 0 -270 -83t-105 -213q0 -132 104.5 -217.5t270.5 -85.5zM605 818q141 0 231.5 73t90.5 187q0 117 -89.5 193t-232.5 76t-233 -76t-90 -193q0 -114 90.5 -187t232.5 -73z" />
    <glyph glyph-name="nine" unicode="9" horiz-adv-x="1206" 
d="M568 -23q-182 0 -309 100.5t-157 265.5h139q27 -110 116 -178t212 -68q193 0 301 169.5t113 474.5q0 4 -0.5 15.5t-0.5 17.5h-1h-1q-41 -122 -159 -199t-266 -77q-206 0 -342.5 135.5t-136.5 338.5q0 214 142 354t359 140q146 0 260.5 -71t180.5 -202q97 -169 97 -441
q0 -363 -145 -569t-402 -206zM577 619q155 0 261.5 102t106.5 248q0 157 -106 265.5t-261 108.5q-154 0 -259 -106t-105 -261q0 -152 103 -254.5t260 -102.5z" />
    <glyph glyph-name="colon" unicode=":" horiz-adv-x="509" 
d="M255 -10q-40 0 -67.5 27.5t-27.5 67.5t27.5 67.5t67.5 27.5q41 0 68 -27t27 -68q0 -40 -27.5 -67.5t-67.5 -27.5zM255 741q-40 0 -67.5 27.5t-27.5 67.5t27.5 67.5t67.5 27.5q41 0 68 -27.5t27 -67.5t-27.5 -67.5t-67.5 -27.5z" />
    <glyph glyph-name="semicolon" unicode=";" horiz-adv-x="509" 
d="M255 741q-40 0 -67.5 27.5t-27.5 67.5t27.5 67.5t67.5 27.5q41 0 68 -27.5t27 -67.5t-27.5 -67.5t-67.5 -27.5zM199 -242h-103l84 434h142z" />
    <glyph glyph-name="less" unicode="&#x3c;" horiz-adv-x="1219" 
d="M1035 1008l-717 -443v-8l717 -428v-145l-851 518v109l851 543v-146z" />
    <glyph glyph-name="equal" unicode="=" horiz-adv-x="1219" 
d="M1096 323h-973v118h973v-118zM1096 703h-973v118h973v-118z" />
    <glyph glyph-name="greater" unicode="&#x3e;" horiz-adv-x="1219" 
d="M184 1009v146l851 -543v-109l-851 -519v146l717 428v8z" />
    <glyph glyph-name="question" unicode="?" horiz-adv-x="972" 
d="M58 1079q9 165 120 271t299 106q179 0 294.5 -102t115.5 -256q0 -108 -52.5 -190.5t-158.5 -150.5q-98 -63 -133 -115.5t-35 -136.5v-75h-133v94q-1 98 45 168t152 139q95 63 134.5 122t39.5 139q0 107 -77 176t-197 69t-197 -70t-87 -188h-130zM443 -10
q-40 0 -67.5 27.5t-27.5 67.5t27.5 67.5t67.5 27.5q41 0 68 -27t27 -68q0 -40 -27.5 -67.5t-67.5 -27.5z" />
    <glyph glyph-name="at" unicode="@" horiz-adv-x="1770" 
d="M878 906q-109 0 -174 -85t-65 -227q0 -141 64.5 -225.5t173.5 -84.5q111 0 177 86t66 229q0 141 -65 224t-177 83zM910 1434q231 0 413.5 -93t284.5 -263t102 -388q0 -240 -94 -381t-258 -141q-90 0 -153.5 50.5t-74.5 133.5h-7q-34 -86 -101.5 -131.5t-160.5 -45.5
q-155 0 -250.5 116.5t-95.5 305.5q0 184 96.5 300t249.5 116q87 0 156.5 -44t97.5 -117h7v141h116v-572q0 -70 36 -110.5t103 -40.5q102 0 163 112t61 310q0 286 -195 464.5t-505 178.5q-201 0 -362 -94t-251.5 -262t-90.5 -379q0 -225 94 -392.5t257 -254t373 -86.5
q221 0 332 44v-99q-127 -44 -333 -44q-243 0 -430.5 98.5t-295 289.5t-107.5 448q0 182 61 336.5t169 263t261 169.5t332 61z" />
    <glyph glyph-name="A" unicode="A" horiz-adv-x="1262" 
d="M1094 0l-160 442h-606l-160 -442h-145l540 1443h136l539 -1443h-144zM628 1274l-259 -714h524l-259 714h-6z" />
    <glyph glyph-name="B" unicode="B" horiz-adv-x="1217" 
d="M669 0h-534v1443h531q186 0 301.5 -98t115.5 -258q0 -120 -74.5 -212t-189.5 -113v-7q152 -18 245 -114.5t93 -244.5q0 -185 -130 -290.5t-358 -105.5zM271 1322v-520h326q164 0 256 71.5t92 198.5q0 118 -82 184t-226 66h-366zM271 121h380q176 0 271 73.5t95 208.5
t-99.5 208t-285.5 73h-361v-563z" />
    <glyph glyph-name="C" unicode="C" horiz-adv-x="1371" 
d="M720 -23q-295 0 -469 202.5t-174 545.5q0 339 174.5 540t468.5 201q151 0 277.5 -61t207.5 -171t100 -249h-137q-30 156 -155 255t-293 99q-230 0 -366.5 -166.5t-136.5 -447.5q0 -285 136.5 -453t367.5 -168q173 0 294 87t153 236h137q-38 -211 -194 -330.5t-391 -119.5
z" />
    <glyph glyph-name="D" unicode="D" horiz-adv-x="1370" 
d="M135 1443h475q324 0 504 -189.5t180 -531.5q0 -343 -179.5 -532.5t-504.5 -189.5h-475v1443zM272 1319v-1195h330q266 0 409.5 155t143.5 442q0 288 -143.5 443t-409.5 155h-330z" />
    <glyph glyph-name="E" unicode="E" horiz-adv-x="1104" 
d="M1006 124v-124h-871v1443h871v-124h-735v-519h698v-122h-698v-554h735z" />
    <glyph glyph-name="F" unicode="F" horiz-adv-x="1061" 
d="M271 0h-136v1443h856v-124h-720v-542h662v-122h-662v-655z" />
    <glyph glyph-name="G" unicode="G" horiz-adv-x="1409" 
d="M1324 586q0 -286 -159 -447.5t-440 -161.5q-293 0 -470.5 206t-177.5 547q0 335 176.5 535.5t471.5 200.5q227 0 388 -125t202 -332h-142q-44 154 -163.5 242t-284.5 88q-235 0 -371.5 -163.5t-136.5 -445.5q0 -286 138 -456t370 -170q209 0 336 123t127 327v51h-448v120
h584v-139z" />
    <glyph glyph-name="H" unicode="H" horiz-adv-x="1387" 
d="M1252 0h-137v677h-844v-677h-136v1443h136v-642h844v642h137v-1443z" />
    <glyph glyph-name="I" unicode="I" horiz-adv-x="406" 
d="M271 0h-136v1443h136v-1443z" />
    <glyph glyph-name="J" unicode="J" horiz-adv-x="987" 
d="M42 331h135q5 -104 77.5 -169t184.5 -65q132 0 204.5 78t72.5 222v1046h136v-1048q0 -199 -109.5 -312t-303.5 -113q-173 0 -284.5 101t-112.5 260z" />
    <glyph glyph-name="K" unicode="K" horiz-adv-x="1209" 
d="M271 0h-136v1443h136v-748h8l686 748h173l-593 -638l652 -805h-175l-573 708l-178 -193v-515z" />
    <glyph glyph-name="L" unicode="L" horiz-adv-x="1052" 
d="M994 124v-124h-859v1443h136v-1319h723z" />
    <glyph glyph-name="M" unicode="M" horiz-adv-x="1660" 
d="M1525 1443v-1443h-128v1184h-6l-502 -1177h-119l-501 1177h-6v-1184h-128v1443h157l535 -1263h6l534 1263h158z" />
    <glyph glyph-name="N" unicode="N" horiz-adv-x="1393" 
d="M270 0h-135v1443h135l846 -1205h7v1205h135v-1443h-132l-849 1206h-7v-1206z" />
    <glyph glyph-name="O" unicode="O" horiz-adv-x="1465" 
d="M732 1466q302 0 479 -201t177 -544t-177 -543.5t-479 -200.5t-478.5 200.5t-176.5 543.5t177 544t478 201zM732 1339q-237 0 -376 -167t-139 -451t139 -450.5t376 -166.5t376.5 167t139.5 450q0 284 -139.5 451t-376.5 167z" />
    <glyph glyph-name="P" unicode="P" horiz-adv-x="1171" 
d="M135 1443h512q206 0 334.5 -124t128.5 -325t-129 -325.5t-335 -124.5h-375v-544h-136v1443zM271 1321v-655h344q166 0 260.5 87t94.5 241t-94 240.5t-261 86.5h-344z" />
    <glyph glyph-name="Q" unicode="Q" horiz-adv-x="1465" 
d="M1300 -169h-154l-145 198q-122 -52 -269 -52q-302 0 -478.5 200.5t-176.5 543.5t177 544t478 201q302 0 479 -201t177 -544q0 -213 -71.5 -375.5t-204.5 -256.5zM732 104q102 0 190 34l-187 257h154l143 -196q104 77 159.5 211.5t55.5 310.5q0 284 -139 451t-376 167
t-376 -167t-139 -451q0 -283 139.5 -450t375.5 -167z" />
    <glyph glyph-name="R" unicode="R" horiz-adv-x="1199" 
d="M271 1321v-609h369q157 0 244.5 80t87.5 225q0 143 -89.5 223.5t-247.5 80.5h-364zM271 591v-591h-136v1443h516q211 0 336.5 -114.5t125.5 -307.5q0 -153 -82 -262t-227 -146l349 -613h-159l-332 591h-22h-369z" />
    <glyph glyph-name="S" unicode="S" horiz-adv-x="1182" 
d="M65 392h137q11 -130 123 -210.5t281 -80.5q162 0 266.5 79t104.5 201q0 101 -73 164.5t-234 104.5l-179 46q-201 51 -293.5 140t-92.5 231q0 174 140 286.5t354 112.5q210 0 349.5 -111.5t145.5 -283.5h-137q-10 122 -109 196.5t-253 74.5q-151 0 -249.5 -75.5
t-98.5 -194.5q0 -93 71 -151.5t231 -99.5l156 -40q218 -55 315 -145t97 -240q0 -190 -142 -304.5t-381 -114.5q-226 0 -372 114.5t-157 300.5z" />
    <glyph glyph-name="T" unicode="T" horiz-adv-x="1179" 
d="M658 0h-137v1319h-483v124h1103v-124h-483v-1319z" />
    <glyph glyph-name="U" unicode="U" horiz-adv-x="1386" 
d="M271 1443v-931q0 -184 113 -296t309 -112t309 112t113 296v931h137v-939q0 -236 -151 -381.5t-408 -145.5t-407.5 145.5t-150.5 381.5v939h136z" />
    <glyph glyph-name="V" unicode="V" horiz-adv-x="1262" 
d="M699 0h-136l-540 1443h145l460 -1273h6l461 1273h144z" />
    <glyph glyph-name="W" unicode="W" horiz-adv-x="1854" 
d="M923 1209l-355 -1209h-127l-397 1443h142l318 -1233h6l349 1233h136l348 -1233h7l317 1233h143l-398 -1443h-126l-355 1209h-8z" />
    <glyph glyph-name="X" unicode="X" horiz-adv-x="1263" 
d="M44 0l502 722v5l-498 716h165l421 -613h5l424 613h157l-507 -722v-4l499 -717h-164l-419 610h-5l-425 -610h-155z" />
    <glyph glyph-name="Y" unicode="Y" horiz-adv-x="1219" 
d="M678 0h-137v624l-517 819h156l427 -685h5l427 685h156l-517 -819v-624z" />
    <glyph glyph-name="Z" unicode="Z" horiz-adv-x="1224" 
d="M87 0v99l866 1214v6h-838v124h1011v-100l-864 -1213v-6h876v-124h-1051z" />
    <glyph glyph-name="bracketleft" unicode="[" horiz-adv-x="628" 
d="M186 1444h417v-106h-288v-1472h301v-104h-430v1682z" />
    <glyph glyph-name="backslash" unicode="\" horiz-adv-x="559" 
d="M446 -330l-446 1774h116l443 -1774h-113z" />
    <glyph glyph-name="bracketright" unicode="]" horiz-adv-x="628" 
d="M442 1444v-1682h-430v104h302v1472h-288v106h416z" />
    <glyph glyph-name="asciicircum" unicode="^" horiz-adv-x="847" 
d="M418 1304l-231 -494h-130l296 617h141l296 -617h-130l-231 494h-11z" />
    <glyph glyph-name="underscore" unicode="_" horiz-adv-x="819" 
d="M877 -222h-935v100h935v-100z" />
    <glyph glyph-name="grave" unicode="`" horiz-adv-x="899" 
d="M640 1251h-117l-256 301h153z" />
    <glyph glyph-name="a" unicode="a" horiz-adv-x="1048" 
d="M463 104q145 0 242.5 86.5t97.5 214.5v119l-315 -22q-136 -9 -206.5 -60.5t-70.5 -142.5q0 -87 70 -141t182 -54zM437 -12q-161 0 -261 86.5t-100 225.5q0 138 101 216.5t295 92.5l331 22v92q0 118 -71.5 183t-201.5 65q-113 0 -187 -54.5t-92 -150.5h-127
q8 142 122.5 232.5t284.5 90.5q185 0 294.5 -96t109.5 -259v-734h-126v206h-3q-44 -98 -144.5 -158t-224.5 -60z" />
    <glyph glyph-name="b" unicode="b" horiz-adv-x="1154" 
d="M632 -12q-129 0 -227.5 63.5t-146.5 176.5h-3v-228h-126v1506h132v-650h3q47 109 145 171t225 62q203 0 329 -152t126 -398q0 -247 -126.5 -399t-330.5 -152zM610 971q-155 0 -252.5 -121t-97.5 -312t97.5 -311t251.5 -120q155 0 250 118.5t95 313.5q0 194 -94.5 313
t-249.5 119z" />
    <glyph glyph-name="c" unicode="c" horiz-adv-x="1046" 
d="M992 738h-131q-20 103 -103 168t-208 65q-158 0 -254 -118t-96 -314q0 -199 96 -315.5t255 -116.5q124 0 206 59.5t105 165.5h131q-23 -154 -144 -249t-298 -95q-221 0 -353.5 148.5t-132.5 402.5q0 250 132.5 400t351.5 150q182 0 302.5 -101t140.5 -250z" />
    <glyph glyph-name="d" unicode="d" horiz-adv-x="1157" 
d="M526 -12q-203 0 -332 152.5t-129 398.5q0 245 128 397.5t330 152.5q128 0 227 -63.5t143 -169.5h3v650h133v-1506h-126v229h-3q-47 -111 -146 -176t-228 -65zM547 971q-155 0 -251 -119t-96 -313t96 -313t251 -119t252.5 120t97.5 312q0 191 -97.5 311.5t-252.5 120.5z
" />
    <glyph glyph-name="e" unicode="e" horiz-adv-x="1075" 
d="M543 972q-145 0 -238.5 -98.5t-102.5 -259.5h670q-2 161 -92.5 259.5t-236.5 98.5zM865 305h131q-24 -139 -146.5 -228t-296.5 -89q-224 0 -356 147.5t-132 400.5q0 251 131.5 402t348.5 151q212 0 338.5 -142.5t126.5 -382.5v-58h-808v-7q0 -182 96.5 -288t257.5 -106
q119 0 202 55t107 145z" />
    <glyph glyph-name="f" unicode="f" horiz-adv-x="589" 
d="M173 0v966h-150v111h150v123q0 141 65.5 206.5t200.5 65.5q49 0 89 -9v-111q-35 8 -78 8q-73 0 -108 -38t-36 -124v-121h219v-111h-219v-966h-133z" />
    <glyph glyph-name="g" unicode="g" horiz-adv-x="1144" 
d="M543 114q156 0 253 118.5t97 308.5q0 191 -97 310.5t-253 119.5q-154 0 -248.5 -118t-94.5 -312q0 -193 94 -310t249 -117zM552 -375q-178 0 -296 76t-138 200h138q20 -73 102 -116.5t202 -43.5q151 0 242 72.5t91 196.5v219h-3q-46 -106 -144.5 -170t-225.5 -64
q-203 0 -329 151t-126 395q0 247 126 397.5t332 150.5q127 0 226.5 -64t147.5 -171h2v223h126v-1057q0 -184 -128 -289.5t-345 -105.5z" />
    <glyph glyph-name="h" unicode="h" horiz-adv-x="1118" 
d="M129 0v1506h132v-630h3q46 102 137 157.5t219 55.5q176 0 280.5 -109t104.5 -290v-690h-132v669q0 142 -76.5 222t-213.5 80q-146 0 -234 -94.5t-88 -248.5v-628h-132z" />
    <glyph glyph-name="i" unicode="i" horiz-adv-x="390" 
d="M129 0v1077h132v-1077h-132zM195 1290q-37 0 -63.5 26.5t-26.5 62.5q0 37 26.5 63.5t63.5 26.5t63 -26.5t26 -63.5q0 -36 -26 -62.5t-63 -26.5z" />
    <glyph glyph-name="j" unicode="j" horiz-adv-x="390" 
d="M261 1077v-1145q0 -156 -74.5 -227.5t-233.5 -71.5h-31v113h27q97 0 138.5 42t41.5 140v1149h132zM195 1290q-37 0 -63.5 26.5t-26.5 62.5q0 37 26.5 63.5t63.5 26.5t63 -26.5t26 -63.5q0 -36 -26 -62.5t-63 -26.5z" />
    <glyph glyph-name="k" unicode="k" horiz-adv-x="988" 
d="M262 565l537 512h164l-486 -465l496 -612h-156l-434 531l-122 -111v-420h-132v1506h132v-941h1z" />
    <glyph glyph-name="l" unicode="l" horiz-adv-x="390" 
d="M129 0v1506h132v-1506h-132z" />
    <glyph glyph-name="m" unicode="m" horiz-adv-x="1677" 
d="M119 0v1077h124v-201h4q35 97 118 155t196 58q115 0 197.5 -61t113.5 -165h3q39 102 130.5 164t210.5 62q158 0 253 -97.5t95 -260.5v-731h-133v701q0 126 -66.5 198t-184.5 72q-120 0 -196.5 -83.5t-76.5 -214.5v-673h-132v714q0 115 -69 186t-180 71q-120 0 -197.5 -88
t-77.5 -226v-657h-132z" />
    <glyph glyph-name="n" unicode="n" horiz-adv-x="1097" 
d="M119 0v1077h124v-201h4q46 102 136 157.5t219 55.5q177 0 279.5 -106.5t102.5 -289.5v-693h-132v672q0 143 -75 221t-212 78q-143 0 -228.5 -93t-85.5 -245v-633h-132z" />
    <glyph glyph-name="o" unicode="o" horiz-adv-x="1109" 
d="M554 -12q-222 0 -355.5 149.5t-133.5 401.5q0 251 133.5 400.5t355.5 149.5q223 0 356.5 -149.5t133.5 -400.5t-133.5 -401t-356.5 -150zM554 107q165 0 260 115.5t95 316.5t-95 316.5t-260 115.5q-164 0 -259 -115.5t-95 -316.5t95 -316.5t259 -115.5z" />
    <glyph glyph-name="p" unicode="p" horiz-adv-x="1144" 
d="M620 1089q204 0 331.5 -152t127.5 -398t-126.5 -398.5t-330.5 -152.5q-127 0 -224.5 63.5t-143.5 170.5h-3v-579h-132v1434h125v-223h3q43 104 145 169.5t228 65.5zM597 107q156 0 251.5 118.5t95.5 312.5t-95.5 313.5t-251.5 119.5q-154 0 -250.5 -120.5t-96.5 -311.5
q0 -192 96.5 -312t250.5 -120z" />
    <glyph glyph-name="q" unicode="q" horiz-adv-x="1147" 
d="M525 1089q130 0 229.5 -63.5t145.5 -171.5h3v223h126v-1434h-133v579h-3q-46 -107 -145 -170.5t-226 -63.5q-203 0 -330 152.5t-127 398.5t127.5 398t332.5 152zM545 107q155 0 253 120t98 312q0 191 -98 311.5t-253 120.5t-250 -119t-95 -314t95 -313t250 -118z" />
    <glyph glyph-name="r" unicode="r" horiz-adv-x="634" 
d="M119 0v1077h124v-191h4q28 96 100 149.5t173 53.5q47 0 84 -11v-131q-34 15 -102 15q-114 0 -182.5 -81.5t-68.5 -212.5v-668h-132z" />
    <glyph glyph-name="s" unicode="s" horiz-adv-x="958" 
d="M97 787q0 133 109.5 217.5t277.5 84.5q163 0 271 -88t116 -227h-127q-10 92 -80.5 147.5t-183.5 55.5q-109 0 -180.5 -51t-71.5 -132q0 -65 48.5 -106t152.5 -67l165 -40q162 -41 230 -105.5t68 -179.5q0 -136 -116.5 -222t-298.5 -86q-172 0 -286.5 88.5t-125.5 226.5
h134q12 -93 88.5 -148.5t197.5 -55.5q122 0 197.5 51.5t75.5 136.5q0 69 -46 109.5t-155 67.5l-182 46q-140 35 -209 103t-69 174z" />
    <glyph glyph-name="t" unicode="t" horiz-adv-x="598" 
d="M177 1335h132v-258h213v-111h-213v-696q0 -84 34.5 -122t109.5 -38q42 0 74 4v-113q-24 -7 -100 -7q-134 0 -192 63t-58 208v701h-154v111h154v258z" />
    <glyph glyph-name="u" unicode="u" horiz-adv-x="1097" 
d="M979 1077v-1077h-125v202h-3q-45 -100 -138.5 -157t-219.5 -57q-176 0 -278 106.5t-102 288.5v694h132v-672q0 -144 74 -221t211 -77q142 0 229 92.5t87 244.5v633h133z" />
    <glyph glyph-name="v" unicode="v" horiz-adv-x="977" 
d="M960 1077l-401 -1077h-140l-402 1077h139l331 -936h3l332 936h138z" />
    <glyph glyph-name="w" unicode="w" horiz-adv-x="1477" 
d="M1456 1077l-307 -1077h-139l-270 897h-3l-270 -897h-139l-307 1077h133l244 -927h3l270 927h134l271 -927h3l244 927h133z" />
    <glyph glyph-name="x" unicode="x" horiz-adv-x="950" 
d="M476 444h-4l-298 -444h-150l380 542l-376 535h150l299 -434h3l296 434h150l-377 -530l374 -547h-150z" />
    <glyph glyph-name="y" unicode="y" horiz-adv-x="980" 
d="M197 -381q-29 0 -66 7v114q28 -7 64 -7q74 0 118.5 41.5t82.5 145.5l26 73l-405 1084h142l330 -943h3l331 943h140l-423 -1136q-70 -189 -141 -255.5t-202 -66.5z" />
    <glyph glyph-name="z" unicode="z" horiz-adv-x="963" 
d="M83 0v100l645 864v2h-645v111h796v-101l-644 -862v-3h646v-111h-798z" />
    <glyph glyph-name="braceleft" unicode="{" horiz-adv-x="717" 
d="M256 607q175 -16 175 -233v-360q0 -119 58 -174.5t183 -55.5h53v-109h-56q-188 0 -276 82t-88 258v309q0 121 -39 168.5t-138 47.5v158q99 0 138 48t39 170v268q0 172 87.5 251.5t276.5 79.5h56v-109h-53q-127 0 -184 -54.5t-57 -176.5v-313q0 -215 -175 -231v-24z" />
    <glyph glyph-name="bar" unicode="|" horiz-adv-x="407" 
d="M260 -328h-113v1771h113v-1771z" />
    <glyph glyph-name="braceright" unicode="}" horiz-adv-x="717" 
d="M461 607v24q-175 16 -175 231v313q0 122 -57 176.5t-184 54.5h-54v109h56q190 0 277.5 -79.5t87.5 -251.5v-268q0 -122 39 -170t137 -48v-158q-99 0 -137.5 -47t-38.5 -169v-309q0 -176 -88.5 -258t-276.5 -82h-56v109h54q125 0 183 55.5t58 174.5v360q0 217 175 233z
" />
    <glyph glyph-name="asciitilde" unicode="~" horiz-adv-x="1219" 
d="M570 650q-60 59 -97.5 82t-75.5 23q-67 0 -106.5 -51.5t-44.5 -144.5h-123q0 148 74.5 235t202.5 87q60 0 115 -28.5t126 -96.5q58 -57 98 -80.5t78 -23.5q68 0 110 53t46 147h123q0 -147 -77 -236.5t-204 -89.5q-64 0 -119 28t-126 96z" />
    <glyph glyph-name="nonbreakingspace" unicode="&#xa0;" horiz-adv-x="454" 
 />
    <glyph glyph-name="exclamdown" unicode="&#xa1;" horiz-adv-x="531" 
d="M196 -340l9 986h121l8 -986h-138zM265 923q-40 0 -67.5 28t-27.5 68t27.5 67.5t67.5 27.5q41 0 68.5 -27.5t27.5 -67.5t-28 -68t-68 -28z" />
    <glyph glyph-name="cent" unicode="&#xa2;" horiz-adv-x="1219" 
d="M1107 512q-19 -145 -134.5 -242.5t-280.5 -111.5v-187h-131v189q-203 23 -326.5 173t-123.5 381q0 229 124 377.5t326 171.5v183h131v-182q165 -14 282.5 -115.5t133.5 -244.5h-133q-22 113 -117.5 179t-229.5 66q-167 0 -274.5 -120t-107.5 -315q0 -196 107.5 -318.5
t274.5 -122.5q140 0 232.5 60.5t113.5 178.5h133z" />
    <glyph glyph-name="sterling" unicode="&#xa3;" horiz-adv-x="1219" 
d="M307 118h841v-118h-1064v117q143 34 236 129t93 223q0 81 -37 196h-277v112h236q-22 60 -34.5 98t-23.5 93t-11 103q0 188 130.5 296.5t362.5 108.5q94 0 177 -16t131 -40v-123q-41 24 -125 40.5t-177 16.5q-170 0 -265 -75.5t-95 -204.5q0 -48 11 -104t23.5 -93.5
l34.5 -99.5h470v-112h-431q34 -105 34 -191q0 -67 -21 -125t-56.5 -101t-75.5 -73.5t-87 -52.5v-4z" />
    <glyph glyph-name="currency" unicode="&#xa4;" horiz-adv-x="1219" 
d="M325 656q0 -118 83.5 -202t201.5 -84t202 84t84 202t-84 202t-202 84t-201.5 -84t-83.5 -202zM1088 1052l-167 -168q75 -102 75 -228q0 -128 -76 -229l168 -168l-83 -82l-167 168q-102 -75 -228 -75t-228 75l-169 -168l-82 82l169 169q-75 102 -75 228t75 228l-169 168
l82 82l168 -168q101 76 229 76q127 0 229 -75l166 167z" />
    <glyph glyph-name="yen" unicode="&#xa5;" horiz-adv-x="1219" 
d="M982 310h-304v-310h-136v310h-305v105h305v184h-305v106h259l-472 738h157l426 -675h6l425 675h157l-471 -738h258v-106h-304v-184h304v-105z" />
    <glyph glyph-name="brokenbar" unicode="&#xa6;" horiz-adv-x="408" 
d="M261 765h-113v678h113v-678zM261 -328h-113v680h113v-680z" />
    <glyph glyph-name="section" unicode="&#xa7;" horiz-adv-x="973" 
d="M427 380l81 -18q108 1 179 61t71 149q0 147 -211 193l-81 18q-107 -1 -179 -61.5t-72 -148.5q0 -145 212 -193zM492 -250q-167 0 -278 79.5t-122 207.5h134q12 -79 87 -126.5t185 -47.5q113 0 184.5 51t71.5 131q0 67 -53 110.5t-169 72.5l-129 33q-167 43 -245 112.5
t-78 175.5q0 99 64 169t178 97v12q-230 79 -230 268q0 133 108 216.5t279 83.5q164 0 270 -75.5t123 -203.5h-132q-12 76 -83.5 121.5t-179.5 45.5q-112 0 -182.5 -50.5t-70.5 -130.5q0 -67 52.5 -111t167.5 -73l130 -34q165 -42 242 -110t77 -172t-72.5 -181t-190.5 -99
v-12q254 -60 254 -257q0 -133 -110 -218t-282 -85z" />
    <glyph glyph-name="dieresis" unicode="&#xa8;" horiz-adv-x="898" 
d="M271 1259q-38 0 -65.5 27.5t-27.5 64.5q0 38 27.5 65.5t65.5 27.5t65.5 -27.5t27.5 -65.5t-27.5 -65t-65.5 -27zM627 1259q-38 0 -65.5 27t-27.5 65t27.5 65.5t65.5 27.5t65.5 -27.5t27.5 -65.5t-27.5 -65t-65.5 -27z" />
    <glyph glyph-name="copyright" unicode="&#xa9;" horiz-adv-x="1717" 
d="M859 -158q-163 0 -308 60.5t-249 164t-165 249.5t-61 310q0 165 61 311t165 249.5t249 163.5t308 60t308 -60t249.5 -163.5t165 -249.5t60.5 -311q0 -164 -60.5 -310t-165 -250t-249.5 -164t-308 -60zM859 -49q140 0 264.5 51.5t214.5 140.5t142 215t52 268
q0 191 -89 346t-243 242t-341 87q-140 0 -264.5 -51.5t-214.5 -140t-142.5 -214.5t-52.5 -269q0 -142 52.5 -268t142.5 -215t214.5 -140.5t264.5 -51.5zM1225 780h-108q-21 77 -86 126t-163 49q-128 0 -206 -87.5t-78 -237.5q0 -153 78 -242t206 -89q99 0 164 45.5t84 123.5
h109q-20 -119 -114.5 -192.5t-242.5 -73.5q-178 0 -286.5 115.5t-108.5 312.5q0 194 108.5 308.5t286.5 114.5q146 0 241.5 -78.5t115.5 -194.5z" />
    <glyph glyph-name="ordfeminine" unicode="&#xaa;" horiz-adv-x="709" 
d="M316 810q89 0 149.5 53t60.5 131v74l-196 -13q-170 -14 -170 -126q0 -53 43 -86t113 -33zM287 719q-107 0 -173.5 57.5t-66.5 150.5q0 94 68.5 147t199.5 61l211 14v58q0 72 -44.5 111.5t-124.5 39.5q-70 0 -115.5 -33.5t-55.5 -92.5h-106q5 97 83 158.5t197 61.5
q127 0 202.5 -64t75.5 -173v-489h-109v132h-2q-28 -63 -94 -101t-146 -38z" />
    <glyph glyph-name="guillemotleft" unicode="&#xab;" horiz-adv-x="1252" 
d="M752 572v-12l357 -411h-157l-359 414v6l359 414h157zM301 572v-12l357 -411h-157l-358 414v6l358 414h157z" />
    <glyph glyph-name="logicalnot" unicode="&#xac;" horiz-adv-x="1219" 
d="M1086 677v-532h-115v418h-838v114h953z" />
    <glyph glyph-name="registered" unicode="&#xae;" horiz-adv-x="1132" 
d="M566 617q-191 0 -324 131t-133 320q0 188 133 319t324 131t324 -130.5t133 -319.5t-133 -320t-324 -131zM566 699q155 0 262 107t107 262t-107 262t-262 107q-154 0 -261.5 -107.5t-107.5 -261.5t107.5 -261.5t261.5 -107.5zM470 854h-76v449h202q68 0 111 -38.5
t43 -98.5q0 -53 -28 -87.5t-79 -44.5l129 -180h-94l-115 170h-93v-170zM470 1237v-152h110q42 0 65 20.5t23 57.5q0 74 -87 74h-111z" />
    <glyph glyph-name="macron" unicode="&#xaf;" horiz-adv-x="938" 
d="M778 1400v-85h-618v85h618z" />
    <glyph glyph-name="degree" unicode="&#xb0;" horiz-adv-x="729" 
d="M364 831q-115 0 -195.5 81t-80.5 197q0 115 80.5 196t195.5 81t196 -81t81 -196t-81 -196.5t-196 -81.5zM364 932q74 0 126 52t52 125q0 74 -52 125.5t-126 51.5q-72 0 -124.5 -52t-52.5 -125q0 -72 52.5 -124.5t124.5 -52.5z" />
    <glyph glyph-name="plusminus" unicode="&#xb1;" horiz-adv-x="1219" 
d="M1110 112h-1001v114h1001v-114zM666 671v-317h-113v317h-444v105h444v309h113v-309h444v-105h-444z" />
    <glyph glyph-name="two.sups" unicode="&#xb2;" horiz-adv-x="595" 
d="M53 1597q0 94 67.5 153.5t174.5 59.5q105 0 170.5 -54t65.5 -140q0 -53 -28.5 -101t-101.5 -120l-178 -175v-3h322v-98h-486v84l256 249q54 55 75 88.5t21 67.5q0 47 -34 76.5t-87 29.5q-52 0 -87 -33.5t-35 -83.5v-3h-115v3z" />
    <glyph glyph-name="three.sups" unicode="&#xb3;" horiz-adv-x="613" 
d="M216 1423v88h82q54 0 87 28.5t33 75.5q0 44 -33 72t-87 28q-53 0 -87.5 -29.5t-36.5 -76.5h-114q3 91 69.5 146t173.5 55q103 0 168 -50t65 -129q0 -61 -38 -104t-103 -54v-3q77 -6 122.5 -50.5t45.5 -113.5q0 -89 -73 -145t-190 -56q-111 0 -180 56.5t-73 147.5h118
q3 -47 40 -76t96 -29t97 31t38 79q0 50 -37 79.5t-101 29.5h-82z" />
    <glyph glyph-name="acute" unicode="&#xb4;" horiz-adv-x="899" 
d="M375 1251h-117l220 301h153z" />
    <glyph glyph-name="paragraph" unicode="&#xb6;" horiz-adv-x="1186" 
d="M760 -195h-136v770h-20q-205 0 -339.5 122t-134.5 307q0 193 133.5 316t341.5 123h155v-1638zM919 -195v1638h137v-1638h-137z" />
    <glyph glyph-name="periodcentered" unicode="&#xb7;" horiz-adv-x="509" 
d="M255 507q-40 0 -67.5 27.5t-27.5 67.5t27.5 67.5t67.5 27.5q41 0 68 -27.5t27 -67.5t-27.5 -67.5t-67.5 -27.5z" />
    <glyph glyph-name="cedilla" unicode="&#xb8;" horiz-adv-x="899" 
d="M319 -214v60l65 161l87 -7l-54 -141q101 0 154.5 -39.5t53.5 -112.5q0 -76 -61.5 -124.5t-156.5 -49.5q-84 0 -139 17v80q41 -16 122 -16q63 0 100 24.5t37 65.5q0 82 -155 82h-53z" />
    <glyph glyph-name="one.sups" unicode="&#xb9;" horiz-adv-x="470" 
d="M245 1119v568h-3l-178 -121v111l177 120h121v-678h-117z" />
    <glyph glyph-name="ordmasculine" unicode="&#xba;" horiz-adv-x="748" 
d="M374 717q-152 0 -242.5 99.5t-90.5 268.5t91 268t242 99q152 0 242.5 -99t90.5 -268t-90.5 -268.5t-242.5 -99.5zM374 812q101 0 159.5 73t58.5 200t-58.5 199.5t-159.5 72.5t-159 -72.5t-58 -199.5t58 -200t159 -73z" />
    <glyph glyph-name="guillemotright" unicode="&#xbb;" horiz-adv-x="1251" 
d="M500 572l-357 411h157l358 -414v-6l-358 -414h-157l357 411v12zM950 572l-357 411h157l359 -414v-6l-359 -414h-157l357 411v12z" />
    <glyph glyph-name="onequarter" unicode="&#xbc;" horiz-adv-x="1433" 
d="M1187 0v130h-339v106q89 158 284 442h174v-449h92v-99h-92v-130h-119zM958 228v-2h232v363h-2q-156 -230 -230 -361zM252 765v568h-3l-178 -121v111l177 120h121v-678h-117zM226 0h-136l1065 1443h134z" />
    <glyph glyph-name="onehalf" unicode="&#xbd;" horiz-adv-x="1439" 
d="M910 478q0 94 67.5 153.5t174.5 59.5q105 0 170.5 -54t65.5 -140q0 -53 -28.5 -101t-101.5 -120l-178 -175v-3h322v-98h-486v84l256 249q54 55 75 88.5t21 67.5q0 47 -34 76.5t-87 29.5q-52 0 -87 -33.5t-35 -83.5v-3h-115v3zM252 765v568h-3l-178 -121v111l177 120h121
v-678h-117zM226 0h-136l1065 1443h134z" />
    <glyph glyph-name="threequarters" unicode="&#xbe;" horiz-adv-x="1524" 
d="M213 1069v88h82q54 0 87 28.5t33 75.5q0 44 -33 72t-87 28q-53 0 -87.5 -29.5t-36.5 -76.5h-114q3 91 69.5 146t173.5 55q103 0 168 -50t65 -129q0 -61 -38 -104t-103 -54v-3q77 -6 122.5 -50.5t45.5 -113.5q0 -89 -73 -145t-190 -56q-111 0 -180 56.5t-73 147.5h118
q3 -47 40 -76t96 -29t97 31t38 79q0 50 -37 79.5t-101 29.5h-82zM1278 0v130h-339v106q89 158 284 442h174v-449h92v-99h-92v-130h-119zM1049 228v-2h232v363h-2q-156 -230 -230 -361zM330 0h-136l1065 1443h134z" />
    <glyph glyph-name="questiondown" unicode="&#xbf;" horiz-adv-x="972" 
d="M914 19q-9 -165 -120.5 -271.5t-298.5 -106.5q-180 0 -295 102t-115 257q0 107 52.5 189.5t157.5 151.5q98 63 133 115t35 136v75h133v-94q1 -98 -44.5 -167.5t-152.5 -139.5q-94 -62 -133.5 -121t-39.5 -138q0 -108 76.5 -177.5t197.5 -69.5q120 0 197 70t87 189h130z
M519 923q-40 0 -67.5 28t-27.5 68t27.5 67.5t67.5 27.5q41 0 68 -27t27 -68q0 -40 -27.5 -68t-67.5 -28z" />
    <glyph glyph-name="Agrave" unicode="&#xc0;" horiz-adv-x="1262" 
d="M1094 0l-160 442h-606l-160 -442h-145l540 1443h136l539 -1443h-144zM628 1274l-259 -714h524l-259 714h-6zM576 1551l-289 295h154l252 -295h-117z" />
    <glyph glyph-name="Aacute" unicode="&#xc1;" horiz-adv-x="1262" 
d="M1094 0l-160 442h-606l-160 -442h-145l540 1443h136l539 -1443h-144zM628 1274l-259 -714h524l-259 714h-6zM688 1551h-117l252 295h154z" />
    <glyph glyph-name="Acircumflex" unicode="&#xc2;" horiz-adv-x="1262" 
d="M1094 0l-160 442h-606l-160 -442h-145l540 1443h136l539 -1443h-144zM628 1274l-259 -714h524l-259 714h-6zM576 1846h110l283 -295h-131l-206 217h-2l-206 -217h-131z" />
    <glyph glyph-name="Atilde" unicode="&#xc3;" horiz-adv-x="1262" 
d="M1094 0l-160 442h-606l-160 -442h-145l540 1443h136l539 -1443h-144zM628 1274l-259 -714h524l-259 714h-6zM762 1541q-36 0 -67.5 16t-54.5 39.5l-44 46.5t-44.5 39t-47.5 16q-38 0 -58 -38t-20 -106h-91q0 109 43.5 171.5t122.5 62.5q46 0 86 -24.5t64 -54t54 -54
t57 -24.5q73 0 73 144h91q0 -107 -43.5 -170.5t-120.5 -63.5z" />
    <glyph glyph-name="Adieresis" unicode="&#xc4;" horiz-adv-x="1262" 
d="M1094 0l-160 442h-606l-160 -442h-145l540 1443h136l539 -1443h-144zM628 1274l-259 -714h524l-259 714h-6zM453 1576q-38 0 -65.5 27.5t-27.5 64.5q0 38 27.5 65.5t65.5 27.5t65.5 -27.5t27.5 -65.5t-27.5 -65t-65.5 -27zM809 1576q-38 0 -65.5 27t-27.5 65t27.5 65.5
t65.5 27.5t65.5 -27.5t27.5 -65.5t-27.5 -65t-65.5 -27z" />
    <glyph glyph-name="Aring" unicode="&#xc5;" horiz-adv-x="1262" 
d="M1094 0l-160 442h-606l-160 -442h-145l540 1443h136l539 -1443h-144zM628 1274l-259 -714h524l-259 714h-6zM631 1507q-77 0 -132.5 55.5t-55.5 132.5t55.5 132t132.5 55t132.5 -55t55.5 -132t-55.5 -132.5t-132.5 -55.5zM631 1575q50 0 84.5 35t34.5 85q0 49 -35 84
t-84 35t-84 -35t-35 -84q0 -50 34.5 -85t84.5 -35z" />
    <glyph glyph-name="AE" unicode="&#xc6;" horiz-adv-x="1941" 
d="M808 1327l-374 -766h544v766h-170zM978 0v443h-600l-214 -443h-141l702 1443h1091v-124h-702v-526h665v-122h-665v-547h702v-124h-838z" />
    <glyph glyph-name="Ccedilla" unicode="&#xc7;" horiz-adv-x="1371" 
d="M1305 985h-137q-30 156 -155 255t-293 99q-230 0 -366.5 -166.5t-136.5 -447.5q0 -285 136.5 -453t367.5 -168q173 0 294 87t153 236h137q-37 -200 -180 -318.5t-360 -130.5l-46 -119q101 0 154.5 -39.5t53.5 -112.5q0 -76 -61.5 -124.5t-156.5 -49.5q-84 0 -139 17v80
q41 -16 122 -16q63 0 100 24.5t37 65.5q0 82 -155 82h-53v60l53 132q-275 17 -436 217.5t-161 529.5q0 339 174.5 540t468.5 201q151 0 277.5 -61t207.5 -171t100 -249z" />
    <glyph glyph-name="Egrave" unicode="&#xc8;" horiz-adv-x="1104" 
d="M515 1551l-289 295h154l252 -295h-117zM1006 124v-124h-871v1443h871v-124h-735v-519h698v-122h-698v-554h735z" />
    <glyph glyph-name="Eacute" unicode="&#xc9;" horiz-adv-x="1104" 
d="M627 1551h-117l252 295h154zM1006 124v-124h-871v1443h871v-124h-735v-519h698v-122h-698v-554h735z" />
    <glyph glyph-name="Ecircumflex" unicode="&#xca;" horiz-adv-x="1104" 
d="M515 1846h110l283 -295h-131l-206 217h-2l-206 -217h-131zM1006 124v-124h-871v1443h871v-124h-735v-519h698v-122h-698v-554h735z" />
    <glyph glyph-name="Edieresis" unicode="&#xcb;" horiz-adv-x="1104" 
d="M392 1576q-38 0 -65.5 27.5t-27.5 64.5q0 38 27.5 65.5t65.5 27.5t65.5 -27.5t27.5 -65.5t-27.5 -65t-65.5 -27zM748 1576q-38 0 -65.5 27t-27.5 65t27.5 65.5t65.5 27.5t65.5 -27.5t27.5 -65.5t-27.5 -65t-65.5 -27zM1006 124v-124h-871v1443h871v-124h-735v-519h698
v-122h-698v-554h735z" />
    <glyph glyph-name="Igrave" unicode="&#xcc;" horiz-adv-x="406" 
d="M271 0h-136v1443h136v-1443zM148 1551l-289 295h154l252 -295h-117z" />
    <glyph glyph-name="Iacute" unicode="&#xcd;" horiz-adv-x="406" 
d="M271 0h-136v1443h136v-1443zM260 1551h-117l252 295h154z" />
    <glyph glyph-name="Icircumflex" unicode="&#xce;" horiz-adv-x="406" 
d="M271 0h-136v1443h136v-1443zM148 1846h110l283 -295h-131l-206 217h-2l-206 -217h-131z" />
    <glyph glyph-name="Idieresis" unicode="&#xcf;" horiz-adv-x="406" 
d="M271 0h-136v1443h136v-1443zM25 1576q-38 0 -65.5 27.5t-27.5 64.5q0 38 27.5 65.5t65.5 27.5t65.5 -27.5t27.5 -65.5t-27.5 -65t-65.5 -27zM381 1576q-38 0 -65.5 27t-27.5 65t27.5 65.5t65.5 27.5t65.5 -27.5t27.5 -65.5t-27.5 -65t-65.5 -27z" />
    <glyph glyph-name="Eth" unicode="&#xd0;" horiz-adv-x="1385" 
d="M287 124h330q266 0 409.5 155t143.5 442q0 288 -143.5 443t-409.5 155h-330v-514h312v-124h-312v-557zM150 1443h475q324 0 504 -189.5t180 -531.5q0 -343 -179.5 -532.5t-504.5 -189.5h-475v681h-126v124h126v638z" />
    <glyph glyph-name="Ntilde" unicode="&#xd1;" horiz-adv-x="1393" 
d="M827 1541q-36 0 -67.5 16t-54.5 39.5l-44 46.5t-44.5 39t-47.5 16q-38 0 -58 -38t-20 -106h-91q0 109 43.5 171.5t122.5 62.5q46 0 86 -24.5t64 -54t54 -54t57 -24.5q73 0 73 144h91q0 -107 -43.5 -170.5t-120.5 -63.5zM270 0h-135v1443h135l846 -1205h7v1205h135v-1443
h-132l-849 1206h-7v-1206z" />
    <glyph glyph-name="Ograve" unicode="&#xd2;" horiz-adv-x="1465" 
d="M677 1551l-289 295h154l252 -295h-117zM732 1466q302 0 479 -201t177 -544t-177 -543.5t-479 -200.5t-478.5 200.5t-176.5 543.5t177 544t478 201zM732 1339q-237 0 -376 -167t-139 -451t139 -450.5t376 -166.5t376.5 167t139.5 450q0 284 -139.5 451t-376.5 167z" />
    <glyph glyph-name="Oacute" unicode="&#xd3;" horiz-adv-x="1465" 
d="M789 1551h-117l252 295h154zM732 1466q302 0 479 -201t177 -544t-177 -543.5t-479 -200.5t-478.5 200.5t-176.5 543.5t177 544t478 201zM732 1339q-237 0 -376 -167t-139 -451t139 -450.5t376 -166.5t376.5 167t139.5 450q0 284 -139.5 451t-376.5 167z" />
    <glyph glyph-name="Ocircumflex" unicode="&#xd4;" horiz-adv-x="1465" 
d="M677 1846h110l283 -295h-131l-206 217h-2l-206 -217h-131zM732 1466q302 0 479 -201t177 -544t-177 -543.5t-479 -200.5t-478.5 200.5t-176.5 543.5t177 544t478 201zM732 1339q-237 0 -376 -167t-139 -451t139 -450.5t376 -166.5t376.5 167t139.5 450q0 284 -139.5 451
t-376.5 167z" />
    <glyph glyph-name="Otilde" unicode="&#xd5;" horiz-adv-x="1465" 
d="M732 1466q302 0 479 -201t177 -544t-177 -543.5t-479 -200.5t-478.5 200.5t-176.5 543.5t177 544t478 201zM732 1339q-237 0 -376 -167t-139 -451t139 -450.5t376 -166.5t376.5 167t139.5 450q0 284 -139.5 451t-376.5 167zM863 1541q-36 0 -67.5 16t-54.5 39.5l-44 46.5
t-44.5 39t-47.5 16q-38 0 -58 -38t-20 -106h-91q0 109 43.5 171.5t122.5 62.5q46 0 86 -24.5t64 -54t54 -54t57 -24.5q73 0 73 144h91q0 -107 -43.5 -170.5t-120.5 -63.5z" />
    <glyph glyph-name="Odieresis" unicode="&#xd6;" horiz-adv-x="1465" 
d="M554 1576q-38 0 -65.5 27.5t-27.5 64.5q0 38 27.5 65.5t65.5 27.5t65.5 -27.5t27.5 -65.5t-27.5 -65t-65.5 -27zM910 1576q-38 0 -65.5 27t-27.5 65t27.5 65.5t65.5 27.5t65.5 -27.5t27.5 -65.5t-27.5 -65t-65.5 -27zM732 1466q302 0 479 -201t177 -544t-177 -543.5
t-479 -200.5t-478.5 200.5t-176.5 543.5t177 544t478 201zM732 1339q-237 0 -376 -167t-139 -451t139 -450.5t376 -166.5t376.5 167t139.5 450q0 284 -139.5 451t-376.5 167z" />
    <glyph glyph-name="multiply" unicode="&#xd7;" horiz-adv-x="1219" 
d="M610 499l-314 -314l-81 80l314 315l-314 314l81 81l314 -314l313 313l81 -80l-313 -314l313 -314l-81 -81z" />
    <glyph glyph-name="Oslash" unicode="&#xd8;" horiz-adv-x="1465" 
d="M1135 1137l-716 -929q129 -104 313 -104q237 0 376.5 167t139.5 450q0 253 -113 416zM350 278l723 933q-136 128 -341 128q-237 0 -376 -167t-139 -451q0 -278 133 -443zM1363 1432l-140 -182q165 -199 165 -529q0 -343 -177 -543.5t-479 -200.5q-233 0 -396 124
l-126 -164l-79 59l132 171q-186 202 -186 554q0 343 177 544t478 201q255 0 424 -147l130 167z" />
    <glyph glyph-name="Ugrave" unicode="&#xd9;" horiz-adv-x="1386" 
d="M638 1551l-289 295h154l252 -295h-117zM271 1443v-931q0 -184 113 -296t309 -112t309 112t113 296v931h137v-939q0 -236 -151 -381.5t-408 -145.5t-407.5 145.5t-150.5 381.5v939h136z" />
    <glyph glyph-name="Uacute" unicode="&#xda;" horiz-adv-x="1386" 
d="M750 1551h-117l252 295h154zM271 1443v-931q0 -184 113 -296t309 -112t309 112t113 296v931h137v-939q0 -236 -151 -381.5t-408 -145.5t-407.5 145.5t-150.5 381.5v939h136z" />
    <glyph glyph-name="Ucircumflex" unicode="&#xdb;" horiz-adv-x="1386" 
d="M638 1846h110l283 -295h-131l-206 217h-2l-206 -217h-131zM271 1443v-931q0 -184 113 -296t309 -112t309 112t113 296v931h137v-939q0 -236 -151 -381.5t-408 -145.5t-407.5 145.5t-150.5 381.5v939h136z" />
    <glyph glyph-name="Udieresis" unicode="&#xdc;" horiz-adv-x="1386" 
d="M515 1576q-38 0 -65.5 27.5t-27.5 64.5q0 38 27.5 65.5t65.5 27.5t65.5 -27.5t27.5 -65.5t-27.5 -65t-65.5 -27zM871 1576q-38 0 -65.5 27t-27.5 65t27.5 65.5t65.5 27.5t65.5 -27.5t27.5 -65.5t-27.5 -65t-65.5 -27zM271 1443v-931q0 -184 113 -296t309 -112t309 112
t113 296v931h137v-939q0 -236 -151 -381.5t-408 -145.5t-407.5 145.5t-150.5 381.5v939h136z" />
    <glyph glyph-name="Yacute" unicode="&#xdd;" horiz-adv-x="1219" 
d="M678 0h-137v624l-517 819h156l427 -685h5l427 685h156l-517 -819v-624zM666 1551h-117l252 295h154z" />
    <glyph glyph-name="Thorn" unicode="&#xde;" horiz-adv-x="1222" 
d="M161 1443h137v-274h386q184 0 307.5 -111t123.5 -299q0 -126 -58.5 -220.5t-156 -142.5t-217.5 -48h-385v-348h-137v1443zM298 1046v-576h352q149 0 237 75.5t88 213.5q0 137 -88 212t-237 75h-352z" />
    <glyph glyph-name="germandbls" unicode="&#xdf;" horiz-adv-x="1174" 
d="M292 0h-131v1089q0 178 108.5 282.5t293.5 104.5q178 0 290 -100.5t112 -260.5q0 -126 -67 -220t-175 -124v-4q163 -20 258.5 -118.5t95.5 -251.5q0 -183 -125.5 -298t-325.5 -115q-86 0 -156 14v119q62 -16 147 -16q145 0 237 82.5t92 214.5q0 137 -101 217t-273 80h-77
v129h70q121 0 196 79t75 206q0 111 -75 180.5t-195 69.5q-129 0 -201.5 -74.5t-72.5 -207.5v-1077z" />
    <glyph glyph-name="agrave" unicode="&#xe0;" horiz-adv-x="1048" 
d="M463 104q145 0 242.5 86.5t97.5 214.5v119l-315 -22q-136 -9 -206.5 -60.5t-70.5 -142.5q0 -87 70 -141t182 -54zM437 -12q-161 0 -261 86.5t-100 225.5q0 138 101 216.5t295 92.5l331 22v92q0 118 -71.5 183t-201.5 65q-113 0 -187 -54.5t-92 -150.5h-127
q8 142 122.5 232.5t284.5 90.5q185 0 294.5 -96t109.5 -259v-734h-126v206h-3q-44 -98 -144.5 -158t-224.5 -60zM588 1251h-117l-256 301h153z" />
    <glyph glyph-name="aacute" unicode="&#xe1;" horiz-adv-x="1048" 
d="M463 104q145 0 242.5 86.5t97.5 214.5v119l-315 -22q-136 -9 -206.5 -60.5t-70.5 -142.5q0 -87 70 -141t182 -54zM437 -12q-161 0 -261 86.5t-100 225.5q0 138 101 216.5t295 92.5l331 22v92q0 118 -71.5 183t-201.5 65q-113 0 -187 -54.5t-92 -150.5h-127
q8 142 122.5 232.5t284.5 90.5q185 0 294.5 -96t109.5 -259v-734h-126v206h-3q-44 -98 -144.5 -158t-224.5 -60zM579 1251h-117l220 301h153z" />
    <glyph glyph-name="acircumflex" unicode="&#xe2;" horiz-adv-x="1048" 
d="M463 104q145 0 242.5 86.5t97.5 214.5v119l-315 -22q-136 -9 -206.5 -60.5t-70.5 -142.5q0 -87 70 -141t182 -54zM437 -12q-161 0 -261 86.5t-100 225.5q0 138 101 216.5t295 92.5l331 22v92q0 118 -71.5 183t-201.5 65q-113 0 -187 -54.5t-92 -150.5h-127
q8 142 122.5 232.5t284.5 90.5q185 0 294.5 -96t109.5 -259v-734h-126v206h-3q-44 -98 -144.5 -158t-224.5 -60zM576 1552l273 -301h-127l-192 220h-5l-192 -220h-127l273 301h97z" />
    <glyph glyph-name="atilde" unicode="&#xe3;" horiz-adv-x="1048" 
d="M463 104q145 0 242.5 86.5t97.5 214.5v119l-315 -22q-136 -9 -206.5 -60.5t-70.5 -142.5q0 -87 70 -141t182 -54zM437 -12q-161 0 -261 86.5t-100 225.5q0 138 101 216.5t295 92.5l331 22v92q0 118 -71.5 183t-201.5 65q-113 0 -187 -54.5t-92 -150.5h-127
q8 142 122.5 232.5t284.5 90.5q185 0 294.5 -96t109.5 -259v-734h-126v206h-3q-44 -98 -144.5 -158t-224.5 -60zM662 1257q-36 0 -67.5 16t-54.5 39.5l-44 46.5t-44.5 39t-47.5 16q-38 0 -58 -38t-20 -106h-91q0 109 43.5 171.5t122.5 62.5q46 0 86 -24.5t64 -54t54 -54
t57 -24.5q73 0 73 144h91q0 -107 -43.5 -170.5t-120.5 -63.5z" />
    <glyph glyph-name="adieresis" unicode="&#xe4;" horiz-adv-x="1048" 
d="M463 104q145 0 242.5 86.5t97.5 214.5v119l-315 -22q-136 -9 -206.5 -60.5t-70.5 -142.5q0 -87 70 -141t182 -54zM437 -12q-161 0 -261 86.5t-100 225.5q0 138 101 216.5t295 92.5l331 22v92q0 118 -71.5 183t-201.5 65q-113 0 -187 -54.5t-92 -150.5h-127
q8 142 122.5 232.5t284.5 90.5q185 0 294.5 -96t109.5 -259v-734h-126v206h-3q-44 -98 -144.5 -158t-224.5 -60zM350 1259q-38 0 -65.5 27.5t-27.5 64.5q0 38 27.5 65.5t65.5 27.5t65.5 -27.5t27.5 -65.5t-27.5 -65t-65.5 -27zM706 1259q-38 0 -65.5 27t-27.5 65t27.5 65.5
t65.5 27.5t65.5 -27.5t27.5 -65.5t-27.5 -65t-65.5 -27z" />
    <glyph glyph-name="aring" unicode="&#xe5;" horiz-adv-x="1048" 
d="M463 104q145 0 242.5 86.5t97.5 214.5v119l-315 -22q-136 -9 -206.5 -60.5t-70.5 -142.5q0 -87 70 -141t182 -54zM437 -12q-161 0 -261 86.5t-100 225.5q0 138 101 216.5t295 92.5l331 22v92q0 118 -71.5 183t-201.5 65q-113 0 -187 -54.5t-92 -150.5h-127
q8 142 122.5 232.5t284.5 90.5q185 0 294.5 -96t109.5 -259v-734h-126v206h-3q-44 -98 -144.5 -158t-224.5 -60zM528 1206q-77 0 -132 55.5t-55 132.5t55 132.5t132 55.5t132.5 -55.5t55.5 -132.5t-55.5 -132.5t-132.5 -55.5zM528 1274q50 0 85 35t35 85t-35 85t-85 35
q-49 0 -84 -35t-35 -85t35 -85t84 -35z" />
    <glyph glyph-name="ae" unicode="&#xe6;" horiz-adv-x="1795" 
d="M1285 -12q-142 0 -247 66.5t-157 191.5h-8q-57 -124 -165.5 -191t-252.5 -67q-172 0 -275.5 84t-103.5 224q0 136 101.5 214.5t291.5 88.5l333 19v98q0 116 -76 185.5t-202 69.5q-119 0 -193.5 -55t-85.5 -150h-130q12 144 123 233.5t282 89.5q142 0 242.5 -65
t128.5 -179h8q51 115 150.5 179.5t235.5 64.5q205 0 325 -141t120 -381v-58h-795v-10q0 -179 96 -286.5t256 -107.5q116 0 194.5 54t102.5 146h132q-25 -141 -143 -229t-288 -88zM1276 972q-146 0 -239 -97.5t-102 -258.5h658q-2 163 -88 259.5t-229 96.5zM458 104
q145 0 244.5 88t99.5 215v104l-318 -19q-133 -8 -203 -57.5t-70 -136.5t68 -140.5t179 -53.5z" />
    <glyph glyph-name="ccedilla" unicode="&#xe7;" horiz-adv-x="1046" 
d="M862 332h131q-22 -143 -128 -236t-265 -106l-50 -131q101 0 154.5 -39.5t53.5 -112.5q0 -76 -61.5 -124.5t-156.5 -49.5q-84 0 -139 17v80q41 -16 122 -16q63 0 100 24.5t37 65.5q0 82 -155 82h-53v60l58 143q-204 14 -324.5 161.5t-120.5 388.5q0 250 132.5 400
t351.5 150q182 0 302.5 -101t140.5 -250h-131q-20 103 -103 168t-208 65q-158 0 -254 -118t-96 -314q0 -199 96 -315.5t255 -116.5q124 0 206 59.5t105 165.5z" />
    <glyph glyph-name="egrave" unicode="&#xe8;" horiz-adv-x="1075" 
d="M605 1251h-117l-256 301h153zM543 972q-145 0 -238.5 -98.5t-102.5 -259.5h670q-2 161 -92.5 259.5t-236.5 98.5zM865 305h131q-24 -139 -146.5 -228t-296.5 -89q-224 0 -356 147.5t-132 400.5q0 251 131.5 402t348.5 151q212 0 338.5 -142.5t126.5 -382.5v-58h-808v-7
q0 -182 96.5 -288t257.5 -106q119 0 202 55t107 145z" />
    <glyph glyph-name="eacute" unicode="&#xe9;" horiz-adv-x="1075" 
d="M596 1251h-117l220 301h153zM543 972q-145 0 -238.5 -98.5t-102.5 -259.5h670q-2 161 -92.5 259.5t-236.5 98.5zM865 305h131q-24 -139 -146.5 -228t-296.5 -89q-224 0 -356 147.5t-132 400.5q0 251 131.5 402t348.5 151q212 0 338.5 -142.5t126.5 -382.5v-58h-808v-7
q0 -182 96.5 -288t257.5 -106q119 0 202 55t107 145z" />
    <glyph glyph-name="ecircumflex" unicode="&#xea;" horiz-adv-x="1075" 
d="M593 1552l273 -301h-127l-192 220h-5l-192 -220h-127l273 301h97zM543 972q-145 0 -238.5 -98.5t-102.5 -259.5h670q-2 161 -92.5 259.5t-236.5 98.5zM865 305h131q-24 -139 -146.5 -228t-296.5 -89q-224 0 -356 147.5t-132 400.5q0 251 131.5 402t348.5 151
q212 0 338.5 -142.5t126.5 -382.5v-58h-808v-7q0 -182 96.5 -288t257.5 -106q119 0 202 55t107 145z" />
    <glyph glyph-name="edieresis" unicode="&#xeb;" horiz-adv-x="1075" 
d="M543 972q-145 0 -238.5 -98.5t-102.5 -259.5h670q-2 161 -92.5 259.5t-236.5 98.5zM865 305h131q-24 -139 -146.5 -228t-296.5 -89q-224 0 -356 147.5t-132 400.5q0 251 131.5 402t348.5 151q212 0 338.5 -142.5t126.5 -382.5v-58h-808v-7q0 -182 96.5 -288t257.5 -106
q119 0 202 55t107 145zM367 1259q-38 0 -65.5 27.5t-27.5 64.5q0 38 27.5 65.5t65.5 27.5t65.5 -27.5t27.5 -65.5t-27.5 -65t-65.5 -27zM723 1259q-38 0 -65.5 27t-27.5 65t27.5 65.5t65.5 27.5t65.5 -27.5t27.5 -65.5t-27.5 -65t-65.5 -27z" />
    <glyph glyph-name="igrave" unicode="&#xec;" horiz-adv-x="390" 
d="M255 1251h-117l-256 301h153zM129 0v1077h132v-1077h-132z" />
    <glyph glyph-name="iacute" unicode="&#xed;" horiz-adv-x="390" 
d="M246 1251h-117l220 301h153zM129 0v1077h132v-1077h-132z" />
    <glyph glyph-name="icircumflex" unicode="&#xee;" horiz-adv-x="390" 
d="M243 1552l273 -301h-127l-192 220h-5l-192 -220h-127l273 301h97zM129 0v1077h132v-1077h-132z" />
    <glyph glyph-name="idieresis" unicode="&#xef;" horiz-adv-x="390" 
d="M129 0v1077h132v-1077h-132zM17 1259q-38 0 -65.5 27.5t-27.5 64.5q0 38 27.5 65.5t65.5 27.5t65.5 -27.5t27.5 -65.5t-27.5 -65t-65.5 -27zM373 1259q-38 0 -65.5 27t-27.5 65t27.5 65.5t65.5 27.5t65.5 -27.5t27.5 -65.5t-27.5 -65t-65.5 -27z" />
    <glyph glyph-name="eth" unicode="&#xf0;" horiz-adv-x="1131" 
d="M564 -18q-222 0 -354 147.5t-132 395.5q0 238 129.5 384t339.5 146q105 0 197.5 -53.5t134.5 -139.5h11q-24 105 -78.5 210.5t-121.5 182.5l-282 -102l-29 88l246 89q-72 77 -214 180h164q95 -66 166 -141l257 92l29 -88l-221 -78q233 -297 233 -729q0 -269 -128 -426.5
t-347 -157.5zM562 937q-156 0 -252.5 -114t-96.5 -298q0 -191 96.5 -307.5t254.5 -116.5q157 0 252.5 115t95.5 305q0 189 -95.5 302.5t-254.5 113.5z" />
    <glyph glyph-name="ntilde" unicode="&#xf1;" horiz-adv-x="1097" 
d="M686 1257q-36 0 -67.5 16t-54.5 39.5l-44 46.5t-44.5 39t-47.5 16q-38 0 -58 -38t-20 -106h-91q0 109 43.5 171.5t122.5 62.5q46 0 86 -24.5t64 -54t54 -54t57 -24.5q73 0 73 144h91q0 -107 -43.5 -170.5t-120.5 -63.5zM119 0v1077h124v-201h4q46 102 136 157.5t219 55.5
q177 0 279.5 -106.5t102.5 -289.5v-693h-132v672q0 143 -75 221t-212 78q-143 0 -228.5 -93t-85.5 -245v-633h-132z" />
    <glyph glyph-name="ograve" unicode="&#xf2;" horiz-adv-x="1109" 
d="M614 1251h-117l-256 301h153zM554 -12q-222 0 -355.5 149.5t-133.5 401.5q0 251 133.5 400.5t355.5 149.5q223 0 356.5 -149.5t133.5 -400.5t-133.5 -401t-356.5 -150zM554 107q165 0 260 115.5t95 316.5t-95 316.5t-260 115.5q-164 0 -259 -115.5t-95 -316.5t95 -316.5
t259 -115.5z" />
    <glyph glyph-name="oacute" unicode="&#xf3;" horiz-adv-x="1109" 
d="M605 1251h-117l220 301h153zM554 -12q-222 0 -355.5 149.5t-133.5 401.5q0 251 133.5 400.5t355.5 149.5q223 0 356.5 -149.5t133.5 -400.5t-133.5 -401t-356.5 -150zM554 107q165 0 260 115.5t95 316.5t-95 316.5t-260 115.5q-164 0 -259 -115.5t-95 -316.5t95 -316.5
t259 -115.5z" />
    <glyph glyph-name="ocircumflex" unicode="&#xf4;" horiz-adv-x="1109" 
d="M602 1552l273 -301h-127l-192 220h-5l-192 -220h-127l273 301h97zM554 -12q-222 0 -355.5 149.5t-133.5 401.5q0 251 133.5 400.5t355.5 149.5q223 0 356.5 -149.5t133.5 -400.5t-133.5 -401t-356.5 -150zM554 107q165 0 260 115.5t95 316.5t-95 316.5t-260 115.5
q-164 0 -259 -115.5t-95 -316.5t95 -316.5t259 -115.5z" />
    <glyph glyph-name="otilde" unicode="&#xf5;" horiz-adv-x="1109" 
d="M688 1257q-36 0 -67.5 16t-54.5 39.5l-44 46.5t-44.5 39t-47.5 16q-38 0 -58 -38t-20 -106h-91q0 109 43.5 171.5t122.5 62.5q46 0 86 -24.5t64 -54t54 -54t57 -24.5q73 0 73 144h91q0 -107 -43.5 -170.5t-120.5 -63.5zM554 -12q-222 0 -355.5 149.5t-133.5 401.5
q0 251 133.5 400.5t355.5 149.5q223 0 356.5 -149.5t133.5 -400.5t-133.5 -401t-356.5 -150zM554 107q165 0 260 115.5t95 316.5t-95 316.5t-260 115.5q-164 0 -259 -115.5t-95 -316.5t95 -316.5t259 -115.5z" />
    <glyph glyph-name="odieresis" unicode="&#xf6;" horiz-adv-x="1109" 
d="M376 1259q-38 0 -65.5 27.5t-27.5 64.5q0 38 27.5 65.5t65.5 27.5t65.5 -27.5t27.5 -65.5t-27.5 -65t-65.5 -27zM732 1259q-38 0 -65.5 27t-27.5 65t27.5 65.5t65.5 27.5t65.5 -27.5t27.5 -65.5t-27.5 -65t-65.5 -27zM554 -12q-222 0 -355.5 149.5t-133.5 401.5
q0 251 133.5 400.5t355.5 149.5q223 0 356.5 -149.5t133.5 -400.5t-133.5 -401t-356.5 -150zM554 107q165 0 260 115.5t95 316.5t-95 316.5t-260 115.5q-164 0 -259 -115.5t-95 -316.5t95 -316.5t259 -115.5z" />
    <glyph glyph-name="divide" unicode="&#xf7;" horiz-adv-x="1219" 
d="M610 815q-46 0 -76.5 30.5t-30.5 76.5t30.5 76t76.5 30q45 0 76 -30.5t31 -75.5q0 -46 -31 -76.5t-76 -30.5zM610 109q-46 0 -76.5 30.5t-30.5 76.5t30.5 76.5t76.5 30.5q45 0 76 -30.5t31 -76.5t-31 -76.5t-76 -30.5zM1110 516h-1001v113h1001v-113z" />
    <glyph glyph-name="oslash" unicode="&#xf8;" horiz-adv-x="1109" 
d="M828 837l-467 -675q81 -55 193 -55q165 0 260 115.5t95 316.5q0 183 -81 298zM289 230l472 676q-87 65 -207 65q-164 0 -259 -115.5t-95 -316.5q0 -193 89 -309zM992 1073l-88 -127q140 -149 140 -407q0 -251 -133.5 -401t-356.5 -150q-152 0 -264 72l-81 -117l-82 55
l86 124q-148 151 -148 417q0 251 133.5 400.5t355.5 149.5q162 0 278 -81l81 116z" />
    <glyph glyph-name="ugrave" unicode="&#xf9;" horiz-adv-x="1097" 
d="M606 1251h-117l-256 301h153zM979 1077v-1077h-125v202h-3q-45 -100 -138.5 -157t-219.5 -57q-176 0 -278 106.5t-102 288.5v694h132v-672q0 -144 74 -221t211 -77q142 0 229 92.5t87 244.5v633h133z" />
    <glyph glyph-name="uacute" unicode="&#xfa;" horiz-adv-x="1097" 
d="M597 1251h-117l220 301h153zM979 1077v-1077h-125v202h-3q-45 -100 -138.5 -157t-219.5 -57q-176 0 -278 106.5t-102 288.5v694h132v-672q0 -144 74 -221t211 -77q142 0 229 92.5t87 244.5v633h133z" />
    <glyph glyph-name="ucircumflex" unicode="&#xfb;" horiz-adv-x="1097" 
d="M594 1552l273 -301h-127l-192 220h-5l-192 -220h-127l273 301h97zM979 1077v-1077h-125v202h-3q-45 -100 -138.5 -157t-219.5 -57q-176 0 -278 106.5t-102 288.5v694h132v-672q0 -144 74 -221t211 -77q142 0 229 92.5t87 244.5v633h133z" />
    <glyph glyph-name="udieresis" unicode="&#xfc;" horiz-adv-x="1097" 
d="M979 1077v-1077h-125v202h-3q-45 -100 -138.5 -157t-219.5 -57q-176 0 -278 106.5t-102 288.5v694h132v-672q0 -144 74 -221t211 -77q142 0 229 92.5t87 244.5v633h133zM368 1259q-38 0 -65.5 27.5t-27.5 64.5q0 38 27.5 65.5t65.5 27.5t65.5 -27.5t27.5 -65.5t-27.5 -65
t-65.5 -27zM724 1259q-38 0 -65.5 27t-27.5 65t27.5 65.5t65.5 27.5t65.5 -27.5t27.5 -65.5t-27.5 -65t-65.5 -27z" />
    <glyph glyph-name="yacute" unicode="&#xfd;" horiz-adv-x="980" 
d="M197 -381q-29 0 -66 7v114q28 -7 64 -7q74 0 118.5 41.5t82.5 145.5l26 73l-405 1084h142l330 -943h3l331 943h140l-423 -1136q-70 -189 -141 -255.5t-202 -66.5zM542 1251h-117l220 301h153z" />
    <glyph glyph-name="thorn" unicode="&#xfe;" horiz-adv-x="1153" 
d="M634 1095q205 0 329.5 -152.5t124.5 -403.5t-124.5 -404t-329.5 -153q-125 0 -222 59.5t-141 163.5h-11v-576h-131v1867h125v-639h12q50 111 148 174.5t220 63.5zM606 101q160 0 253 118t93 319q0 202 -93 320.5t-252 118.5t-255 -120t-96 -318t96 -318t254 -120z" />
    <glyph glyph-name="ydieresis" unicode="&#xff;" horiz-adv-x="980" 
d="M197 -381q-29 0 -66 7v114q28 -7 64 -7q74 0 118.5 41.5t82.5 145.5l26 73l-405 1084h142l330 -943h3l331 943h140l-423 -1136q-70 -189 -141 -255.5t-202 -66.5zM313 1259q-38 0 -65.5 27.5t-27.5 64.5q0 38 27.5 65.5t65.5 27.5t65.5 -27.5t27.5 -65.5t-27.5 -65
t-65.5 -27zM669 1259q-38 0 -65.5 27t-27.5 65t27.5 65.5t65.5 27.5t65.5 -27.5t27.5 -65.5t-27.5 -65t-65.5 -27z" />
    <glyph glyph-name="Amacron" unicode="&#x100;" horiz-adv-x="1262" 
d="M1094 0l-160 442h-606l-160 -442h-145l540 1443h136l539 -1443h-144zM628 1274l-259 -714h524l-259 714h-6zM936 1718v-85h-610v85h610z" />
    <glyph glyph-name="amacron" unicode="&#x101;" horiz-adv-x="1048" 
d="M463 104q145 0 242.5 86.5t97.5 214.5v119l-315 -22q-136 -9 -206.5 -60.5t-70.5 -142.5q0 -87 70 -141t182 -54zM437 -12q-161 0 -261 86.5t-100 225.5q0 138 101 216.5t295 92.5l331 22v92q0 118 -71.5 183t-201.5 65q-113 0 -187 -54.5t-92 -150.5h-127
q8 142 122.5 232.5t284.5 90.5q185 0 294.5 -96t109.5 -259v-734h-126v206h-3q-44 -98 -144.5 -158t-224.5 -60zM835 1400v-85h-618v85h618z" />
    <glyph glyph-name="Abreve" unicode="&#x102;" horiz-adv-x="1262" 
d="M1094 0l-160 442h-606l-160 -442h-145l540 1443h136l539 -1443h-144zM628 1274l-259 -714h524l-259 714h-6zM339 1823h94q0 -80 56 -134.5t142 -54.5t142 54.5t56 134.5h94q0 -121 -81.5 -196.5t-210.5 -75.5t-210.5 75.5t-81.5 196.5z" />
    <glyph glyph-name="abreve" unicode="&#x103;" horiz-adv-x="1048" 
d="M463 104q145 0 242.5 86.5t97.5 214.5v119l-315 -22q-136 -9 -206.5 -60.5t-70.5 -142.5q0 -87 70 -141t182 -54zM437 -12q-161 0 -261 86.5t-100 225.5q0 138 101 216.5t295 92.5l331 22v92q0 118 -71.5 183t-201.5 65q-113 0 -187 -54.5t-92 -150.5h-127
q8 142 122.5 232.5t284.5 90.5q185 0 294.5 -96t109.5 -259v-734h-126v206h-3q-44 -98 -144.5 -158t-224.5 -60zM226 1530h97q0 -86 58 -143t146 -57t146 57t58 143h97q0 -129 -83.5 -207.5t-217.5 -78.5t-217.5 78.5t-83.5 207.5z" />
    <glyph glyph-name="Aogonek" unicode="&#x104;" horiz-adv-x="1262" 
d="M628 1274l-259 -714h524l-259 714h-6zM1223 -402q-37 -14 -93 -14q-99 0 -162.5 54.5t-63.5 139.5q0 68 47 128.5t138 106.5l-155 429h-606l-160 -442h-145l540 1443h136l539 -1443l-6 -2q-93 -32 -146 -83.5t-53 -111.5q0 -47 34.5 -77.5t88.5 -30.5q44 0 67 7v-104z
" />
    <glyph glyph-name="aogonek" unicode="&#x105;" horiz-adv-x="1048" 
d="M463 104q145 0 242.5 86.5t97.5 214.5v119l-315 -22q-136 -9 -206.5 -60.5t-70.5 -142.5q0 -87 70 -141t182 -54zM930 -402q-39 -14 -94 -14q-99 0 -162.5 54t-63.5 138q0 75 53.5 139t145.5 99v192h-3q-44 -98 -144.5 -158t-224.5 -60q-161 0 -261 86.5t-100 225.5
q0 138 101 216.5t295 92.5l331 22v92q0 118 -71.5 183t-201.5 65q-113 0 -187 -54.5t-92 -150.5h-127q8 142 122.5 232.5t284.5 90.5q185 0 294.5 -96t109.5 -259v-734l-10 -4q-90 -38 -138 -87.5t-48 -105.5q0 -47 34.5 -77.5t89.5 -30.5q43 0 67 7v-104z" />
    <glyph glyph-name="Cacute" unicode="&#x106;" horiz-adv-x="1371" 
d="M777 1552h-117l252 295h154zM720 -23q-295 0 -469 202.5t-174 545.5q0 339 174.5 540t468.5 201q151 0 277.5 -61t207.5 -171t100 -249h-137q-30 156 -155 255t-293 99q-230 0 -366.5 -166.5t-136.5 -447.5q0 -285 136.5 -453t367.5 -168q173 0 294 87t153 236h137
q-38 -211 -194 -330.5t-391 -119.5z" />
    <glyph glyph-name="cacute" unicode="&#x107;" horiz-adv-x="1046" 
d="M992 738h-131q-20 103 -103 168t-208 65q-158 0 -254 -118t-96 -314q0 -199 96 -315.5t255 -116.5q124 0 206 59.5t105 165.5h131q-23 -154 -144 -249t-298 -95q-221 0 -353.5 148.5t-132.5 402.5q0 250 132.5 400t351.5 150q182 0 302.5 -101t140.5 -250zM600 1251h-117
l220 301h153z" />
    <glyph glyph-name="Ccircumflex" unicode="&#x108;" horiz-adv-x="1371" 
d="M720 -23q-295 0 -469 202.5t-174 545.5q0 339 174.5 540t468.5 201q151 0 277.5 -61t207.5 -171t100 -249h-137q-30 156 -155 255t-293 99q-230 0 -366.5 -166.5t-136.5 -447.5q0 -285 136.5 -453t367.5 -168q173 0 294 87t153 236h137q-38 -211 -194 -330.5t-391 -119.5
zM665 1847h110l283 -295h-131l-206 217h-2l-206 -217h-131z" />
    <glyph glyph-name="ccircumflex" unicode="&#x109;" horiz-adv-x="1046" 
d="M597 1552l273 -301h-127l-192 220h-5l-192 -220h-127l273 301h97zM992 738h-131q-20 103 -103 168t-208 65q-158 0 -254 -118t-96 -314q0 -199 96 -315.5t255 -116.5q124 0 206 59.5t105 165.5h131q-23 -154 -144 -249t-298 -95q-221 0 -353.5 148.5t-132.5 402.5
q0 250 132.5 400t351.5 150q182 0 302.5 -101t140.5 -250z" />
    <glyph glyph-name="Cdotaccent" unicode="&#x10a;" horiz-adv-x="1371" 
d="M720 1576q-42 0 -72 30t-30 72t30 72t72 30t72 -30t30 -72t-30 -72t-72 -30zM720 -23q-295 0 -469 202.5t-174 545.5q0 339 174.5 540t468.5 201q151 0 277.5 -61t207.5 -171t100 -249h-137q-30 156 -155 255t-293 99q-230 0 -366.5 -166.5t-136.5 -447.5
q0 -285 136.5 -453t367.5 -168q173 0 294 87t153 236h137q-38 -211 -194 -330.5t-391 -119.5z" />
    <glyph glyph-name="cdotaccent" unicode="&#x10b;" horiz-adv-x="1046" 
d="M992 738h-131q-20 103 -103 168t-208 65q-158 0 -254 -118t-96 -314q0 -199 96 -315.5t255 -116.5q124 0 206 59.5t105 165.5h131q-23 -154 -144 -249t-298 -95q-221 0 -353.5 148.5t-132.5 402.5q0 250 132.5 400t351.5 150q182 0 302.5 -101t140.5 -250zM549 1259
q-43 0 -73.5 30.5t-30.5 73.5t30.5 73.5t73.5 30.5t73.5 -30.5t30.5 -73.5t-30.5 -73.5t-73.5 -30.5z" />
    <glyph glyph-name="Ccaron" unicode="&#x10c;" horiz-adv-x="1371" 
d="M720 -23q-295 0 -469 202.5t-174 545.5q0 339 174.5 540t468.5 201q151 0 277.5 -61t207.5 -171t100 -249h-137q-30 156 -155 255t-293 99q-230 0 -366.5 -166.5t-136.5 -447.5q0 -285 136.5 -453t367.5 -168q173 0 294 87t153 236h137q-38 -211 -194 -330.5t-391 -119.5
zM665 1552l-283 295h131l206 -217h2l206 217h131l-283 -295h-110z" />
    <glyph glyph-name="ccaron" unicode="&#x10d;" horiz-adv-x="1046" 
d="M597 1251h-97l-273 301h127l192 -219h5l192 219h127zM992 738h-131q-20 103 -103 168t-208 65q-158 0 -254 -118t-96 -314q0 -199 96 -315.5t255 -116.5q124 0 206 59.5t105 165.5h131q-23 -154 -144 -249t-298 -95q-221 0 -353.5 148.5t-132.5 402.5q0 250 132.5 400
t351.5 150q182 0 302.5 -101t140.5 -250z" />
    <glyph glyph-name="Dcaron" unicode="&#x10e;" horiz-adv-x="1370" 
d="M496 1551l-283 295h131l206 -217h2l206 217h131l-283 -295h-110zM135 1443h475q324 0 504 -189.5t180 -531.5q0 -343 -179.5 -532.5t-504.5 -189.5h-475v1443zM272 1319v-1195h330q266 0 409.5 155t143.5 442q0 288 -143.5 443t-409.5 155h-330z" />
    <glyph glyph-name="dcaron" unicode="&#x10f;" horiz-adv-x="1274" 
d="M1195 1496h109l-24 -444h-85v444zM526 -12q-203 0 -332 152.5t-129 398.5q0 245 128 397.5t330 152.5q128 0 227 -63.5t143 -169.5h3v650h133v-1506h-126v229h-3q-47 -111 -146 -176t-228 -65zM547 971q-155 0 -251 -119t-96 -313t96 -313t251 -119t252.5 120t97.5 312
q0 191 -97.5 311.5t-252.5 120.5z" />
    <glyph glyph-name="Dcroat" unicode="&#x110;" horiz-adv-x="1385" 
d="M287 124h330q266 0 409.5 155t143.5 442q0 288 -143.5 443t-409.5 155h-330v-514h312v-124h-312v-557zM150 1443h475q324 0 504 -189.5t180 -531.5q0 -343 -179.5 -532.5t-504.5 -189.5h-475v681h-126v124h126v638z" />
    <glyph glyph-name="dcroat" unicode="&#x111;" horiz-adv-x="1177" 
d="M547 107q155 0 252.5 120t97.5 312q0 191 -97.5 311.5t-252.5 120.5t-251 -119t-96 -313t96 -313t251 -119zM1163 1369v-97h-134v-1272h-126v229h-3q-47 -111 -146 -176t-228 -65q-203 0 -332 152.5t-129 398.5q0 245 128 397.5t330 152.5q128 0 227 -63.5t143 -169.5h3
v416h-262v97h262v137h133v-137h134z" />
    <glyph glyph-name="Emacron" unicode="&#x112;" horiz-adv-x="1104" 
d="M1006 124v-124h-871v1443h871v-124h-735v-519h698v-122h-698v-554h735zM875 1718v-85h-610v85h610z" />
    <glyph glyph-name="emacron" unicode="&#x113;" horiz-adv-x="1075" 
d="M543 972q-145 0 -238.5 -98.5t-102.5 -259.5h670q-2 161 -92.5 259.5t-236.5 98.5zM865 305h131q-24 -139 -146.5 -228t-296.5 -89q-224 0 -356 147.5t-132 400.5q0 251 131.5 402t348.5 151q212 0 338.5 -142.5t126.5 -382.5v-58h-808v-7q0 -182 96.5 -288t257.5 -106
q119 0 202 55t107 145zM852 1400v-85h-618v85h618z" />
    <glyph glyph-name="Ebreve" unicode="&#x114;" horiz-adv-x="1104" 
d="M1006 124v-124h-871v1443h871v-124h-735v-519h698v-122h-698v-554h735zM278 1823h94q0 -80 56 -134.5t142 -54.5t142 54.5t56 134.5h94q0 -121 -81.5 -196.5t-210.5 -75.5t-210.5 75.5t-81.5 196.5z" />
    <glyph glyph-name="ebreve" unicode="&#x115;" horiz-adv-x="1075" 
d="M543 972q-145 0 -238.5 -98.5t-102.5 -259.5h670q-2 161 -92.5 259.5t-236.5 98.5zM865 305h131q-24 -139 -146.5 -228t-296.5 -89q-224 0 -356 147.5t-132 400.5q0 251 131.5 402t348.5 151q212 0 338.5 -142.5t126.5 -382.5v-58h-808v-7q0 -182 96.5 -288t257.5 -106
q119 0 202 55t107 145zM243 1530h97q0 -86 58 -143t146 -57t146 57t58 143h97q0 -129 -83.5 -207.5t-217.5 -78.5t-217.5 78.5t-83.5 207.5z" />
    <glyph glyph-name="Edotaccent" unicode="&#x116;" horiz-adv-x="1104" 
d="M570 1575q-42 0 -72 30t-30 72t30 72t72 30t72 -30t30 -72t-30 -72t-72 -30zM1006 124v-124h-871v1443h871v-124h-735v-519h698v-122h-698v-554h735z" />
    <glyph glyph-name="edotaccent" unicode="&#x117;" horiz-adv-x="1075" 
d="M545 1259q-43 0 -73.5 30.5t-30.5 73.5t30.5 73.5t73.5 30.5t73.5 -30.5t30.5 -73.5t-30.5 -73.5t-73.5 -30.5zM543 972q-145 0 -238.5 -98.5t-102.5 -259.5h670q-2 161 -92.5 259.5t-236.5 98.5zM865 305h131q-24 -139 -146.5 -228t-296.5 -89q-224 0 -356 147.5
t-132 400.5q0 251 131.5 402t348.5 151q212 0 338.5 -142.5t126.5 -382.5v-58h-808v-7q0 -182 96.5 -288t257.5 -106q119 0 202 55t107 145z" />
    <glyph glyph-name="Eogonek" unicode="&#x118;" horiz-adv-x="1104" 
d="M871 -416q-98 0 -162 54.5t-64 139.5q0 65 41 122t114 96v4h-665v1443h871v-124h-735v-519h698v-122h-698v-554h735v-115l-33 -11q-88 -28 -143.5 -81.5t-55.5 -113.5q0 -47 34.5 -77.5t88.5 -30.5q42 0 68 7v-104q-40 -14 -94 -14z" />
    <glyph glyph-name="eogonek" unicode="&#x119;" horiz-adv-x="1075" 
d="M736 -416q-99 0 -162.5 54t-63.5 138q0 122 135 221v4q-39 -13 -92 -13q-224 0 -356 147.5t-132 400.5q0 251 131.5 402t348.5 151q212 0 338.5 -142.5t126.5 -382.5v-58h-808v-7q0 -182 96.5 -288t257.5 -106q119 0 202 55t107 145h131q-26 -153 -199 -277
q-82 -57 -120 -111t-38 -114q0 -47 34.5 -77.5t88.5 -30.5q44 0 67 7v-104q-39 -14 -93 -14zM543 972q-145 0 -238.5 -98.5t-102.5 -259.5h670q-2 161 -92.5 259.5t-236.5 98.5z" />
    <glyph glyph-name="Ecaron" unicode="&#x11a;" horiz-adv-x="1104" 
d="M515 1551l-283 295h131l206 -217h2l206 217h131l-283 -295h-110zM1006 124v-124h-871v1443h871v-124h-735v-519h698v-122h-698v-554h735z" />
    <glyph glyph-name="ecaron" unicode="&#x11b;" horiz-adv-x="1075" 
d="M593 1251h-97l-273 301h127l192 -219h5l192 219h127zM543 972q-145 0 -238.5 -98.5t-102.5 -259.5h670q-2 161 -92.5 259.5t-236.5 98.5zM865 305h131q-24 -139 -146.5 -228t-296.5 -89q-224 0 -356 147.5t-132 400.5q0 251 131.5 402t348.5 151q212 0 338.5 -142.5
t126.5 -382.5v-58h-808v-7q0 -182 96.5 -288t257.5 -106q119 0 202 55t107 145z" />
    <glyph glyph-name="Gcircumflex" unicode="&#x11c;" horiz-adv-x="1409" 
d="M670 1846h110l283 -295h-131l-206 217h-2l-206 -217h-131zM1324 586q0 -286 -159 -447.5t-440 -161.5q-293 0 -470.5 206t-177.5 547q0 335 176.5 535.5t471.5 200.5q227 0 388 -125t202 -332h-142q-44 154 -163.5 242t-284.5 88q-235 0 -371.5 -163.5t-136.5 -445.5
q0 -286 138 -456t370 -170q209 0 336 123t127 327v51h-448v120h584v-139z" />
    <glyph glyph-name="gcircumflex" unicode="&#x11d;" horiz-adv-x="1144" 
d="M604 1552l273 -301h-127l-192 220h-5l-192 -220h-127l273 301h97zM543 114q156 0 253 118.5t97 308.5q0 191 -97 310.5t-253 119.5q-154 0 -248.5 -118t-94.5 -312q0 -193 94 -310t249 -117zM552 -375q-178 0 -296 76t-138 200h138q20 -73 102 -116.5t202 -43.5
q151 0 242 72.5t91 196.5v219h-3q-46 -106 -144.5 -170t-225.5 -64q-203 0 -329 151t-126 395q0 247 126 397.5t332 150.5q127 0 226.5 -64t147.5 -171h2v223h126v-1057q0 -184 -128 -289.5t-345 -105.5z" />
    <glyph glyph-name="Gbreve" unicode="&#x11e;" horiz-adv-x="1409" 
d="M1324 586q0 -286 -159 -447.5t-440 -161.5q-293 0 -470.5 206t-177.5 547q0 335 176.5 535.5t471.5 200.5q227 0 388 -125t202 -332h-142q-44 154 -163.5 242t-284.5 88q-235 0 -371.5 -163.5t-136.5 -445.5q0 -286 138 -456t370 -170q209 0 336 123t127 327v51h-448v120
h584v-139zM433 1823h94q0 -80 56 -134.5t142 -54.5t142 54.5t56 134.5h94q0 -121 -81.5 -196.5t-210.5 -75.5t-210.5 75.5t-81.5 196.5z" />
    <glyph glyph-name="gbreve" unicode="&#x11f;" horiz-adv-x="1144" 
d="M254 1530h97q0 -86 58 -143t146 -57t146 57t58 143h97q0 -129 -83.5 -207.5t-217.5 -78.5t-217.5 78.5t-83.5 207.5zM543 114q156 0 253 118.5t97 308.5q0 191 -97 310.5t-253 119.5q-154 0 -248.5 -118t-94.5 -312q0 -193 94 -310t249 -117zM552 -375q-178 0 -296 76
t-138 200h138q20 -73 102 -116.5t202 -43.5q151 0 242 72.5t91 196.5v219h-3q-46 -106 -144.5 -170t-225.5 -64q-203 0 -329 151t-126 395q0 247 126 397.5t332 150.5q127 0 226.5 -64t147.5 -171h2v223h126v-1057q0 -184 -128 -289.5t-345 -105.5z" />
    <glyph glyph-name="Gdotaccent" unicode="&#x120;" horiz-adv-x="1409" 
d="M725 1575q-42 0 -72 30t-30 72t30 72t72 30t72 -30t30 -72t-30 -72t-72 -30zM1324 586q0 -286 -159 -447.5t-440 -161.5q-293 0 -470.5 206t-177.5 547q0 335 176.5 535.5t471.5 200.5q227 0 388 -125t202 -332h-142q-44 154 -163.5 242t-284.5 88q-235 0 -371.5 -163.5
t-136.5 -445.5q0 -286 138 -456t370 -170q209 0 336 123t127 327v51h-448v120h584v-139z" />
    <glyph glyph-name="gdotaccent" unicode="&#x121;" horiz-adv-x="1144" 
d="M556 1259q-43 0 -73.5 30.5t-30.5 73.5t30.5 73.5t73.5 30.5t73.5 -30.5t30.5 -73.5t-30.5 -73.5t-73.5 -30.5zM543 114q156 0 253 118.5t97 308.5q0 191 -97 310.5t-253 119.5q-154 0 -248.5 -118t-94.5 -312q0 -193 94 -310t249 -117zM552 -375q-178 0 -296 76
t-138 200h138q20 -73 102 -116.5t202 -43.5q151 0 242 72.5t91 196.5v219h-3q-46 -106 -144.5 -170t-225.5 -64q-203 0 -329 151t-126 395q0 247 126 397.5t332 150.5q127 0 226.5 -64t147.5 -171h2v223h126v-1057q0 -184 -128 -289.5t-345 -105.5z" />
    <glyph glyph-name="Gcommaaccent" unicode="&#x122;" horiz-adv-x="1409" 
d="M692 -520h-100l95 358h121zM1324 586q0 -286 -159 -447.5t-440 -161.5q-293 0 -470.5 206t-177.5 547q0 335 176.5 535.5t471.5 200.5q227 0 388 -125t202 -332h-142q-44 154 -163.5 242t-284.5 88q-235 0 -371.5 -163.5t-136.5 -445.5q0 -286 138 -456t370 -170
q209 0 336 123t127 327v51h-448v120h584v-139z" />
    <glyph glyph-name="gcommaaccent" unicode="&#x123;" horiz-adv-x="1144" 
d="M519 -882h-100l95 358h121zM543 114q156 0 253 118.5t97 308.5q0 191 -97 310.5t-253 119.5q-154 0 -248.5 -118t-94.5 -312q0 -193 94 -310t249 -117zM552 -375q-178 0 -296 76t-138 200h138q20 -73 102 -116.5t202 -43.5q151 0 242 72.5t91 196.5v219h-3
q-46 -106 -144.5 -170t-225.5 -64q-203 0 -329 151t-126 395q0 247 126 397.5t332 150.5q127 0 226.5 -64t147.5 -171h2v223h126v-1057q0 -184 -128 -289.5t-345 -105.5z" />
    <glyph glyph-name="Hcircumflex" unicode="&#x124;" horiz-adv-x="1387" 
d="M1252 0h-137v677h-844v-677h-136v1443h136v-642h844v642h137v-1443zM638 1846h110l283 -295h-131l-206 217h-2l-206 -217h-131z" />
    <glyph glyph-name="hcircumflex" unicode="&#x125;" horiz-adv-x="1118" 
d="M129 0v1506h132v-630h3q46 102 137 157.5t219 55.5q176 0 280.5 -109t104.5 -290v-690h-132v669q0 142 -76.5 222t-213.5 80q-146 0 -234 -94.5t-88 -248.5v-628h-132zM141 1909h110l283 -295h-131l-206 217h-2l-206 -217h-131z" />
    <glyph glyph-name="Hbar" unicode="&#x126;" horiz-adv-x="1401" 
d="M1122 801v294h-844v-294h844zM1390 1206v-111h-131v-1095h-137v677h-844v-677h-136v1095h-131v111h131v237h136v-237h844v237h137v-237h131z" />
    <glyph glyph-name="hbar" unicode="&#x127;" horiz-adv-x="1126" 
d="M268 876h4q45 102 136 157.5t219 55.5q176 0 281 -109t105 -290v-690h-133v669q0 142 -76.5 222t-213.5 80q-146 0 -234 -94.5t-88 -248.5v-628h-132v1272h-122v97h122v137h132v-137h275v-97h-275v-396z" />
    <glyph glyph-name="Itilde" unicode="&#x128;" horiz-adv-x="406" 
d="M271 0h-136v1443h136v-1443zM334 1541q-36 0 -67.5 16t-54.5 39.5l-44 46.5t-44.5 39t-47.5 16q-38 0 -58 -38t-20 -106h-91q0 109 43.5 171.5t122.5 62.5q46 0 86 -24.5t64 -54t54 -54t57 -24.5q73 0 73 144h91q0 -107 -43.5 -170.5t-120.5 -63.5z" />
    <glyph glyph-name="itilde" unicode="&#x129;" horiz-adv-x="390" 
d="M129 0v1077h132v-1077h-132zM329 1257q-36 0 -67.5 16t-54.5 39.5l-44 46.5t-44.5 39t-47.5 16q-38 0 -58 -38t-20 -106h-91q0 109 43.5 171.5t122.5 62.5q46 0 86 -24.5t64 -54t54 -54t57 -24.5q73 0 73 144h91q0 -107 -43.5 -170.5t-120.5 -63.5z" />
    <glyph glyph-name="Imacron" unicode="&#x12a;" horiz-adv-x="406" 
d="M271 0h-136v1443h136v-1443zM508 1718v-85h-610v85h610z" />
    <glyph glyph-name="imacron" unicode="&#x12b;" horiz-adv-x="390" 
d="M129 0v1077h132v-1077h-132zM502 1400v-85h-618v85h618z" />
    <glyph glyph-name="Ibreve" unicode="&#x12c;" horiz-adv-x="406" 
d="M271 0h-136v1443h136v-1443zM-89 1823h94q0 -80 56 -134.5t142 -54.5t142 54.5t56 134.5h94q0 -121 -81.5 -196.5t-210.5 -75.5t-210.5 75.5t-81.5 196.5z" />
    <glyph glyph-name="ibreve" unicode="&#x12d;" horiz-adv-x="390" 
d="M129 0v1077h132v-1077h-132zM-107 1530h97q0 -86 58 -143t146 -57t146 57t58 143h97q0 -129 -83.5 -207.5t-217.5 -78.5t-217.5 78.5t-83.5 207.5z" />
    <glyph glyph-name="Iogonek" unicode="&#x12e;" horiz-adv-x="406" 
d="M135 6v1437h136v-1443l-5 -3q-153 -86 -153 -194q0 -47 34.5 -77.5t89.5 -30.5q43 0 67 7v-104q-40 -14 -93 -14q-99 0 -163 54t-64 138q0 69 39.5 129.5t111.5 100.5z" />
    <glyph glyph-name="iogonek" unicode="&#x12f;" horiz-adv-x="390" 
d="M195 1290q-37 0 -63.5 26.5t-26.5 62.5q0 37 26.5 63.5t63.5 26.5t63 -26.5t26 -63.5q0 -36 -26 -62.5t-63 -26.5zM129 8v1069h132v-1077l-5 -3q-153 -86 -153 -194q0 -47 34.5 -77.5t89.5 -30.5q43 0 67 7v-104q-40 -14 -94 -14q-99 0 -162.5 54t-63.5 138q0 69 41 130
t114 102z" />
    <glyph glyph-name="Idotaccent" unicode="&#x130;" horiz-adv-x="406" 
d="M271 0h-136v1443h136v-1443zM203 1575q-42 0 -72 30t-30 72t30 72t72 30t72 -30t30 -72t-30 -72t-72 -30z" />
    <glyph glyph-name="dotlessi" unicode="&#x131;" horiz-adv-x="390" 
d="M129 0v1077h132v-1077h-132z" />
    <glyph glyph-name="u0132" unicode="&#x132;" horiz-adv-x="1393" 
d="M271 0h-136v1443h136v-1443zM448 331h135q5 -104 77.5 -169t184.5 -65q132 0 204.5 78t72.5 222v1046h136v-1048q0 -199 -109.5 -312t-303.5 -113q-173 0 -284.5 101t-112.5 260z" />
    <glyph glyph-name="u0133" unicode="&#x133;" horiz-adv-x="779" 
d="M129 0v1077h132v-1077h-132zM195 1290q-37 0 -63.5 26.5t-26.5 62.5q0 37 26.5 63.5t63.5 26.5t63 -26.5t26 -63.5q0 -36 -26 -62.5t-63 -26.5zM651 1077v-1145q0 -156 -74.5 -227.5t-233.5 -71.5h-31v113h27q97 0 138.5 42t41.5 140v1149h132zM585 1290
q-37 0 -63.5 26.5t-26.5 62.5q0 37 26.5 63.5t63.5 26.5t63 -26.5t26 -63.5q0 -36 -26 -62.5t-63 -26.5z" />
    <glyph glyph-name="Jcircumflex" unicode="&#x134;" horiz-adv-x="987" 
d="M42 331h135q5 -104 77.5 -169t184.5 -65q132 0 204.5 78t72.5 222v1046h136v-1048q0 -199 -109.5 -312t-303.5 -113q-173 0 -284.5 101t-112.5 260zM729 1846h110l283 -295h-131l-206 217h-2l-206 -217h-131z" />
    <glyph glyph-name="jcircumflex" unicode="&#x135;" horiz-adv-x="388" 
d="M261 1077v-1145q0 -155 -74 -227t-234 -72h-31v113h27q97 0 138.5 42t41.5 140v1149h132zM242 1552l273 -301h-127l-192 220h-5l-192 -220h-127l273 301h97z" />
    <glyph glyph-name="Kcommaaccent" unicode="&#x136;" horiz-adv-x="1209" 
d="M271 0h-136v1443h136v-748h8l686 748h173l-593 -638l652 -805h-175l-573 708l-178 -193v-515zM548 -520h-100l95 358h121z" />
    <glyph glyph-name="kcommaaccent" unicode="&#x137;" horiz-adv-x="988" 
d="M262 565l537 512h164l-486 -465l496 -612h-156l-434 531l-122 -111v-420h-132v1506h132v-941h1zM493 -520h-100l95 358h121z" />
    <glyph glyph-name="Lacute" unicode="&#x139;" horiz-adv-x="1052" 
d="M260 1551h-117l252 295h154zM994 124v-124h-859v1443h136v-1319h723z" />
    <glyph glyph-name="lacute" unicode="&#x13a;" horiz-adv-x="390" 
d="M252 1614h-117l252 295h154zM129 0v1506h132v-1506h-132z" />
    <glyph glyph-name="Lcommaaccent" unicode="&#x13b;" horiz-adv-x="1052" 
d="M531 -520h-100l95 358h121zM994 124v-124h-859v1443h136v-1319h723z" />
    <glyph glyph-name="lcommaaccent" unicode="&#x13c;" horiz-adv-x="390" 
d="M162 -520h-100l95 358h121zM129 0v1506h132v-1506h-132z" />
    <glyph glyph-name="Lcaron" unicode="&#x13d;" horiz-adv-x="1052" 
d="M529 1443h129l-37 -444h-92v444zM994 124v-124h-859v1443h136v-1319h723z" />
    <glyph glyph-name="lcaron" unicode="&#x13e;" horiz-adv-x="498" 
d="M418 1506h109l-24 -444h-85v444zM129 0v1506h132v-1506h-132z" />
    <glyph glyph-name="Lslash" unicode="&#x141;" horiz-adv-x="1061" 
d="M280 124h723v-124h-859v705l-124 -60v111l124 60v627h136v-560l360 175v-111l-360 -175v-648z" />
    <glyph glyph-name="lslash" unicode="&#x142;" horiz-adv-x="408" 
d="M394 962v-112l-124 -64v-786h-132v719l-124 -64v113l124 63v675h132v-607z" />
    <glyph glyph-name="Nacute" unicode="&#x143;" horiz-adv-x="1393" 
d="M753 1551h-117l252 295h154zM270 0h-135v1443h135l846 -1205h7v1205h135v-1443h-132l-849 1206h-7v-1206z" />
    <glyph glyph-name="nacute" unicode="&#x144;" horiz-adv-x="1097" 
d="M604 1251h-117l220 301h153zM119 0v1077h124v-201h4q46 102 136 157.5t219 55.5q177 0 279.5 -106.5t102.5 -289.5v-693h-132v672q0 143 -75 221t-212 78q-143 0 -228.5 -93t-85.5 -245v-633h-132z" />
    <glyph glyph-name="Ncommaaccent" unicode="&#x145;" horiz-adv-x="1393" 
d="M663 -520h-100l95 358h121zM270 0h-135v1443h135l846 -1205h7v1205h135v-1443h-132l-849 1206h-7v-1206z" />
    <glyph glyph-name="ncommaaccent" unicode="&#x146;" horiz-adv-x="1097" 
d="M520 -520h-100l95 358h121zM119 0v1077h124v-201h4q46 102 136 157.5t219 55.5q177 0 279.5 -106.5t102.5 -289.5v-693h-132v672q0 143 -75 221t-212 78q-143 0 -228.5 -93t-85.5 -245v-633h-132z" />
    <glyph glyph-name="Ncaron" unicode="&#x147;" horiz-adv-x="1393" 
d="M641 1551l-283 295h131l206 -217h2l206 217h131l-283 -295h-110zM270 0h-135v1443h135l846 -1205h7v1205h135v-1443h-132l-849 1206h-7v-1206z" />
    <glyph glyph-name="ncaron" unicode="&#x148;" horiz-adv-x="1097" 
d="M601 1251h-97l-273 301h127l192 -219h5l192 219h127zM119 0v1077h124v-201h4q46 102 136 157.5t219 55.5q177 0 279.5 -106.5t102.5 -289.5v-693h-132v672q0 143 -75 221t-212 78q-143 0 -228.5 -93t-85.5 -245v-633h-132z" />
    <glyph glyph-name="Omacron" unicode="&#x14c;" horiz-adv-x="1465" 
d="M732 1466q302 0 479 -201t177 -544t-177 -543.5t-479 -200.5t-478.5 200.5t-176.5 543.5t177 544t478 201zM732 1339q-237 0 -376 -167t-139 -451t139 -450.5t376 -166.5t376.5 167t139.5 450q0 284 -139.5 451t-376.5 167zM1037 1718v-85h-610v85h610z" />
    <glyph glyph-name="omacron" unicode="&#x14d;" horiz-adv-x="1109" 
d="M861 1400v-85h-618v85h618zM554 -12q-222 0 -355.5 149.5t-133.5 401.5q0 251 133.5 400.5t355.5 149.5q223 0 356.5 -149.5t133.5 -400.5t-133.5 -401t-356.5 -150zM554 107q165 0 260 115.5t95 316.5t-95 316.5t-260 115.5q-164 0 -259 -115.5t-95 -316.5t95 -316.5
t259 -115.5z" />
    <glyph glyph-name="Obreve" unicode="&#x14e;" horiz-adv-x="1465" 
d="M732 1466q302 0 479 -201t177 -544t-177 -543.5t-479 -200.5t-478.5 200.5t-176.5 543.5t177 544t478 201zM732 1339q-237 0 -376 -167t-139 -451t139 -450.5t376 -166.5t376.5 167t139.5 450q0 284 -139.5 451t-376.5 167zM440 1823h94q0 -80 56 -134.5t142 -54.5
t142 54.5t56 134.5h94q0 -121 -81.5 -196.5t-210.5 -75.5t-210.5 75.5t-81.5 196.5z" />
    <glyph glyph-name="obreve" unicode="&#x14f;" horiz-adv-x="1109" 
d="M252 1530h97q0 -86 58 -143t146 -57t146 57t58 143h97q0 -129 -83.5 -207.5t-217.5 -78.5t-217.5 78.5t-83.5 207.5zM554 -12q-222 0 -355.5 149.5t-133.5 401.5q0 251 133.5 400.5t355.5 149.5q223 0 356.5 -149.5t133.5 -400.5t-133.5 -401t-356.5 -150zM554 107
q165 0 260 115.5t95 316.5t-95 316.5t-260 115.5q-164 0 -259 -115.5t-95 -316.5t95 -316.5t259 -115.5z" />
    <glyph glyph-name="Ohungarumlaut" unicode="&#x150;" horiz-adv-x="1465" 
d="M936 1551h-111l252 295h147zM645 1551h-111l252 295h147zM732 1466q302 0 479 -201t177 -544t-177 -543.5t-479 -200.5t-478.5 200.5t-176.5 543.5t177 544t478 201zM732 1339q-237 0 -376 -167t-139 -451t139 -450.5t376 -166.5t376.5 167t139.5 450q0 284 -139.5 451
t-376.5 167z" />
    <glyph glyph-name="ohungarumlaut" unicode="&#x151;" horiz-adv-x="1109" 
d="M642 1251l209 301h151l-252 -301h-108zM357 1251l209 301h151l-252 -301h-108zM554 -12q-222 0 -355.5 149.5t-133.5 401.5q0 251 133.5 400.5t355.5 149.5q223 0 356.5 -149.5t133.5 -400.5t-133.5 -401t-356.5 -150zM554 107q165 0 260 115.5t95 316.5t-95 316.5
t-260 115.5q-164 0 -259 -115.5t-95 -316.5t95 -316.5t259 -115.5z" />
    <glyph glyph-name="OE" unicode="&#x152;" horiz-adv-x="2200" 
d="M739 1339q-240 0 -381 -167t-141 -451q0 -283 141 -450t381 -167q239 0 380 167t141 450t-141 450.5t-380 167.5zM1262 0v290q-71 -149 -208 -231t-315 -82q-305 0 -483.5 200.5t-178.5 543.5q0 344 178.5 544.5t483.5 200.5q180 0 316 -80.5t207 -229.5v287h849v-124
h-712v-519h674v-122h-674v-554h712v-124h-849z" />
    <glyph glyph-name="oe" unicode="&#x153;" horiz-adv-x="1919" 
d="M1398 -12q-146 0 -259 73.5t-161 196.5h-7q-54 -131 -160.5 -201t-256.5 -70q-223 0 -356 149t-133 401t133 401.5t356 149.5q149 0 255 -70t162 -202h7q48 125 158.5 199t252.5 74q213 0 339 -142t126 -383v-58h-808v-8q0 -177 97 -285t257 -108q119 0 202 55t107 145
h132q-24 -139 -147 -228t-296 -89zM1717 613q-2 161 -93.5 260t-236.5 99q-144 0 -238 -99t-103 -260h671zM200 537q0 -201 95 -316t259 -115q165 0 260 115t95 316q0 202 -95 317.5t-260 115.5q-164 0 -259 -116t-95 -317z" />
    <glyph glyph-name="Racute" unicode="&#x154;" horiz-adv-x="1199" 
d="M575 1551h-117l252 295h154zM271 1321v-609h369q157 0 244.5 80t87.5 225q0 143 -89.5 223.5t-247.5 80.5h-364zM271 591v-591h-136v1443h516q211 0 336.5 -114.5t125.5 -307.5q0 -153 -82 -262t-227 -146l349 -613h-159l-332 591h-22h-369z" />
    <glyph glyph-name="racute" unicode="&#x155;" horiz-adv-x="634" 
d="M406 1251h-117l220 301h153zM119 0v1077h124v-191h4q28 96 100 149.5t173 53.5q47 0 84 -11v-131q-34 15 -102 15q-114 0 -182.5 -81.5t-68.5 -212.5v-668h-132z" />
    <glyph glyph-name="Rcommaaccent" unicode="&#x156;" horiz-adv-x="1199" 
d="M271 1321v-609h369q157 0 244.5 80t87.5 225q0 143 -89.5 223.5t-247.5 80.5h-364zM271 591v-591h-136v1443h516q211 0 336.5 -114.5t125.5 -307.5q0 -153 -82 -262t-227 -146l349 -613h-159l-332 591h-22h-369zM485 -520h-100l95 358h121z" />
    <glyph glyph-name="rcommaaccent" unicode="&#x157;" horiz-adv-x="634" 
d="M119 0v1077h124v-191h4q28 96 100 149.5t173 53.5q47 0 84 -11v-131q-34 15 -102 15q-114 0 -182.5 -81.5t-68.5 -212.5v-668h-132zM152 -520h-100l95 358h121z" />
    <glyph glyph-name="Rcaron" unicode="&#x158;" horiz-adv-x="1199" 
d="M271 1321v-609h369q157 0 244.5 80t87.5 225q0 143 -89.5 223.5t-247.5 80.5h-364zM271 591v-591h-136v1443h516q211 0 336.5 -114.5t125.5 -307.5q0 -153 -82 -262t-227 -146l349 -613h-159l-332 591h-22h-369zM463 1551l-283 295h131l206 -217h2l206 217h131l-283 -295
h-110z" />
    <glyph glyph-name="rcaron" unicode="&#x159;" horiz-adv-x="634" 
d="M403 1251h-97l-273 301h127l192 -219h5l192 219h127zM119 0v1077h124v-191h4q28 96 100 149.5t173 53.5q47 0 84 -11v-131q-34 15 -102 15q-114 0 -182.5 -81.5t-68.5 -212.5v-668h-132z" />
    <glyph glyph-name="Sacute" unicode="&#x15a;" horiz-adv-x="1182" 
d="M656 1551h-117l252 295h154zM65 392h137q11 -130 123 -210.5t281 -80.5q162 0 266.5 79t104.5 201q0 101 -73 164.5t-234 104.5l-179 46q-201 51 -293.5 140t-92.5 231q0 174 140 286.5t354 112.5q210 0 349.5 -111.5t145.5 -283.5h-137q-10 122 -109 196.5t-253 74.5
q-151 0 -249.5 -75.5t-98.5 -194.5q0 -93 71 -151.5t231 -99.5l156 -40q218 -55 315 -145t97 -240q0 -190 -142 -304.5t-381 -114.5q-226 0 -372 114.5t-157 300.5z" />
    <glyph glyph-name="sacute" unicode="&#x15b;" horiz-adv-x="958" 
d="M97 787q0 133 109.5 217.5t277.5 84.5q163 0 271 -88t116 -227h-127q-10 92 -80.5 147.5t-183.5 55.5q-109 0 -180.5 -51t-71.5 -132q0 -65 48.5 -106t152.5 -67l165 -40q162 -41 230 -105.5t68 -179.5q0 -136 -116.5 -222t-298.5 -86q-172 0 -286.5 88.5t-125.5 226.5
h134q12 -93 88.5 -148.5t197.5 -55.5q122 0 197.5 51.5t75.5 136.5q0 69 -46 109.5t-155 67.5l-182 46q-140 35 -209 103t-69 174zM535 1251h-117l220 301h153z" />
    <glyph glyph-name="Scircumflex" unicode="&#x15c;" horiz-adv-x="1182" 
d="M65 392h137q11 -130 123 -210.5t281 -80.5q162 0 266.5 79t104.5 201q0 101 -73 164.5t-234 104.5l-179 46q-201 51 -293.5 140t-92.5 231q0 174 140 286.5t354 112.5q210 0 349.5 -111.5t145.5 -283.5h-137q-10 122 -109 196.5t-253 74.5q-151 0 -249.5 -75.5
t-98.5 -194.5q0 -93 71 -151.5t231 -99.5l156 -40q218 -55 315 -145t97 -240q0 -190 -142 -304.5t-381 -114.5q-226 0 -372 114.5t-157 300.5zM544 1846h110l283 -295h-131l-206 217h-2l-206 -217h-131z" />
    <glyph glyph-name="scircumflex" unicode="&#x15d;" horiz-adv-x="958" 
d="M532 1552l273 -301h-127l-192 220h-5l-192 -220h-127l273 301h97zM97 787q0 133 109.5 217.5t277.5 84.5q163 0 271 -88t116 -227h-127q-10 92 -80.5 147.5t-183.5 55.5q-109 0 -180.5 -51t-71.5 -132q0 -65 48.5 -106t152.5 -67l165 -40q162 -41 230 -105.5t68 -179.5
q0 -136 -116.5 -222t-298.5 -86q-172 0 -286.5 88.5t-125.5 226.5h134q12 -93 88.5 -148.5t197.5 -55.5q122 0 197.5 51.5t75.5 136.5q0 69 -46 109.5t-155 67.5l-182 46q-140 35 -209 103t-69 174z" />
    <glyph glyph-name="Scedilla" unicode="&#x15e;" horiz-adv-x="1182" 
d="M549 821l156 -40q218 -55 315 -145t97 -240q0 -181 -129 -294t-349 -124l-46 -119q101 0 154.5 -39.5t53.5 -112.5q0 -76 -61.5 -124.5t-156.5 -49.5q-84 0 -139 17v80q41 -16 122 -16q63 0 100 24.5t37 65.5q0 82 -155 82h-53v60l53 132q-208 12 -340.5 125t-142.5 289
h137q11 -130 123 -210.5t281 -80.5q162 0 266.5 79t104.5 201q0 101 -73 164.5t-234 104.5l-179 46q-201 51 -293.5 140t-92.5 231q0 174 140 286.5t354 112.5q210 0 349.5 -111.5t145.5 -283.5h-137q-10 122 -109 196.5t-253 74.5q-151 0 -249.5 -75.5t-98.5 -194.5
q0 -93 71 -151.5t231 -99.5z" />
    <glyph glyph-name="scedilla" unicode="&#x15f;" horiz-adv-x="958" 
d="M429 621l165 -40q162 -41 230 -105.5t68 -179.5q0 -126 -101 -210t-264 -96l-50 -131q101 0 154.5 -39.5t53.5 -112.5q0 -76 -61.5 -124.5t-156.5 -49.5q-84 0 -139 17v80q41 -16 122 -16q63 0 100 24.5t37 65.5q0 82 -155 82h-53v60l58 143q-157 11 -259 98t-113 216
h134q12 -93 88.5 -148.5t197.5 -55.5q122 0 197.5 51.5t75.5 136.5q0 69 -46 109.5t-155 67.5l-182 46q-140 35 -209 103t-69 174q0 133 109.5 217.5t277.5 84.5q163 0 271 -88t116 -227h-127q-10 92 -80.5 147.5t-183.5 55.5q-109 0 -180.5 -51t-71.5 -132q0 -65 48.5 -106
t152.5 -67z" />
    <glyph glyph-name="Scaron" unicode="&#x160;" horiz-adv-x="1182" 
d="M65 392h137q11 -130 123 -210.5t281 -80.5q162 0 266.5 79t104.5 201q0 101 -73 164.5t-234 104.5l-179 46q-201 51 -293.5 140t-92.5 231q0 174 140 286.5t354 112.5q210 0 349.5 -111.5t145.5 -283.5h-137q-10 122 -109 196.5t-253 74.5q-151 0 -249.5 -75.5
t-98.5 -194.5q0 -93 71 -151.5t231 -99.5l156 -40q218 -55 315 -145t97 -240q0 -190 -142 -304.5t-381 -114.5q-226 0 -372 114.5t-157 300.5zM544 1551l-283 295h131l206 -217h2l206 217h131l-283 -295h-110z" />
    <glyph glyph-name="scaron" unicode="&#x161;" horiz-adv-x="958" 
d="M532 1251h-97l-273 301h127l192 -219h5l192 219h127zM97 787q0 133 109.5 217.5t277.5 84.5q163 0 271 -88t116 -227h-127q-10 92 -80.5 147.5t-183.5 55.5q-109 0 -180.5 -51t-71.5 -132q0 -65 48.5 -106t152.5 -67l165 -40q162 -41 230 -105.5t68 -179.5
q0 -136 -116.5 -222t-298.5 -86q-172 0 -286.5 88.5t-125.5 226.5h134q12 -93 88.5 -148.5t197.5 -55.5q122 0 197.5 51.5t75.5 136.5q0 69 -46 109.5t-155 67.5l-182 46q-140 35 -209 103t-69 174z" />
    <glyph glyph-name="Tcedilla" unicode="&#x162;" horiz-adv-x="1179" 
d="M658 0h-15l-54 -141q101 0 154.5 -39.5t53.5 -112.5q0 -76 -61.5 -124.5t-156.5 -49.5q-84 0 -139 17v80q41 -16 122 -16q63 0 100 24.5t37 65.5q0 82 -155 82h-53v60l62 154h-32v1319h-483v124h1103v-124h-483v-1319z" />
    <glyph glyph-name="tcedilla" unicode="&#x163;" horiz-adv-x="598" 
d="M413 -6l-52 -135q101 0 154.5 -39.5t53.5 -112.5q0 -76 -61.5 -124.5t-156.5 -49.5q-84 0 -139 17v80q41 -16 122 -16q63 0 100 24.5t37 65.5q0 82 -155 82h-53v60l64 159q-78 20 -114 82.5t-36 177.5v701h-154v111h154v258h132v-258h213v-111h-213v-696q0 -84 34.5 -122
t109.5 -38q42 0 74 4v-113q-24 -7 -100 -7h-14z" />
    <glyph glyph-name="Tcaron" unicode="&#x164;" horiz-adv-x="1179" 
d="M535 1551l-283 295h131l206 -217h2l206 217h131l-283 -295h-110zM658 0h-137v1319h-483v124h1103v-124h-483v-1319z" />
    <glyph glyph-name="tcaron" unicode="&#x165;" horiz-adv-x="694" 
d="M457 1677h109l-24 -444h-85v444zM177 1335h132v-258h213v-111h-213v-696q0 -84 34.5 -122t109.5 -38q42 0 74 4v-113q-24 -7 -100 -7q-134 0 -192 63t-58 208v701h-154v111h154v258z" />
    <glyph glyph-name="Tbar" unicode="&#x166;" horiz-adv-x="1207" 
d="M1141 1319h-483v-531h317v-110h-317v-678h-137v678h-289v110h289v531h-483v124h1103v-124z" />
    <glyph glyph-name="tbar" unicode="&#x167;" horiz-adv-x="600" 
d="M309 539v-269q0 -84 34.5 -122t109.5 -38q42 0 74 4v-113q-24 -7 -100 -7q-134 0 -192 63t-58 208v274h-154v111h154v316h-154v111h154v258h132v-258h213v-111h-213v-316h217v-111h-217z" />
    <glyph glyph-name="Utilde" unicode="&#x168;" horiz-adv-x="1386" 
d="M271 1443v-931q0 -184 113 -296t309 -112t309 112t113 296v931h137v-939q0 -236 -151 -381.5t-408 -145.5t-407.5 145.5t-150.5 381.5v939h136zM824 1541q-36 0 -67.5 16t-54.5 39.5l-44 46.5t-44.5 39t-47.5 16q-38 0 -58 -38t-20 -106h-91q0 109 43.5 171.5t122.5 62.5
q46 0 86 -24.5t64 -54t54 -54t57 -24.5q73 0 73 144h91q0 -107 -43.5 -170.5t-120.5 -63.5z" />
    <glyph glyph-name="utilde" unicode="&#x169;" horiz-adv-x="1097" 
d="M979 1077v-1077h-125v202h-3q-45 -100 -138.5 -157t-219.5 -57q-176 0 -278 106.5t-102 288.5v694h132v-672q0 -144 74 -221t211 -77q142 0 229 92.5t87 244.5v633h133zM680 1257q-36 0 -67.5 16t-54.5 39.5l-44 46.5t-44.5 39t-47.5 16q-38 0 -58 -38t-20 -106h-91
q0 109 43.5 171.5t122.5 62.5q46 0 86 -24.5t64 -54t54 -54t57 -24.5q73 0 73 144h91q0 -107 -43.5 -170.5t-120.5 -63.5z" />
    <glyph glyph-name="Umacron" unicode="&#x16a;" horiz-adv-x="1386" 
d="M271 1443v-931q0 -184 113 -296t309 -112t309 112t113 296v931h137v-939q0 -236 -151 -381.5t-408 -145.5t-407.5 145.5t-150.5 381.5v939h136zM998 1718v-85h-610v85h610z" />
    <glyph glyph-name="umacron" unicode="&#x16b;" horiz-adv-x="1097" 
d="M979 1077v-1077h-125v202h-3q-45 -100 -138.5 -157t-219.5 -57q-176 0 -278 106.5t-102 288.5v694h132v-672q0 -144 74 -221t211 -77q142 0 229 92.5t87 244.5v633h133zM853 1400v-85h-618v85h618z" />
    <glyph glyph-name="Ubreve" unicode="&#x16c;" horiz-adv-x="1386" 
d="M271 1443v-931q0 -184 113 -296t309 -112t309 112t113 296v931h137v-939q0 -236 -151 -381.5t-408 -145.5t-407.5 145.5t-150.5 381.5v939h136zM401 1823h94q0 -80 56 -134.5t142 -54.5t142 54.5t56 134.5h94q0 -121 -81.5 -196.5t-210.5 -75.5t-210.5 75.5t-81.5 196.5z
" />
    <glyph glyph-name="ubreve" unicode="&#x16d;" horiz-adv-x="1097" 
d="M979 1077v-1077h-125v202h-3q-45 -100 -138.5 -157t-219.5 -57q-176 0 -278 106.5t-102 288.5v694h132v-672q0 -144 74 -221t211 -77q142 0 229 92.5t87 244.5v633h133zM244 1530h97q0 -86 58 -143t146 -57t146 57t58 143h97q0 -129 -83.5 -207.5t-217.5 -78.5
t-217.5 78.5t-83.5 207.5z" />
    <glyph glyph-name="Uring" unicode="&#x16e;" horiz-adv-x="1386" 
d="M693 1507q-77 0 -132.5 55.5t-55.5 132.5t55.5 132t132.5 55t132.5 -55t55.5 -132t-55.5 -132.5t-132.5 -55.5zM693 1575q50 0 84.5 35t34.5 85q0 49 -35 84t-84 35t-84 -35t-35 -84q0 -50 34.5 -85t84.5 -35zM271 1443v-931q0 -184 113 -296t309 -112t309 112t113 296
v931h137v-939q0 -236 -151 -381.5t-408 -145.5t-407.5 145.5t-150.5 381.5v939h136z" />
    <glyph glyph-name="uring" unicode="&#x16f;" horiz-adv-x="1097" 
d="M979 1077v-1077h-125v202h-3q-45 -100 -138.5 -157t-219.5 -57q-176 0 -278 106.5t-102 288.5v694h132v-672q0 -144 74 -221t211 -77q142 0 229 92.5t87 244.5v633h133zM546 1206q-77 0 -132 55.5t-55 132.5t55 132.5t132 55.5t132.5 -55.5t55.5 -132.5t-55.5 -132.5
t-132.5 -55.5zM546 1274q50 0 85 35t35 85t-35 85t-85 35q-49 0 -84 -35t-35 -85t35 -85t84 -35z" />
    <glyph glyph-name="Uhungarumlaut" unicode="&#x170;" horiz-adv-x="1386" 
d="M271 1443v-931q0 -184 113 -296t309 -112t309 112t113 296v931h137v-939q0 -236 -151 -381.5t-408 -145.5t-407.5 145.5t-150.5 381.5v939h136zM897 1551h-111l252 295h147zM606 1551h-111l252 295h147z" />
    <glyph glyph-name="uhungarumlaut" unicode="&#x171;" horiz-adv-x="1097" 
d="M634 1251l209 301h151l-252 -301h-108zM349 1251l209 301h151l-252 -301h-108zM979 1077v-1077h-125v202h-3q-45 -100 -138.5 -157t-219.5 -57q-176 0 -278 106.5t-102 288.5v694h132v-672q0 -144 74 -221t211 -77q142 0 229 92.5t87 244.5v633h133z" />
    <glyph glyph-name="Uogonek" unicode="&#x172;" horiz-adv-x="1386" 
d="M937 -416q-99 0 -162.5 54t-63.5 138q0 122 137 225v4q-74 -28 -155 -28q-253 0 -405.5 144t-152.5 383v939h136v-931q0 -187 114.5 -297.5t307.5 -110.5t307.5 110.5t114.5 297.5v931h137v-939q0 -147 -61 -259.5t-189 -212.5q-162 -121 -162 -229q0 -47 34.5 -77.5
t88.5 -30.5q43 0 68 7v-104q-40 -14 -94 -14z" />
    <glyph glyph-name="uogonek" unicode="&#x173;" horiz-adv-x="1097" 
d="M973 -402q-39 -14 -93 -14q-99 0 -163 54t-64 138q0 76 54 139.5t147 98.5v188h-3q-45 -100 -138.5 -157t-219.5 -57q-176 0 -278 106.5t-102 288.5v694h132v-672q0 -144 74 -221t211 -77q142 0 229 92.5t87 244.5v633h133v-1077l-11 -4q-90 -38 -138 -87.5t-48 -105.5
q0 -47 34.5 -77.5t89.5 -30.5q44 0 67 7v-104z" />
    <glyph glyph-name="Wcircumflex" unicode="&#x174;" horiz-adv-x="1854" 
d="M872 1846h110l283 -295h-131l-206 217h-2l-206 -217h-131zM923 1209l-355 -1209h-127l-397 1443h142l318 -1233h6l349 1233h136l348 -1233h7l317 1233h143l-398 -1443h-126l-355 1209h-8z" />
    <glyph glyph-name="wcircumflex" unicode="&#x175;" horiz-adv-x="1477" 
d="M786 1552l273 -301h-127l-192 220h-5l-192 -220h-127l273 301h97zM1456 1077l-307 -1077h-139l-270 897h-3l-270 -897h-139l-307 1077h133l244 -927h3l270 927h134l271 -927h3l244 927h133z" />
    <glyph glyph-name="Ycircumflex" unicode="&#x176;" horiz-adv-x="1219" 
d="M678 0h-137v624l-517 819h156l427 -685h5l427 685h156l-517 -819v-624zM554 1846h110l283 -295h-131l-206 217h-2l-206 -217h-131z" />
    <glyph glyph-name="ycircumflex" unicode="&#x177;" horiz-adv-x="980" 
d="M197 -381q-29 0 -66 7v114q28 -7 64 -7q74 0 118.5 41.5t82.5 145.5l26 73l-405 1084h142l330 -943h3l331 943h140l-423 -1136q-70 -189 -141 -255.5t-202 -66.5zM539 1552l273 -301h-127l-192 220h-5l-192 -220h-127l273 301h97z" />
    <glyph glyph-name="Ydieresis" unicode="&#x178;" horiz-adv-x="1219" 
d="M678 0h-137v624l-517 819h156l427 -685h5l427 685h156l-517 -819v-624zM431 1576q-38 0 -65.5 27.5t-27.5 64.5q0 38 27.5 65.5t65.5 27.5t65.5 -27.5t27.5 -65.5t-27.5 -65t-65.5 -27zM787 1576q-38 0 -65.5 27t-27.5 65t27.5 65.5t65.5 27.5t65.5 -27.5t27.5 -65.5
t-27.5 -65t-65.5 -27z" />
    <glyph glyph-name="Zacute" unicode="&#x179;" horiz-adv-x="1224" 
d="M669 1551h-117l252 295h154zM87 0v99l866 1214v6h-838v124h1011v-100l-864 -1213v-6h876v-124h-1051z" />
    <glyph glyph-name="zacute" unicode="&#x17a;" horiz-adv-x="963" 
d="M533 1251h-117l220 301h153zM83 0v100l645 864v2h-645v111h796v-101l-644 -862v-3h646v-111h-798z" />
    <glyph glyph-name="Zdotaccent" unicode="&#x17b;" horiz-adv-x="1224" 
d="M612 1575q-42 0 -72 30t-30 72t30 72t72 30t72 -30t30 -72t-30 -72t-72 -30zM87 0v99l866 1214v6h-838v124h1011v-100l-864 -1213v-6h876v-124h-1051z" />
    <glyph glyph-name="zdotaccent" unicode="&#x17c;" horiz-adv-x="963" 
d="M482 1259q-43 0 -73.5 30.5t-30.5 73.5t30.5 73.5t73.5 30.5t73.5 -30.5t30.5 -73.5t-30.5 -73.5t-73.5 -30.5zM83 0v100l645 864v2h-645v111h796v-101l-644 -862v-3h646v-111h-798z" />
    <glyph glyph-name="Zcaron" unicode="&#x17d;" horiz-adv-x="1224" 
d="M87 0v99l866 1214v6h-838v124h1011v-100l-864 -1213v-6h876v-124h-1051zM557 1551l-283 295h131l206 -217h2l206 217h131l-283 -295h-110z" />
    <glyph glyph-name="zcaron" unicode="&#x17e;" horiz-adv-x="963" 
d="M530 1251h-97l-273 301h127l192 -219h5l192 219h127zM83 0v100l645 864v2h-645v111h796v-101l-644 -862v-3h646v-111h-798z" />
    <glyph glyph-name="florin" unicode="&#x192;" horiz-adv-x="1219" 
d="M1180 1427v-121q-75 40 -180 40q-118 0 -182.5 -57.5t-83.5 -182.5l-39 -254h389v-111h-406l-63 -406q-28 -182 -120.5 -269.5t-255.5 -87.5q-116 0 -199 43v127q34 -21 87.5 -35t99.5 -14q115 0 176 59.5t81 192.5l60 390h-361v111h378l41 263q56 351 383 351
q119 0 195 -39z" />
    <glyph glyph-name="Ohorn" unicode="&#x1a0;" horiz-adv-x="1465" 
d="M732 -23q-302 0 -478.5 200.5t-176.5 543.5t177 544t478 201q69 0 194.5 -17t209.5 -17q79 0 109.5 23t30.5 84v129h122v-168q0 -81 -52.5 -125.5t-149.5 -44.5h-72v-5q119 -73 191.5 -239.5t72.5 -364.5q0 -343 -177 -543.5t-479 -200.5zM732 104q237 0 376.5 167
t139.5 450q0 285 -139.5 451.5t-376.5 166.5t-376 -167t-139 -451t139 -450.5t376 -166.5z" />
    <glyph glyph-name="ohorn" unicode="&#x1a1;" horiz-adv-x="1139" 
d="M554 107q165 0 260 116t95 316t-95 316t-260 116t-259.5 -115.5t-94.5 -316.5t95 -316.5t259 -115.5zM1044 539q0 -251 -133.5 -401t-356.5 -150t-356 150t-133 401t133 400.5t356 149.5q64 0 147 -11.5t135 -11.5q65 0 90.5 21.5t25.5 76.5v133h122v-172
q0 -70 -40.5 -111t-111.5 -41h-64v-4q87 -51 136.5 -165t49.5 -265z" />
    <glyph glyph-name="Uhorn" unicode="&#x1af;" horiz-adv-x="1531" 
d="M693 -23q-254 0 -406 143.5t-152 383.5v939h136v-931q0 -185 115.5 -296.5t306.5 -111.5q192 0 307 111.5t115 296.5v931h163q101 0 101 94v158h122v-182q0 -80 -50 -125t-139 -45h-60v-839q0 -240 -152.5 -383.5t-406.5 -143.5z" />
    <glyph glyph-name="uhorn" unicode="&#x1b0;" horiz-adv-x="1200" 
d="M851 202q-45 -101 -139 -157.5t-219 -56.5q-175 0 -277.5 106t-102.5 289v694h132v-672q0 -144 74.5 -221t210.5 -77q141 0 228.5 92t87.5 245v633h138q101 0 101 94v143h122v-167q0 -80 -50 -125t-139 -45h-39v-977h-125v202h-3z" />
    <glyph glyph-name="u01C4" unicode="&#x1c4;" horiz-adv-x="2594" 
d="M135 1443h475q324 0 504 -189.5t180 -531.5q0 -343 -179.5 -532.5t-504.5 -189.5h-475v1443zM272 1319v-1195h330q266 0 409.5 155t143.5 442q0 288 -143.5 443t-409.5 155h-330zM1457 0v99l866 1214v6h-838v124h1011v-100l-864 -1213v-6h876v-124h-1051zM1927 1551
l-283 295h131l206 -217h2l206 217h131l-283 -295h-110z" />
    <glyph glyph-name="u01C5" unicode="&#x1c5;" horiz-adv-x="2334" 
d="M135 1443h475q324 0 504 -189.5t180 -531.5q0 -343 -179.5 -532.5t-504.5 -189.5h-475v1443zM272 1319v-1195h330q266 0 409.5 155t143.5 442q0 288 -143.5 443t-409.5 155h-330zM1900 1251h-97l-273 301h127l192 -219h5l192 219h127zM1453 0v100l645 864v2h-645v111h796
v-101l-644 -862v-3h646v-111h-798z" />
    <glyph glyph-name="u01C6" unicode="&#x1c6;" horiz-adv-x="2121" 
d="M526 -12q-203 0 -332 152.5t-129 398.5q0 245 128 397.5t330 152.5q128 0 227 -63.5t143 -169.5h3v650h133v-1506h-126v229h-3q-47 -111 -146 -176t-228 -65zM547 971q-155 0 -251 -119t-96 -313t96 -313t251 -119t252.5 120t97.5 312q0 191 -97.5 311.5t-252.5 120.5z
M1687 1251h-97l-273 301h127l192 -219h5l192 219h127zM1240 0v100l645 864v2h-645v111h796v-101l-644 -862v-3h646v-111h-798z" />
    <glyph glyph-name="u01C7" unicode="&#x1c7;" horiz-adv-x="2037" 
d="M1092 331h135q5 -104 77.5 -169t184.5 -65q132 0 204.5 78t72.5 222v1046h136v-1048q0 -199 -109.5 -312t-303.5 -113q-173 0 -284.5 101t-112.5 260zM994 124v-124h-859v1443h136v-1319h723z" />
    <glyph glyph-name="u01C8" unicode="&#x1c8;" horiz-adv-x="1439" 
d="M1311 1077v-1145q0 -156 -74.5 -227.5t-233.5 -71.5h-31v113h27q97 0 138.5 42t41.5 140v1149h132zM1245 1290q-37 0 -63.5 26.5t-26.5 62.5q0 37 26.5 63.5t63.5 26.5t63 -26.5t26 -63.5q0 -36 -26 -62.5t-63 -26.5zM994 124v-124h-859v1443h136v-1319h723z" />
    <glyph glyph-name="u01C9" unicode="&#x1c9;" horiz-adv-x="779" 
d="M651 1077v-1145q0 -156 -74.5 -227.5t-233.5 -71.5h-31v113h27q97 0 138.5 42t41.5 140v1149h132zM585 1290q-37 0 -63.5 26.5t-26.5 62.5q0 37 26.5 63.5t63.5 26.5t63 -26.5t26 -63.5q0 -36 -26 -62.5t-63 -26.5zM129 0v1506h132v-1506h-132z" />
    <glyph glyph-name="u01CA" unicode="&#x1ca;" horiz-adv-x="2380" 
d="M1435 331h135q5 -104 77.5 -169t184.5 -65q132 0 204.5 78t72.5 222v1046h136v-1048q0 -199 -109.5 -312t-303.5 -113q-173 0 -284.5 101t-112.5 260zM270 0h-135v1443h135l846 -1205h7v1205h135v-1443h-132l-849 1206h-7v-1206z" />
    <glyph glyph-name="u01CB" unicode="&#x1cb;" horiz-adv-x="1783" 
d="M1654 1077v-1145q0 -156 -74.5 -227.5t-233.5 -71.5h-31v113h27q97 0 138.5 42t41.5 140v1149h132zM1588 1290q-37 0 -63.5 26.5t-26.5 62.5q0 37 26.5 63.5t63.5 26.5t63 -26.5t26 -63.5q0 -36 -26 -62.5t-63 -26.5zM270 0h-135v1443h135l846 -1205h7v1205h135v-1443
h-132l-849 1206h-7v-1206z" />
    <glyph glyph-name="u01CC" unicode="&#x1cc;" horiz-adv-x="1487" 
d="M1358 1077v-1145q0 -156 -74.5 -227.5t-233.5 -71.5h-31v113h27q97 0 138.5 42t41.5 140v1149h132zM1292 1290q-37 0 -63.5 26.5t-26.5 62.5q0 37 26.5 63.5t63.5 26.5t63 -26.5t26 -63.5q0 -36 -26 -62.5t-63 -26.5zM119 0v1077h124v-201h4q46 102 136 157.5t219 55.5
q177 0 279.5 -106.5t102.5 -289.5v-693h-132v672q0 143 -75 221t-212 78q-143 0 -228.5 -93t-85.5 -245v-633h-132z" />
    <glyph glyph-name="Acaron" unicode="&#x1cd;" horiz-adv-x="1262" 
d="M1094 0l-160 442h-606l-160 -442h-145l540 1443h136l539 -1443h-144zM628 1274l-259 -714h524l-259 714h-6zM576 1551l-283 295h131l206 -217h2l206 217h131l-283 -295h-110z" />
    <glyph glyph-name="acaron" unicode="&#x1ce;" horiz-adv-x="1048" 
d="M463 104q145 0 242.5 86.5t97.5 214.5v119l-315 -22q-136 -9 -206.5 -60.5t-70.5 -142.5q0 -87 70 -141t182 -54zM437 -12q-161 0 -261 86.5t-100 225.5q0 138 101 216.5t295 92.5l331 22v92q0 118 -71.5 183t-201.5 65q-113 0 -187 -54.5t-92 -150.5h-127
q8 142 122.5 232.5t284.5 90.5q185 0 294.5 -96t109.5 -259v-734h-126v206h-3q-44 -98 -144.5 -158t-224.5 -60zM576 1251h-97l-273 301h127l192 -219h5l192 219h127z" />
    <glyph glyph-name="Icaron" unicode="&#x1cf;" horiz-adv-x="406" 
d="M271 0h-136v1443h136v-1443zM148 1551l-283 295h131l206 -217h2l206 217h131l-283 -295h-110z" />
    <glyph glyph-name="icaron" unicode="&#x1d0;" horiz-adv-x="390" 
d="M243 1251h-97l-273 301h127l192 -219h5l192 219h127zM129 0v1077h132v-1077h-132z" />
    <glyph glyph-name="Ocaron" unicode="&#x1d1;" horiz-adv-x="1465" 
d="M677 1551l-283 295h131l206 -217h2l206 217h131l-283 -295h-110zM732 1466q302 0 479 -201t177 -544t-177 -543.5t-479 -200.5t-478.5 200.5t-176.5 543.5t177 544t478 201zM732 1339q-237 0 -376 -167t-139 -451t139 -450.5t376 -166.5t376.5 167t139.5 450
q0 284 -139.5 451t-376.5 167z" />
    <glyph glyph-name="ocaron" unicode="&#x1d2;" horiz-adv-x="1109" 
d="M602 1251h-97l-273 301h127l192 -219h5l192 219h127zM554 -12q-222 0 -355.5 149.5t-133.5 401.5q0 251 133.5 400.5t355.5 149.5q223 0 356.5 -149.5t133.5 -400.5t-133.5 -401t-356.5 -150zM554 107q165 0 260 115.5t95 316.5t-95 316.5t-260 115.5q-164 0 -259 -115.5
t-95 -316.5t95 -316.5t259 -115.5z" />
    <glyph glyph-name="Ucaron" unicode="&#x1d3;" horiz-adv-x="1386" 
d="M638 1551l-283 295h131l206 -217h2l206 217h131l-283 -295h-110zM271 1443v-931q0 -184 113 -296t309 -112t309 112t113 296v931h137v-939q0 -236 -151 -381.5t-408 -145.5t-407.5 145.5t-150.5 381.5v939h136z" />
    <glyph glyph-name="ucaron" unicode="&#x1d4;" horiz-adv-x="1097" 
d="M594 1251h-97l-273 301h127l192 -219h5l192 219h127zM979 1077v-1077h-125v202h-3q-45 -100 -138.5 -157t-219.5 -57q-176 0 -278 106.5t-102 288.5v694h132v-672q0 -144 74 -221t211 -77q142 0 229 92.5t87 244.5v633h133z" />
    <glyph glyph-name="Udieresismacron" unicode="&#x1d5;" horiz-adv-x="1386" 
d="M271 1443v-931q0 -184 113 -296t309 -112t309 112t113 296v931h137v-939q0 -236 -151 -381.5t-408 -145.5t-407.5 145.5t-150.5 381.5v939h136zM523 1747q34 0 58.5 -24.5t24.5 -58.5q0 -35 -24.5 -59.5t-58.5 -24.5q-35 0 -59.5 24.5t-24.5 59.5q0 34 24.5 58.5
t59.5 24.5zM388 1979h610v-84h-610v84zM863 1747q35 0 59.5 -24.5t24.5 -58.5q0 -35 -24.5 -59.5t-59.5 -24.5q-34 0 -58.5 24.5t-24.5 59.5q0 34 24.5 58.5t58.5 24.5z" />
    <glyph glyph-name="udieresismacron" unicode="&#x1d6;" horiz-adv-x="1097" 
d="M979 1077v-1077h-125v202h-3q-45 -100 -138.5 -157t-219.5 -57q-176 0 -278 106.5t-102 288.5v694h132v-672q0 -144 74 -221t211 -77q142 0 229 92.5t87 244.5v633h133zM368 1259q-37 0 -63 26t-26 63t26 63t63 26q38 0 64 -26t26 -63t-26.5 -63t-63.5 -26zM724 1259
q-37 0 -63.5 26t-26.5 63t26.5 63t63.5 26q38 0 63.5 -25.5t25.5 -63.5q0 -37 -26 -63t-63 -26zM853 1719v-85h-618v85h618z" />
    <glyph glyph-name="Udieresisacute" unicode="&#x1d7;" horiz-adv-x="1386" 
d="M633 1818l195 203h145l-231 -203h-109zM523 1580q-35 0 -59.5 24.5t-24.5 59.5q0 34 24.5 58.5t59.5 24.5q34 0 58.5 -24.5t24.5 -58.5q0 -35 -24.5 -59.5t-58.5 -24.5zM863 1580q-34 0 -58.5 24.5t-24.5 59.5q0 34 24.5 58.5t58.5 24.5q35 0 59.5 -24.5t24.5 -58.5
q0 -35 -24.5 -59.5t-59.5 -24.5zM271 1443v-931q0 -184 113 -296t309 -112t309 112t113 296v931h137v-939q0 -236 -151 -381.5t-408 -145.5t-407.5 145.5t-150.5 381.5v939h136z" />
    <glyph glyph-name="udieresisacute" unicode="&#x1d8;" horiz-adv-x="1097" 
d="M483 1565l187 269h148l-217 -269h-118zM368 1259q-38 0 -65.5 27.5t-27.5 64.5q0 38 27.5 65.5t65.5 27.5t65.5 -27.5t27.5 -65.5t-27.5 -65t-65.5 -27zM724 1259q-38 0 -65.5 27t-27.5 65t27.5 65.5t65.5 27.5t65.5 -27.5t27.5 -65.5t-27.5 -65t-65.5 -27zM979 1077
v-1077h-125v202h-3q-45 -100 -138.5 -157t-219.5 -57q-176 0 -278 106.5t-102 288.5v694h132v-672q0 -144 74 -221t211 -77q142 0 229 92.5t87 244.5v633h133z" />
    <glyph glyph-name="Udieresiscaron" unicode="&#x1d9;" horiz-adv-x="1386" 
d="M634 1818l-266 203h144l176 -135h10l176 135h144l-266 -203h-118zM523 1747q34 0 58.5 -24.5t24.5 -58.5q0 -35 -24.5 -59.5t-58.5 -24.5q-35 0 -59.5 24.5t-24.5 59.5q0 34 24.5 58.5t59.5 24.5zM863 1747q35 0 59.5 -24.5t24.5 -58.5q0 -35 -24.5 -59.5t-59.5 -24.5
q-34 0 -58.5 24.5t-24.5 59.5q0 34 24.5 58.5t58.5 24.5zM271 1443v-931q0 -184 113 -296t309 -112t309 112t113 296v931h137v-939q0 -236 -151 -381.5t-408 -145.5t-407.5 145.5t-150.5 381.5v939h136z" />
    <glyph glyph-name="udieresiscaron" unicode="&#x1da;" horiz-adv-x="1097" 
d="M368 1259q-38 0 -65.5 27.5t-27.5 64.5q0 38 27.5 65.5t65.5 27.5t65.5 -27.5t27.5 -65.5t-27.5 -65t-65.5 -27zM724 1259q-38 0 -65.5 27t-27.5 65t27.5 65.5t65.5 27.5t65.5 -27.5t27.5 -65.5t-27.5 -65t-65.5 -27zM611 1565h-130l-261 269h125l199 -205h4l199 205h125
zM979 1077v-1077h-125v202h-3q-45 -100 -138.5 -157t-219.5 -57q-176 0 -278 106.5t-102 288.5v694h132v-672q0 -144 74 -221t211 -77q142 0 229 92.5t87 244.5v633h133z" />
    <glyph glyph-name="Udieresisgrave" unicode="&#x1db;" horiz-adv-x="1386" 
d="M753 1818h-109l-231 203h145zM523 1580q-35 0 -59.5 24.5t-24.5 59.5q0 34 24.5 58.5t59.5 24.5q34 0 58.5 -24.5t24.5 -58.5q0 -35 -24.5 -59.5t-58.5 -24.5zM863 1580q-34 0 -58.5 24.5t-24.5 59.5q0 34 24.5 58.5t58.5 24.5q35 0 59.5 -24.5t24.5 -58.5
q0 -35 -24.5 -59.5t-59.5 -24.5zM271 1443v-931q0 -184 113 -296t309 -112t309 112t113 296v931h137v-939q0 -236 -151 -381.5t-408 -145.5t-407.5 145.5t-150.5 381.5v939h136z" />
    <glyph glyph-name="udieresisgrave" unicode="&#x1dc;" horiz-adv-x="1097" 
d="M609 1565h-118l-217 269h148zM368 1259q-38 0 -65.5 27.5t-27.5 64.5q0 38 27.5 65.5t65.5 27.5t65.5 -27.5t27.5 -65.5t-27.5 -65t-65.5 -27zM724 1259q-38 0 -65.5 27t-27.5 65t27.5 65.5t65.5 27.5t65.5 -27.5t27.5 -65.5t-27.5 -65t-65.5 -27zM979 1077v-1077h-125
v202h-3q-45 -100 -138.5 -157t-219.5 -57q-176 0 -278 106.5t-102 288.5v694h132v-672q0 -144 74 -221t211 -77q142 0 229 92.5t87 244.5v633h133z" />
    <glyph glyph-name="Adieresismacron" unicode="&#x1de;" horiz-adv-x="1262" 
d="M1094 0l-160 442h-606l-160 -442h-145l540 1443h136l539 -1443h-144zM628 1274l-259 -714h524l-259 714h-6zM461 1747q34 0 58.5 -24.5t24.5 -58.5q0 -35 -24.5 -59.5t-58.5 -24.5q-35 0 -59.5 24.5t-24.5 59.5q0 34 24.5 58.5t59.5 24.5zM326 1979h610v-84h-610v84z
M801 1747q35 0 59.5 -24.5t24.5 -58.5q0 -35 -24.5 -59.5t-59.5 -24.5q-34 0 -58.5 24.5t-24.5 59.5q0 34 24.5 58.5t58.5 24.5z" />
    <glyph glyph-name="adieresismacron" unicode="&#x1df;" horiz-adv-x="1048" 
d="M463 104q145 0 242.5 86.5t97.5 214.5v119l-315 -22q-136 -9 -206.5 -60.5t-70.5 -142.5q0 -87 70 -141t182 -54zM437 -12q-161 0 -261 86.5t-100 225.5q0 138 101 216.5t295 92.5l331 22v92q0 118 -71.5 183t-201.5 65q-113 0 -187 -54.5t-92 -150.5h-127
q8 142 122.5 232.5t284.5 90.5q185 0 294.5 -96t109.5 -259v-734h-126v206h-3q-44 -98 -144.5 -158t-224.5 -60zM350 1259q-37 0 -63 26t-26 63t26 63t63 26q38 0 64 -26t26 -63t-26.5 -63t-63.5 -26zM706 1259q-37 0 -63.5 26t-26.5 63t26.5 63t63.5 26q38 0 63.5 -25.5
t25.5 -63.5q0 -37 -26 -63t-63 -26zM835 1719v-85h-618v85h618z" />
    <glyph glyph-name="Adotmacron" unicode="&#x1e0;" horiz-adv-x="1262" 
d="M1094 0l-160 442h-606l-160 -442h-145l540 1443h136l539 -1443h-144zM628 1274l-259 -714h524l-259 714h-6zM631 1568q-41 0 -70 29t-29 70q0 40 29 68.5t70 28.5t70 -28.5t29 -68.5q0 -41 -29 -70t-70 -29zM936 1979v-84h-610v84h610z" />
    <glyph glyph-name="adotmacron" unicode="&#x1e1;" horiz-adv-x="1048" 
d="M463 104q145 0 242.5 86.5t97.5 214.5v119l-315 -22q-136 -9 -206.5 -60.5t-70.5 -142.5q0 -87 70 -141t182 -54zM437 -12q-161 0 -261 86.5t-100 225.5q0 138 101 216.5t295 92.5l331 22v92q0 118 -71.5 183t-201.5 65q-113 0 -187 -54.5t-92 -150.5h-127
q8 142 122.5 232.5t284.5 90.5q185 0 294.5 -96t109.5 -259v-734h-126v206h-3q-44 -98 -144.5 -158t-224.5 -60zM528 1259q-42 0 -72.5 30t-30.5 72t31 72.5t72 30.5t72 -30.5t31 -72.5t-30.5 -72t-72.5 -30zM835 1719v-85h-618v85h618z" />
    <glyph glyph-name="AEmacron" unicode="&#x1e2;" horiz-adv-x="1945" 
d="M808 1327l-374 -766h544v766h-170zM978 0v443h-600l-214 -443h-141l702 1443h1091v-124h-702v-526h665v-122h-665v-547h702v-124h-838zM1675 1718v-85h-610v85h610z" />
    <glyph glyph-name="aemacron" unicode="&#x1e3;" horiz-adv-x="1795" 
d="M1285 -12q-142 0 -247 66.5t-157 191.5h-8q-57 -124 -165.5 -191t-252.5 -67q-172 0 -275.5 84t-103.5 224q0 136 101.5 214.5t291.5 88.5l333 19v98q0 116 -76 185.5t-202 69.5q-119 0 -193.5 -55t-85.5 -150h-130q12 144 123 233.5t282 89.5q142 0 242.5 -65
t128.5 -179h8q51 115 150.5 179.5t235.5 64.5q205 0 325 -141t120 -381v-58h-795v-10q0 -179 96 -286.5t256 -107.5q116 0 194.5 54t102.5 146h132q-25 -141 -143 -229t-288 -88zM1276 972q-146 0 -239 -97.5t-102 -258.5h658q-2 163 -88 259.5t-229 96.5zM458 104
q145 0 244.5 88t99.5 215v104l-318 -19q-133 -8 -203 -57.5t-70 -136.5t68 -140.5t179 -53.5zM1212 1400v-85h-618v85h618z" />
    <glyph glyph-name="Gcaron" unicode="&#x1e6;" horiz-adv-x="1409" 
d="M670 1551l-283 295h131l206 -217h2l206 217h131l-283 -295h-110zM1324 586q0 -286 -159 -447.5t-440 -161.5q-293 0 -470.5 206t-177.5 547q0 335 176.5 535.5t471.5 200.5q227 0 388 -125t202 -332h-142q-44 154 -163.5 242t-284.5 88q-235 0 -371.5 -163.5
t-136.5 -445.5q0 -286 138 -456t370 -170q209 0 336 123t127 327v51h-448v120h584v-139z" />
    <glyph glyph-name="gcaron" unicode="&#x1e7;" horiz-adv-x="1144" 
d="M604 1251h-97l-273 301h127l192 -219h5l192 219h127zM543 114q156 0 253 118.5t97 308.5q0 191 -97 310.5t-253 119.5q-154 0 -248.5 -118t-94.5 -312q0 -193 94 -310t249 -117zM552 -375q-178 0 -296 76t-138 200h138q20 -73 102 -116.5t202 -43.5q151 0 242 72.5
t91 196.5v219h-3q-46 -106 -144.5 -170t-225.5 -64q-203 0 -329 151t-126 395q0 247 126 397.5t332 150.5q127 0 226.5 -64t147.5 -171h2v223h126v-1057q0 -184 -128 -289.5t-345 -105.5z" />
    <glyph glyph-name="Kcaron" unicode="&#x1e8;" horiz-adv-x="1209" 
d="M271 0h-136v1443h136v-748h8l686 748h173l-593 -638l652 -805h-175l-573 708l-178 -193v-515zM526 1551l-283 295h131l206 -217h2l206 217h131l-283 -295h-110z" />
    <glyph glyph-name="kcaron" unicode="&#x1e9;" horiz-adv-x="988" 
d="M262 565l537 512h164l-486 -465l496 -612h-156l-434 531l-122 -111v-420h-132v1506h132v-941h1zM140 1614l-283 295h131l206 -217h2l206 217h131l-283 -295h-110z" />
    <glyph glyph-name="Oogonek" unicode="&#x1ea;" horiz-adv-x="1465" 
d="M992 -416q-100 0 -163.5 54t-63.5 138q0 123 138 225v4q-76 -28 -171 -28q-302 0 -478.5 200.5t-176.5 543.5t177 544t478 201q302 0 479 -201t177 -544q0 -221 -80 -388t-247 -298q-89 -66 -128 -120.5t-39 -111.5q0 -47 34.5 -77.5t89.5 -30.5q44 0 67 7v-104
q-39 -14 -93 -14zM732 1339q-237 0 -376 -167t-139 -451t139 -450.5t376 -166.5t376.5 167t139.5 450q0 284 -139.5 451t-376.5 167z" />
    <glyph glyph-name="oogonek" unicode="&#x1eb;" horiz-adv-x="1109" 
d="M747 -416q-99 0 -163 54t-64 138q0 119 129 221v4q-36 -13 -95 -13q-222 0 -355.5 149.5t-133.5 401.5q0 251 133.5 400.5t355.5 149.5q223 0 356.5 -149.5t133.5 -400.5q0 -163 -62 -293.5t-175 -210.5q-158 -108 -158 -232q0 -47 34.5 -77.5t89.5 -30.5q44 0 67 7v-104
q-39 -14 -93 -14zM554 107q165 0 260 115.5t95 316.5t-95 316.5t-260 115.5q-164 0 -259 -115.5t-95 -316.5t95 -316.5t259 -115.5z" />
    <glyph glyph-name="Oogonekmacron" unicode="&#x1ec;" horiz-adv-x="1464" 
d="M992 -416q-100 0 -163.5 54t-63.5 138q0 123 138 225v4q-76 -28 -171 -28q-302 0 -478.5 200.5t-176.5 543.5t177 544t478 201q302 0 479 -201t177 -544q0 -221 -80 -388t-247 -298q-89 -66 -128 -120.5t-39 -111.5q0 -47 34.5 -77.5t89.5 -30.5q44 0 67 7v-104
q-39 -14 -93 -14zM732 1339q-237 0 -376 -167t-139 -451t139 -450.5t376 -166.5t376.5 167t139.5 450q0 284 -139.5 451t-376.5 167zM1037 1718v-85h-610v85h610z" />
    <glyph glyph-name="oogonekmacron" unicode="&#x1ed;" horiz-adv-x="1109" 
d="M861 1400v-85h-618v85h618zM747 -416q-99 0 -163 54t-64 138q0 119 129 221v4q-36 -13 -95 -13q-222 0 -355.5 149.5t-133.5 401.5q0 251 133.5 400.5t355.5 149.5q223 0 356.5 -149.5t133.5 -400.5q0 -163 -62 -293.5t-175 -210.5q-158 -108 -158 -232q0 -47 34.5 -77.5
t89.5 -30.5q44 0 67 7v-104q-39 -14 -93 -14zM554 107q165 0 260 115.5t95 316.5t-95 316.5t-260 115.5q-164 0 -259 -115.5t-95 -316.5t95 -316.5t259 -115.5z" />
    <glyph glyph-name="u01F1" unicode="&#x1f1;" horiz-adv-x="2594" 
d="M1457 0v99l866 1214v6h-838v124h1011v-100l-864 -1213v-6h876v-124h-1051zM135 1443h475q324 0 504 -189.5t180 -531.5q0 -343 -179.5 -532.5t-504.5 -189.5h-475v1443zM272 1319v-1195h330q266 0 409.5 155t143.5 442q0 288 -143.5 443t-409.5 155h-330z" />
    <glyph glyph-name="u01F2" unicode="&#x1f2;" horiz-adv-x="2334" 
d="M1453 0v100l645 864v2h-645v111h796v-101l-644 -862v-3h646v-111h-798zM135 1443h475q324 0 504 -189.5t180 -531.5q0 -343 -179.5 -532.5t-504.5 -189.5h-475v1443zM272 1319v-1195h330q266 0 409.5 155t143.5 442q0 288 -143.5 443t-409.5 155h-330z" />
    <glyph glyph-name="u01F3" unicode="&#x1f3;" horiz-adv-x="2121" 
d="M1240 0v100l645 864v2h-645v111h796v-101l-644 -862v-3h646v-111h-798zM526 -12q-203 0 -332 152.5t-129 398.5q0 245 128 397.5t330 152.5q128 0 227 -63.5t143 -169.5h3v650h133v-1506h-126v229h-3q-47 -111 -146 -176t-228 -65zM547 971q-155 0 -251 -119t-96 -313
t96 -313t251 -119t252.5 120t97.5 312q0 191 -97.5 311.5t-252.5 120.5z" />
    <glyph glyph-name="Gacute" unicode="&#x1f4;" horiz-adv-x="1409" 
d="M782 1551h-117l252 295h154zM1324 586q0 -286 -159 -447.5t-440 -161.5q-293 0 -470.5 206t-177.5 547q0 335 176.5 535.5t471.5 200.5q227 0 388 -125t202 -332h-142q-44 154 -163.5 242t-284.5 88q-235 0 -371.5 -163.5t-136.5 -445.5q0 -286 138 -456t370 -170
q209 0 336 123t127 327v51h-448v120h584v-139z" />
    <glyph glyph-name="gacute" unicode="&#x1f5;" horiz-adv-x="1144" 
d="M607 1251h-117l220 301h153zM543 114q156 0 253 118.5t97 308.5q0 191 -97 310.5t-253 119.5q-154 0 -248.5 -118t-94.5 -312q0 -193 94 -310t249 -117zM552 -375q-178 0 -296 76t-138 200h138q20 -73 102 -116.5t202 -43.5q151 0 242 72.5t91 196.5v219h-3
q-46 -106 -144.5 -170t-225.5 -64q-203 0 -329 151t-126 395q0 247 126 397.5t332 150.5q127 0 226.5 -64t147.5 -171h2v223h126v-1057q0 -184 -128 -289.5t-345 -105.5z" />
    <glyph glyph-name="Ngrave" unicode="&#x1f8;" horiz-adv-x="1393" 
d="M641 1551l-289 295h154l252 -295h-117zM270 0h-135v1443h135l846 -1205h7v1205h135v-1443h-132l-849 1206h-7v-1206z" />
    <glyph glyph-name="ngrave" unicode="&#x1f9;" horiz-adv-x="1097" 
d="M613 1251h-117l-256 301h153zM119 0v1077h124v-201h4q46 102 136 157.5t219 55.5q177 0 279.5 -106.5t102.5 -289.5v-693h-132v672q0 143 -75 221t-212 78q-143 0 -228.5 -93t-85.5 -245v-633h-132z" />
    <glyph glyph-name="Aringacute" unicode="&#x1fa;" horiz-adv-x="1262" 
d="M1094 0l-160 442h-606l-160 -442h-145l540 1443h136l539 -1443h-144zM628 1274l-259 -714h524l-259 714h-6zM631 1485q-77 0 -132.5 55.5t-55.5 132.5t55.5 132.5t132.5 55.5t132.5 -55.5t55.5 -132.5t-55.5 -132.5t-132.5 -55.5zM631 1553q50 0 85 35t35 85t-35 85.5
t-85 35.5t-85 -35.5t-35 -85.5t35 -85t85 -35zM715 2091h137l-173 -178h-95z" />
    <glyph glyph-name="aringacute" unicode="&#x1fb;" horiz-adv-x="1048" 
d="M463 104q145 0 242.5 86.5t97.5 214.5v119l-315 -22q-136 -9 -206.5 -60.5t-70.5 -142.5q0 -87 70 -141t182 -54zM437 -12q-161 0 -261 86.5t-100 225.5q0 138 101 216.5t295 92.5l331 22v92q0 118 -71.5 183t-201.5 65q-113 0 -187 -54.5t-92 -150.5h-127
q8 142 122.5 232.5t284.5 90.5q185 0 294.5 -96t109.5 -259v-734h-126v206h-3q-44 -98 -144.5 -158t-224.5 -60zM528 1200q-77 0 -132.5 55t-55.5 132t55.5 132.5t132.5 55.5t132.5 -55.5t55.5 -132.5t-55.5 -132t-132.5 -55zM409 1387q0 -49 34.5 -84t84.5 -35t84.5 35
t34.5 84q0 50 -34.5 85t-84.5 35t-84.5 -35t-34.5 -85zM474 1651l132 186h125l-160 -186h-97z" />
    <glyph glyph-name="AEacute" unicode="&#x1fc;" horiz-adv-x="1945" 
d="M1427 1551h-117l252 295h154zM808 1327l-374 -766h544v766h-170zM978 0v443h-600l-214 -443h-141l702 1443h1091v-124h-702v-526h665v-122h-665v-547h702v-124h-838z" />
    <glyph glyph-name="aeacute" unicode="&#x1fd;" horiz-adv-x="1795" 
d="M956 1251h-117l220 301h153zM1285 -12q-142 0 -247 66.5t-157 191.5h-8q-57 -124 -165.5 -191t-252.5 -67q-172 0 -275.5 84t-103.5 224q0 136 101.5 214.5t291.5 88.5l333 19v98q0 116 -76 185.5t-202 69.5q-119 0 -193.5 -55t-85.5 -150h-130q12 144 123 233.5
t282 89.5q142 0 242.5 -65t128.5 -179h8q51 115 150.5 179.5t235.5 64.5q205 0 325 -141t120 -381v-58h-795v-10q0 -179 96 -286.5t256 -107.5q116 0 194.5 54t102.5 146h132q-25 -141 -143 -229t-288 -88zM1276 972q-146 0 -239 -97.5t-102 -258.5h658q-2 163 -88 259.5
t-229 96.5zM458 104q145 0 244.5 88t99.5 215v104l-318 -19q-133 -8 -203 -57.5t-70 -136.5t68 -140.5t179 -53.5z" />
    <glyph glyph-name="Oslashacute" unicode="&#x1fe;" horiz-adv-x="1465" 
d="M1111 1846l-289 -295h-117l252 295h154zM1135 1137l-716 -929q129 -104 313 -104q237 0 376.5 167t139.5 450q0 253 -113 416zM350 278l723 933q-136 128 -341 128q-237 0 -376 -167t-139 -451q0 -278 133 -443zM1363 1432l-140 -182q165 -199 165 -529
q0 -343 -177 -543.5t-479 -200.5q-233 0 -396 124l-126 -164l-79 59l132 171q-186 202 -186 554q0 343 177 544t478 201q255 0 424 -147l130 167z" />
    <glyph glyph-name="oslashacute" unicode="&#x1ff;" horiz-adv-x="1109" 
d="M861 1552l-256 -301h-117l220 301h153zM828 837l-467 -675q81 -55 193 -55q165 0 260 115.5t95 316.5q0 183 -81 298zM289 230l472 676q-87 65 -207 65q-164 0 -259 -115.5t-95 -316.5q0 -193 89 -309zM992 1073l-88 -127q140 -149 140 -407q0 -251 -133.5 -401
t-356.5 -150q-152 0 -264 72l-81 -117l-82 55l86 124q-148 151 -148 417q0 251 133.5 400.5t355.5 149.5q162 0 278 -81l81 116z" />
    <glyph glyph-name="Adblgrave" unicode="&#x200;" horiz-adv-x="1262" 
d="M1094 0l-160 442h-606l-160 -442h-145l540 1443h136l539 -1443h-144zM628 1274l-259 -714h524l-259 714h-6zM718 1551l-288 295h147l252 -295h-111zM427 1551l-288 295h147l252 -295h-111z" />
    <glyph glyph-name="adblgrave" unicode="&#x201;" horiz-adv-x="1048" 
d="M463 104q145 0 242.5 86.5t97.5 214.5v119l-315 -22q-136 -9 -206.5 -60.5t-70.5 -142.5q0 -87 70 -141t182 -54zM437 -12q-161 0 -261 86.5t-100 225.5q0 138 101 216.5t295 92.5l331 22v92q0 118 -71.5 183t-201.5 65q-113 0 -187 -54.5t-92 -150.5h-127
q8 142 122.5 232.5t284.5 90.5q185 0 294.5 -96t109.5 -259v-734h-126v206h-3q-44 -98 -144.5 -158t-224.5 -60zM440 1251h-108l-252 301h151zM725 1251h-108l-252 301h151z" />
    <glyph glyph-name="Ainvertedbreve" unicode="&#x202;" horiz-adv-x="1262" 
d="M1094 0l-160 442h-606l-160 -442h-145l540 1443h136l539 -1443h-144zM628 1274l-259 -714h524l-259 714h-6zM339 1551q0 121 81.5 196.5t210.5 75.5t210.5 -75.5t81.5 -196.5h-94q0 81 -56 135t-142 54t-142 -54t-56 -135h-94z" />
    <glyph glyph-name="ainvertedbreve" unicode="&#x203;" horiz-adv-x="1048" 
d="M463 104q145 0 242.5 86.5t97.5 214.5v119l-315 -22q-136 -9 -206.5 -60.5t-70.5 -142.5q0 -87 70 -141t182 -54zM437 -12q-161 0 -261 86.5t-100 225.5q0 138 101 216.5t295 92.5l331 22v92q0 118 -71.5 183t-201.5 65q-113 0 -187 -54.5t-92 -150.5h-127
q8 142 122.5 232.5t284.5 90.5q185 0 294.5 -96t109.5 -259v-734h-126v206h-3q-44 -98 -144.5 -158t-224.5 -60zM227 1251q0 129 83.5 207.5t217.5 78.5t217.5 -78.5t83.5 -207.5h-97q0 86 -58 143t-146 57t-146 -57t-58 -143h-97z" />
    <glyph glyph-name="Edblgrave" unicode="&#x204;" horiz-adv-x="1104" 
d="M657 1551l-288 295h147l252 -295h-111zM366 1551l-288 295h147l252 -295h-111zM1006 124v-124h-871v1443h871v-124h-735v-519h698v-122h-698v-554h735z" />
    <glyph glyph-name="edblgrave" unicode="&#x205;" horiz-adv-x="1075" 
d="M543 972q-145 0 -238.5 -98.5t-102.5 -259.5h670q-2 161 -92.5 259.5t-236.5 98.5zM865 305h131q-24 -139 -146.5 -228t-296.5 -89q-224 0 -356 147.5t-132 400.5q0 251 131.5 402t348.5 151q212 0 338.5 -142.5t126.5 -382.5v-58h-808v-7q0 -182 96.5 -288t257.5 -106
q119 0 202 55t107 145zM457 1251h-108l-252 301h151zM742 1251h-108l-252 301h151z" />
    <glyph glyph-name="Einvertedbreve" unicode="&#x206;" horiz-adv-x="1104" 
d="M1006 124v-124h-871v1443h871v-124h-735v-519h698v-122h-698v-554h735zM278 1551q0 121 81.5 196.5t210.5 75.5t210.5 -75.5t81.5 -196.5h-94q0 81 -56 135t-142 54t-142 -54t-56 -135h-94z" />
    <glyph glyph-name="einvertedbreve" unicode="&#x207;" horiz-adv-x="1075" 
d="M543 972q-145 0 -238.5 -98.5t-102.5 -259.5h670q-2 161 -92.5 259.5t-236.5 98.5zM865 305h131q-24 -139 -146.5 -228t-296.5 -89q-224 0 -356 147.5t-132 400.5q0 251 131.5 402t348.5 151q212 0 338.5 -142.5t126.5 -382.5v-58h-808v-7q0 -182 96.5 -288t257.5 -106
q119 0 202 55t107 145zM244 1251q0 129 83.5 207.5t217.5 78.5t217.5 -78.5t83.5 -207.5h-97q0 86 -58 143t-146 57t-146 -57t-58 -143h-97z" />
    <glyph glyph-name="Idblgrave" unicode="&#x208;" horiz-adv-x="406" 
d="M271 0h-136v1443h136v-1443zM290 1551l-288 295h147l252 -295h-111zM-1 1551l-288 295h147l252 -295h-111z" />
    <glyph glyph-name="idblgrave" unicode="&#x209;" horiz-adv-x="390" 
d="M129 0v1077h132v-1077h-132zM107 1251h-108l-252 301h151zM392 1251h-108l-252 301h151z" />
    <glyph glyph-name="Iinvertedbreve" unicode="&#x20a;" horiz-adv-x="406" 
d="M271 0h-136v1443h136v-1443zM-89 1551q0 121 81.5 196.5t210.5 75.5t210.5 -75.5t81.5 -196.5h-94q0 81 -56 135t-142 54t-142 -54t-56 -135h-94z" />
    <glyph glyph-name="iinvertedbreve" unicode="&#x20b;" horiz-adv-x="390" 
d="M129 0v1077h132v-1077h-132zM-106 1251q0 129 83.5 207.5t217.5 78.5t217.5 -78.5t83.5 -207.5h-97q0 86 -58 143t-146 57t-146 -57t-58 -143h-97z" />
    <glyph glyph-name="Odblgrave" unicode="&#x20c;" horiz-adv-x="1465" 
d="M819 1551l-288 295h147l252 -295h-111zM528 1551l-288 295h147l252 -295h-111zM732 1466q302 0 479 -201t177 -544t-177 -543.5t-479 -200.5t-478.5 200.5t-176.5 543.5t177 544t478 201zM732 1339q-237 0 -376 -167t-139 -451t139 -450.5t376 -166.5t376.5 167
t139.5 450q0 284 -139.5 451t-376.5 167z" />
    <glyph glyph-name="odblgrave" unicode="&#x20d;" horiz-adv-x="1109" 
d="M554 -12q-222 0 -355.5 149.5t-133.5 401.5q0 251 133.5 400.5t355.5 149.5q223 0 356.5 -149.5t133.5 -400.5t-133.5 -401t-356.5 -150zM554 107q165 0 260 115.5t95 316.5t-95 316.5t-260 115.5q-164 0 -259 -115.5t-95 -316.5t95 -316.5t259 -115.5zM466 1251h-108
l-252 301h151zM751 1251h-108l-252 301h151z" />
    <glyph glyph-name="Oinvertedbreve" unicode="&#x20e;" horiz-adv-x="1465" 
d="M440 1551q0 121 81.5 196.5t210.5 75.5t210.5 -75.5t81.5 -196.5h-94q0 81 -56 135t-142 54t-142 -54t-56 -135h-94zM732 1466q302 0 479 -201t177 -544t-177 -543.5t-479 -200.5t-478.5 200.5t-176.5 543.5t177 544t478 201zM732 1339q-237 0 -376 -167t-139 -451
t139 -450.5t376 -166.5t376.5 167t139.5 450q0 284 -139.5 451t-376.5 167z" />
    <glyph glyph-name="oinvertedbreve" unicode="&#x20f;" horiz-adv-x="1109" 
d="M554 -12q-222 0 -355.5 149.5t-133.5 401.5q0 251 133.5 400.5t355.5 149.5q223 0 356.5 -149.5t133.5 -400.5t-133.5 -401t-356.5 -150zM554 107q165 0 260 115.5t95 316.5t-95 316.5t-260 115.5q-164 0 -259 -115.5t-95 -316.5t95 -316.5t259 -115.5zM253 1251
q0 129 83.5 207.5t217.5 78.5t217.5 -78.5t83.5 -207.5h-97q0 86 -58 143t-146 57t-146 -57t-58 -143h-97z" />
    <glyph glyph-name="Rdblgrave" unicode="&#x210;" horiz-adv-x="1199" 
d="M605 1551l-288 295h147l252 -295h-111zM314 1551l-288 295h147l252 -295h-111zM271 1321v-609h369q157 0 244.5 80t87.5 225q0 143 -89.5 223.5t-247.5 80.5h-364zM271 591v-591h-136v1443h516q211 0 336.5 -114.5t125.5 -307.5q0 -153 -82 -262t-227 -146l349 -613h-159
l-332 591h-22h-369z" />
    <glyph glyph-name="rdblgrave" unicode="&#x211;" horiz-adv-x="634" 
d="M119 0v1077h124v-191h4q28 96 100 149.5t173 53.5q47 0 84 -11v-131q-34 15 -102 15q-114 0 -182.5 -81.5t-68.5 -212.5v-668h-132zM267 1251h-108l-252 301h151zM552 1251h-108l-252 301h151z" />
    <glyph glyph-name="Rinvertedbreve" unicode="&#x212;" horiz-adv-x="1199" 
d="M271 1321v-609h369q157 0 244.5 80t87.5 225q0 143 -89.5 223.5t-247.5 80.5h-364zM271 591v-591h-136v1443h516q211 0 336.5 -114.5t125.5 -307.5q0 -153 -82 -262t-227 -146l349 -613h-159l-332 591h-22h-369zM226 1551q0 121 81.5 196.5t210.5 75.5t210.5 -75.5
t81.5 -196.5h-94q0 81 -56 135t-142 54t-142 -54t-56 -135h-94z" />
    <glyph glyph-name="rinvertedbreve" unicode="&#x213;" horiz-adv-x="634" 
d="M119 0v1077h124v-191h4q28 96 100 149.5t173 53.5q47 0 84 -11v-131q-34 15 -102 15q-114 0 -182.5 -81.5t-68.5 -212.5v-668h-132zM54 1251q0 129 83.5 207.5t217.5 78.5t217.5 -78.5t83.5 -207.5h-97q0 86 -58 143t-146 57t-146 -57t-58 -143h-97z" />
    <glyph glyph-name="Udblgrave" unicode="&#x214;" horiz-adv-x="1386" 
d="M780 1551l-288 295h147l252 -295h-111zM489 1551l-288 295h147l252 -295h-111zM271 1443v-931q0 -184 113 -296t309 -112t309 112t113 296v931h137v-939q0 -236 -151 -381.5t-408 -145.5t-407.5 145.5t-150.5 381.5v939h136z" />
    <glyph glyph-name="udblgrave" unicode="&#x215;" horiz-adv-x="1097" 
d="M979 1077v-1077h-125v202h-3q-45 -100 -138.5 -157t-219.5 -57q-176 0 -278 106.5t-102 288.5v694h132v-672q0 -144 74 -221t211 -77q142 0 229 92.5t87 244.5v633h133zM458 1251h-108l-252 301h151zM743 1251h-108l-252 301h151z" />
    <glyph glyph-name="Uinvertedbreve" unicode="&#x216;" horiz-adv-x="1386" 
d="M271 1443v-931q0 -184 113 -296t309 -112t309 112t113 296v931h137v-939q0 -236 -151 -381.5t-408 -145.5t-407.5 145.5t-150.5 381.5v939h136zM401 1551q0 121 81.5 196.5t210.5 75.5t210.5 -75.5t81.5 -196.5h-94q0 81 -56 135t-142 54t-142 -54t-56 -135h-94z" />
    <glyph glyph-name="uinvertedbreve" unicode="&#x217;" horiz-adv-x="1097" 
d="M979 1077v-1077h-125v202h-3q-45 -100 -138.5 -157t-219.5 -57q-176 0 -278 106.5t-102 288.5v694h132v-672q0 -144 74 -221t211 -77q142 0 229 92.5t87 244.5v633h133zM245 1251q0 129 83.5 207.5t217.5 78.5t217.5 -78.5t83.5 -207.5h-97q0 86 -58 143t-146 57
t-146 -57t-58 -143h-97z" />
    <glyph glyph-name="Scommaaccent" unicode="&#x218;" horiz-adv-x="1182" 
d="M65 392h137q11 -130 123 -210.5t281 -80.5q162 0 266.5 79t104.5 201q0 101 -73 164.5t-234 104.5l-179 46q-201 51 -293.5 140t-92.5 231q0 174 140 286.5t354 112.5q210 0 349.5 -111.5t145.5 -283.5h-137q-10 122 -109 196.5t-253 74.5q-151 0 -249.5 -75.5
t-98.5 -194.5q0 -93 71 -151.5t231 -99.5l156 -40q218 -55 315 -145t97 -240q0 -190 -142 -304.5t-381 -114.5q-226 0 -372 114.5t-157 300.5zM561 -520h-100l95 358h121z" />
    <glyph glyph-name="scommaaccent" unicode="&#x219;" horiz-adv-x="958" 
d="M97 787q0 133 109.5 217.5t277.5 84.5q163 0 271 -88t116 -227h-127q-10 92 -80.5 147.5t-183.5 55.5q-109 0 -180.5 -51t-71.5 -132q0 -65 48.5 -106t152.5 -67l165 -40q162 -41 230 -105.5t68 -179.5q0 -136 -116.5 -222t-298.5 -86q-172 0 -286.5 88.5t-125.5 226.5
h134q12 -93 88.5 -148.5t197.5 -55.5q122 0 197.5 51.5t75.5 136.5q0 69 -46 109.5t-155 67.5l-182 46q-140 35 -209 103t-69 174zM445 -520h-100l95 358h121z" />
    <glyph glyph-name="Tcommaaccent" unicode="&#x21a;" horiz-adv-x="1179" 
d="M557 -520h-100l95 358h121zM658 0h-137v1319h-483v124h1103v-124h-483v-1319z" />
    <glyph glyph-name="tcommaaccent" unicode="&#x21b;" horiz-adv-x="598" 
d="M329 -520h-100l95 358h121zM177 1335h132v-258h213v-111h-213v-696q0 -84 34.5 -122t109.5 -38q42 0 74 4v-113q-24 -7 -100 -7q-134 0 -192 63t-58 208v701h-154v111h154v258z" />
    <glyph glyph-name="Hcaron" unicode="&#x21e;" horiz-adv-x="1387" 
d="M1252 0h-137v677h-844v-677h-136v1443h136v-642h844v642h137v-1443zM638 1551l-283 295h131l206 -217h2l206 217h131l-283 -295h-110z" />
    <glyph glyph-name="hcaron" unicode="&#x21f;" horiz-adv-x="1118" 
d="M129 0v1506h132v-630h3q46 102 137 157.5t219 55.5q176 0 280.5 -109t104.5 -290v-690h-132v669q0 142 -76.5 222t-213.5 80q-146 0 -234 -94.5t-88 -248.5v-628h-132zM141 1614l-283 295h131l206 -217h2l206 217h131l-283 -295h-110z" />
    <glyph glyph-name="Adotaccent" unicode="&#x226;" horiz-adv-x="1262" 
d="M1094 0l-160 442h-606l-160 -442h-145l540 1443h136l539 -1443h-144zM628 1274l-259 -714h524l-259 714h-6zM631 1575q-42 0 -72 30t-30 72t30 72t72 30t72 -30t30 -72t-30 -72t-72 -30z" />
    <glyph glyph-name="adotaccent" unicode="&#x227;" horiz-adv-x="1048" 
d="M463 104q145 0 242.5 86.5t97.5 214.5v119l-315 -22q-136 -9 -206.5 -60.5t-70.5 -142.5q0 -87 70 -141t182 -54zM437 -12q-161 0 -261 86.5t-100 225.5q0 138 101 216.5t295 92.5l331 22v92q0 118 -71.5 183t-201.5 65q-113 0 -187 -54.5t-92 -150.5h-127
q8 142 122.5 232.5t284.5 90.5q185 0 294.5 -96t109.5 -259v-734h-126v206h-3q-44 -98 -144.5 -158t-224.5 -60zM528 1259q-43 0 -73.5 30.5t-30.5 73.5t30.5 73.5t73.5 30.5t73.5 -30.5t30.5 -73.5t-30.5 -73.5t-73.5 -30.5z" />
    <glyph glyph-name="Ecedilla" unicode="&#x228;" horiz-adv-x="1104" 
d="M1006 1319h-735v-519h698v-122h-698v-554h735v-124h-383l-54 -141q101 0 154.5 -39.5t53.5 -112.5q0 -76 -61.5 -124.5t-156.5 -49.5q-84 0 -139 17v80q41 -16 122 -16q63 0 100 24.5t37 65.5q0 82 -155 82h-53v60l62 154h-398v1443h871v-124z" />
    <glyph glyph-name="ecedilla" unicode="&#x229;" horiz-adv-x="1075" 
d="M202 614h670q-2 161 -92.5 259.5t-236.5 98.5q-145 0 -238.5 -98.5t-102.5 -259.5zM1010 506h-808v-7q0 -182 96.5 -288t257.5 -106q119 0 202 55t107 145h131q-23 -129 -130 -215.5t-264 -99.5l-50 -131q101 0 154.5 -39.5t53.5 -112.5q0 -76 -61.5 -124.5t-156.5 -49.5
q-84 0 -139 17v80q41 -16 122 -16q63 0 100 24.5t37 65.5q0 82 -155 82h-53v60l58 143q-207 14 -327 160t-120 387q0 251 131.5 402t348.5 151q212 0 338.5 -142.5t126.5 -382.5v-58z" />
    <glyph glyph-name="Odieresismacron" unicode="&#x22a;" horiz-adv-x="1465" 
d="M732 1466q302 0 479 -201t177 -544t-177 -543.5t-479 -200.5t-478.5 200.5t-176.5 543.5t177 544t478 201zM732 1339q-237 0 -376 -167t-139 -451t139 -450.5t376 -166.5t376.5 167t139.5 450q0 284 -139.5 451t-376.5 167zM562 1747q34 0 58.5 -24.5t24.5 -58.5
q0 -35 -24.5 -59.5t-58.5 -24.5q-35 0 -59.5 24.5t-24.5 59.5q0 34 24.5 58.5t59.5 24.5zM427 1979h610v-84h-610v84zM902 1747q35 0 59.5 -24.5t24.5 -58.5q0 -35 -24.5 -59.5t-59.5 -24.5q-34 0 -58.5 24.5t-24.5 59.5q0 34 24.5 58.5t58.5 24.5z" />
    <glyph glyph-name="odieresismacron" unicode="&#x22b;" horiz-adv-x="1109" 
d="M376 1259q-37 0 -63 26t-26 63t26 63t63 26q38 0 64 -26t26 -63t-26.5 -63t-63.5 -26zM732 1259q-37 0 -63.5 26t-26.5 63t26.5 63t63.5 26q38 0 63.5 -25.5t25.5 -63.5q0 -37 -26 -63t-63 -26zM861 1719v-85h-618v85h618zM554 -12q-222 0 -355.5 149.5t-133.5 401.5
q0 251 133.5 400.5t355.5 149.5q223 0 356.5 -149.5t133.5 -400.5t-133.5 -401t-356.5 -150zM554 107q165 0 260 115.5t95 316.5t-95 316.5t-260 115.5q-164 0 -259 -115.5t-95 -316.5t95 -316.5t259 -115.5z" />
    <glyph glyph-name="Otildemacron" unicode="&#x22c;" horiz-adv-x="1465" 
d="M854 1541q-35 0 -65.5 15.5t-52 37.5t-40.5 44.5t-41.5 38t-45.5 15.5q-38 0 -57.5 -36t-19.5 -99h-91q0 104 43.5 164t121.5 60q37 0 68.5 -15.5t53.5 -37.5t41.5 -44.5t41 -38t43.5 -15.5q72 0 72 136h91q0 -102 -44 -163.5t-119 -61.5zM1037 1979v-84h-610v84h610z
M732 1466q302 0 479 -201t177 -544t-177 -543.5t-479 -200.5t-478.5 200.5t-176.5 543.5t177 544t478 201zM732 1339q-237 0 -376 -167t-139 -451t139 -450.5t376 -166.5t376.5 167t139.5 450q0 284 -139.5 451t-376.5 167z" />
    <glyph glyph-name="otildemacron" unicode="&#x22d;" horiz-adv-x="1109" 
d="M690 1243q-36 0 -67.5 16t-54.5 39.5l-44 46.5t-44.5 39t-47.5 16q-38 0 -58 -38t-20 -106h-91q0 109 43.5 171.5t122.5 62.5q46 0 86 -24.5t64 -54t54 -54t57 -24.5q73 0 73 144h91q0 -107 -43.5 -170.5t-120.5 -63.5zM863 1719v-85h-618v85h618zM554 -12
q-222 0 -355.5 149.5t-133.5 401.5q0 251 133.5 400.5t355.5 149.5q223 0 356.5 -149.5t133.5 -400.5t-133.5 -401t-356.5 -150zM554 107q165 0 260 115.5t95 316.5t-95 316.5t-260 115.5q-164 0 -259 -115.5t-95 -316.5t95 -316.5t259 -115.5z" />
    <glyph glyph-name="Odotaccent" unicode="&#x22e;" horiz-adv-x="1465" 
d="M732 1575q-42 0 -72 30t-30 72t30 72t72 30t72 -30t30 -72t-30 -72t-72 -30zM732 1466q302 0 479 -201t177 -544t-177 -543.5t-479 -200.5t-478.5 200.5t-176.5 543.5t177 544t478 201zM732 1339q-237 0 -376 -167t-139 -451t139 -450.5t376 -166.5t376.5 167t139.5 450
q0 284 -139.5 451t-376.5 167z" />
    <glyph glyph-name="odotaccent" unicode="&#x22f;" horiz-adv-x="1109" 
d="M554 1259q-43 0 -73.5 30.5t-30.5 73.5t30.5 73.5t73.5 30.5t73.5 -30.5t30.5 -73.5t-30.5 -73.5t-73.5 -30.5zM554 -12q-222 0 -355.5 149.5t-133.5 401.5q0 251 133.5 400.5t355.5 149.5q223 0 356.5 -149.5t133.5 -400.5t-133.5 -401t-356.5 -150zM554 107
q165 0 260 115.5t95 316.5t-95 316.5t-260 115.5q-164 0 -259 -115.5t-95 -316.5t95 -316.5t259 -115.5z" />
    <glyph glyph-name="Odotaccentmacron" unicode="&#x230;" horiz-adv-x="1465" 
d="M732 1568q-41 0 -70 29t-29 70q0 40 29 68.5t70 28.5t70 -28.5t29 -68.5q0 -41 -29 -70t-70 -29zM1037 1979v-84h-610v84h610zM732 1466q302 0 479 -201t177 -544t-177 -543.5t-479 -200.5t-478.5 200.5t-176.5 543.5t177 544t478 201zM732 1339q-237 0 -376 -167
t-139 -451t139 -450.5t376 -166.5t376.5 167t139.5 450q0 284 -139.5 451t-376.5 167z" />
    <glyph glyph-name="odotaccentmacron" unicode="&#x231;" horiz-adv-x="1109" 
d="M554 -12q-222 0 -355.5 149.5t-133.5 401.5q0 251 133.5 400.5t355.5 149.5q223 0 356.5 -149.5t133.5 -400.5t-133.5 -401t-356.5 -150zM554 107q165 0 260 115.5t95 316.5t-95 316.5t-260 115.5q-164 0 -259 -115.5t-95 -316.5t95 -316.5t259 -115.5zM554 1259
q-42 0 -72.5 30t-30.5 72t31 72.5t72 30.5t72 -30.5t31 -72.5t-30.5 -72t-72.5 -30zM861 1719v-85h-618v85h618z" />
    <glyph glyph-name="Ymacron" unicode="&#x232;" horiz-adv-x="1219" 
d="M678 0h-137v624l-517 819h156l427 -685h5l427 685h156l-517 -819v-624zM914 1718v-85h-610v85h610z" />
    <glyph glyph-name="ymacron" unicode="&#x233;" horiz-adv-x="980" 
d="M197 -381q-29 0 -66 7v114q28 -7 64 -7q74 0 118.5 41.5t82.5 145.5l26 73l-405 1084h142l330 -943h3l331 943h140l-423 -1136q-70 -189 -141 -255.5t-202 -66.5zM798 1400v-85h-618v85h618z" />
    <glyph glyph-name="dotlessj" unicode="&#x237;" horiz-adv-x="388" 
d="M261 1077v-1145q0 -155 -74 -227t-234 -72h-31v113h27q97 0 138.5 42t41.5 140v1149h132z" />
    <glyph glyph-name="quoteright" unicode="&#x2bc;" horiz-adv-x="480" 
d="M254 955h-119l128 488h134z" />
    <glyph glyph-name="quoteright" unicode="&#x2019;" horiz-adv-x="480" 
d="M254 955h-119l128 488h134z" />
    <glyph glyph-name="circumflex" unicode="&#x2c6;" horiz-adv-x="899" 
d="M498 1552l273 -301h-127l-192 220h-5l-192 -220h-127l273 301h97z" />
    <glyph glyph-name="caron" unicode="&#x2c7;" horiz-adv-x="899" 
d="M498 1251h-97l-273 301h127l192 -219h5l192 219h127z" />
    <glyph glyph-name="breve" unicode="&#x2d8;" horiz-adv-x="938" 
d="M168 1530h97q0 -86 58 -143t146 -57t146 57t58 143h97q0 -129 -83.5 -207.5t-217.5 -78.5t-217.5 78.5t-83.5 207.5z" />
    <glyph glyph-name="dotaccent" unicode="&#x2d9;" horiz-adv-x="868" 
d="M434 1259q-43 0 -73.5 30.5t-30.5 73.5t30.5 73.5t73.5 30.5t73.5 -30.5t30.5 -73.5t-30.5 -73.5t-73.5 -30.5z" />
    <glyph glyph-name="ring" unicode="&#x2da;" horiz-adv-x="928" 
d="M464 1207q-77 0 -132 55.5t-55 132.5t55 132.5t132 55.5t132.5 -55.5t55.5 -132.5t-55.5 -132.5t-132.5 -55.5zM464 1275q50 0 85 35t35 85t-35 85t-85 35q-49 0 -84 -35t-35 -85t35 -85t84 -35z" />
    <glyph glyph-name="ogonek" unicode="&#x2db;" horiz-adv-x="839" 
d="M583 -319v-96q-49 -20 -115 -20q-92 0 -147 49t-55 131q0 71 42 139t122 123l88 -2q-140 -110 -140 -224q0 -53 33.5 -84t90.5 -31q44 0 81 15z" />
    <glyph glyph-name="tilde" unicode="&#x2dc;" horiz-adv-x="899" 
d="M581 1257q-36 0 -67.5 16t-54.5 39.5l-44 46.5t-44.5 39t-47.5 16q-38 0 -58 -38t-20 -106h-91q0 109 43.5 171.5t122.5 62.5q46 0 86 -24.5t64 -54t54 -54t57 -24.5q73 0 73 144h91q0 -107 -43.5 -170.5t-120.5 -63.5z" />
    <glyph glyph-name="hungarumlaut" unicode="&#x2dd;" horiz-adv-x="938" 
d="M443 1251l209 301h151l-252 -301h-108zM158 1251l209 301h151l-252 -301h-108z" />
    <glyph glyph-name="gravecmb" unicode="&#x300;" 
d="M60 1251h-117l-256 301h153z" />
    <glyph glyph-name="acutecmb" unicode="&#x301;" 
d="M51 1251h-117l220 301h153z" />
    <glyph glyph-name="circumflexcmb" unicode="&#x302;" 
d="M48 1552l273 -301h-127l-192 220h-5l-192 -220h-127l273 301h97z" />
    <glyph glyph-name="tildecmb" unicode="&#x303;" 
d="M134 1257q-36 0 -67.5 16t-54.5 39.5l-44 46.5t-44.5 39t-47.5 16q-38 0 -58 -38t-20 -106h-91q0 109 43.5 171.5t122.5 62.5q46 0 86 -24.5t64 -54t54 -54t57 -24.5q73 0 73 144h91q0 -107 -43.5 -170.5t-120.5 -63.5z" />
    <glyph glyph-name="macroncmb" unicode="&#x304;" 
d="M307 1400v-85h-618v85h618z" />
    <glyph glyph-name="brevecmb" unicode="&#x306;" 
d="M-302 1530h97q0 -86 58 -143t146 -57t146 57t58 143h97q0 -129 -83.5 -207.5t-217.5 -78.5t-217.5 78.5t-83.5 207.5z" />
    <glyph glyph-name="dotaccentcmb" unicode="&#x307;" 
d="M0 1259q-43 0 -73.5 30.5t-30.5 73.5t30.5 73.5t73.5 30.5t73.5 -30.5t30.5 -73.5t-30.5 -73.5t-73.5 -30.5z" />
    <glyph glyph-name="dieresiscmb" unicode="&#x308;" 
d="M-178 1259q-38 0 -65.5 27.5t-27.5 64.5q0 38 27.5 65.5t65.5 27.5t65.5 -27.5t27.5 -65.5t-27.5 -65t-65.5 -27zM178 1259q-38 0 -65.5 27t-27.5 65t27.5 65.5t65.5 27.5t65.5 -27.5t27.5 -65.5t-27.5 -65t-65.5 -27z" />
    <glyph glyph-name="hookabovecmb" unicode="&#x309;" 
d="M-115 1433v85q56 27 124 27q79 0 127 -44t48 -117q0 -57 -38.5 -105t-102.5 -72l-50 66q88 32 88 106q0 35 -27 58t-68 23q-48 0 -101 -27z" />
    <glyph glyph-name="ringcmb" unicode="&#x30a;" 
d="M0 1206q-77 0 -132 55.5t-55 132.5t55 132.5t132 55.5t132.5 -55.5t55.5 -132.5t-55.5 -132.5t-132.5 -55.5zM0 1274q50 0 85 35t35 85t-35 85t-85 35q-49 0 -84 -35t-35 -85t35 -85t84 -35z" />
    <glyph glyph-name="hungarumlautcmb" unicode="&#x30b;" 
d="M88 1251l209 301h151l-252 -301h-108zM-197 1251l209 301h151l-252 -301h-108z" />
    <glyph glyph-name="caroncmb" unicode="&#x30c;" 
d="M48 1251h-97l-273 301h127l192 -219h5l192 219h127z" />
    <glyph glyph-name="dblgravecmb" unicode="&#x30f;" 
d="M-88 1251h-108l-252 301h151zM197 1251h-108l-252 301h151z" />
    <glyph glyph-name="invertedbrevecmb" unicode="&#x311;" 
d="M-301 1251q0 129 83.5 207.5t217.5 78.5t217.5 -78.5t83.5 -207.5h-97q0 86 -58 143t-146 57t-146 -57t-58 -143h-97z" />
    <glyph glyph-name="horncmb" unicode="&#x31b;" 
d="M0 996v108q27 -30 83 -30q69 0 102 40t33 129v142h122v-177q0 -111 -64.5 -176.5t-170.5 -65.5q-67 0 -105 30z" />
    <glyph glyph-name="dotbelowcmb" unicode="&#x323;" 
d="M0 -351q-42 0 -72 30t-30 72t30 72t72 30t72 -30t30 -72t-30 -72t-72 -30z" />
    <glyph glyph-name="dieresisbelowcmb" unicode="&#x324;" 
d="M-178 -339q-38 0 -65.5 27.5t-27.5 64.5q0 38 27.5 65.5t65.5 27.5t65.5 -27.5t27.5 -65.5t-27.5 -65t-65.5 -27zM178 -339q-38 0 -65.5 27t-27.5 65t27.5 65.5t65.5 27.5t65.5 -27.5t27.5 -65.5t-27.5 -65t-65.5 -27z" />
    <glyph glyph-name="ringbelowcmb" unicode="&#x325;" 
d="M0 -529q-77 0 -132 55.5t-55 132.5t55 132.5t132 55.5t132.5 -55.5t55.5 -132.5t-55.5 -132.5t-132.5 -55.5zM0 -461q50 0 85 35t35 85t-35 85t-85 35q-49 0 -84 -35t-35 -85t35 -85t84 -35z" />
    <glyph glyph-name="commabelowcmb" unicode="&#x326;" 
d="M-33 -520h-100l95 358h121z" />
    <glyph glyph-name="cedillacmb" unicode="&#x327;" 
d="M-99 -214v60l65 161l87 -7l-54 -141q101 0 154.5 -39.5t53.5 -112.5q0 -76 -61.5 -124.5t-156.5 -49.5q-84 0 -139 17v80q41 -16 122 -16q63 0 100 24.5t37 65.5q0 82 -155 82h-53z" />
    <glyph glyph-name="ogonekcmb" unicode="&#x328;" 
d="M116 -319v-96q-49 -20 -115 -20q-92 0 -147 49t-55 131q0 71 42 139t122 123l88 -2q-140 -110 -140 -224q0 -53 33.5 -84t90.5 -31q43 0 81 15z" />
    <glyph glyph-name="circumflexbelowcmb" unicode="&#x32d;" 
d="M-55 -158h110l283 -295h-131l-206 217h-2l-206 -217h-131z" />
    <glyph glyph-name="brevebelowcmb" unicode="&#x32e;" 
d="M-292 -179h94q0 -80 56 -134.5t142 -54.5t142 54.5t56 134.5h94q0 -121 -81.5 -196.5t-210.5 -75.5t-210.5 75.5t-81.5 196.5z" />
    <glyph glyph-name="tildebelowcmb" unicode="&#x330;" 
d="M131 -394q-36 0 -67.5 16t-54.5 39t-44 46.5t-44.5 39.5t-47.5 16q-38 0 -58 -38t-20 -106h-91q0 109 43.5 171.5t122.5 62.5q46 0 86 -24.5t64 -54t54 -54t57 -24.5q73 0 73 144h91q0 -107 -43.5 -170.5t-120.5 -63.5z" />
    <glyph glyph-name="macronbelowcmb" unicode="&#x331;" 
d="M305 -214v-85h-610v85h610z" />
    <glyph glyph-name="greekquestionmark" unicode="&#x37e;" horiz-adv-x="509" 
d="M255 741q-40 0 -67.5 27.5t-27.5 67.5t27.5 67.5t67.5 27.5q41 0 68 -27.5t27 -67.5t-27.5 -67.5t-67.5 -27.5zM199 -242h-103l84 434h142z" />
    <glyph glyph-name="tonosgreek" unicode="&#x384;" horiz-adv-x="777" 
d="M258 1251l83 313h168l-140 -313h-111z" />
    <glyph glyph-name="dieresistonosgreek" unicode="&#x385;" horiz-adv-x="1072" 
d="M291 1259q-38 0 -65.5 27.5t-27.5 64.5q0 38 27.5 65.5t65.5 27.5t65.5 -27.5t27.5 -65.5t-27.5 -65t-65.5 -27zM781 1259q-38 0 -65.5 27t-27.5 65t27.5 65.5t65.5 27.5t65 -27.5t27 -65.5t-27 -65t-65 -27zM557 1251h-104l39 313h162z" />
    <glyph glyph-name="Alphatonosgreek" unicode="&#x386;" horiz-adv-x="1261" 
d="M1094 0l-160 442h-606l-160 -442h-145l540 1443h136l539 -1443h-144zM628 1274l-259 -714h524l-259 714h-6zM228 1122h-111l85 321h169z" />
    <glyph glyph-name="anoteleia" unicode="&#x387;" horiz-adv-x="509" 
d="M255 887q-40 0 -67.5 27.5t-27.5 67.5t27.5 67.5t67.5 27.5q41 0 68 -27.5t27 -67.5t-27.5 -67.5t-67.5 -27.5z" />
    <glyph glyph-name="Epsilontonosgreek" unicode="&#x388;" horiz-adv-x="1390" 
d="M165 1122h-111l85 321h169zM1301 124v-124h-871v1443h871v-124h-735v-519h698v-122h-698v-554h735z" />
    <glyph glyph-name="Etatonosgreek" unicode="&#x389;" horiz-adv-x="1682" 
d="M165 1122h-111l85 321h169zM1547 0h-137v677h-844v-677h-136v1443h136v-642h844v642h137v-1443z" />
    <glyph glyph-name="Iotatonosgreek" unicode="&#x38a;" horiz-adv-x="701" 
d="M566 0h-136v1443h136v-1443zM165 1122h-111l85 321h169z" />
    <glyph glyph-name="Omicrontonosgreek" unicode="&#x38c;" horiz-adv-x="1625" 
d="M892 1466q302 0 479 -201t177 -544t-177 -543.5t-479 -200.5t-478.5 200.5t-176.5 543.5t177 544t478 201zM892 1339q-237 0 -376 -167t-139 -451t139 -450.5t376 -166.5t376.5 167t139.5 450q0 284 -139.5 451t-376.5 167zM149 1122h-111l85 321h169z" />
    <glyph glyph-name="Upsilontonosgreek" unicode="&#x38e;" horiz-adv-x="1561" 
d="M152 1122h-111l85 321h169zM1021 0h-137v624l-517 819h156l427 -685h5l427 685h156l-517 -819v-624z" />
    <glyph glyph-name="Omegatonosgreek" unicode="&#x38f;" horiz-adv-x="1668" 
d="M1425 784q0 251 -140.5 403t-375.5 152t-375.5 -151.5t-140.5 -403.5q0 -208 94 -361t292 -269v-154h-524v124h363v6q-177 106 -271 274.5t-94 382.5q0 199 82 353.5t231.5 240t342.5 85.5q145 0 267.5 -50t208 -139.5t133 -215.5t47.5 -274q0 -214 -93.5 -382
t-271.5 -275v-6h363v-124h-524v154q198 116 292 269t94 361zM169 1122h-111l85 321h169z" />
    <glyph glyph-name="iotadieresistonosgreek" unicode="&#x390;" horiz-adv-x="514" 
d="M120 1077h132v-807q0 -85 34 -124t112 -39q46 0 74 7l8 -113q-33 -10 -109 -10q-135 0 -193 63t-58 209v814zM-32 1259q-38 0 -65.5 27.5t-27.5 64.5q0 38 27.5 65.5t65.5 27.5t65.5 -27.5t27.5 -65.5t-27.5 -65t-65.5 -27zM458 1259q-38 0 -65.5 27t-27.5 65t27.5 65.5
t65.5 27.5t65 -27.5t27 -65.5t-27 -65t-65 -27zM234 1251h-104l39 313h162z" />
    <glyph glyph-name="Alphagreek" unicode="&#x391;" horiz-adv-x="1262" 
d="M1094 0l-160 442h-606l-160 -442h-145l540 1443h136l539 -1443h-144zM628 1274l-259 -714h524l-259 714h-6z" />
    <glyph glyph-name="Betagreek" unicode="&#x392;" horiz-adv-x="1217" 
d="M669 0h-534v1443h531q186 0 301.5 -98t115.5 -258q0 -120 -74.5 -212t-189.5 -113v-7q152 -18 245 -114.5t93 -244.5q0 -185 -130 -290.5t-358 -105.5zM271 1322v-520h326q164 0 256 71.5t92 198.5q0 118 -82 184t-226 66h-366zM271 121h380q176 0 271 73.5t95 208.5
t-99.5 208t-285.5 73h-361v-563z" />
    <glyph glyph-name="Gammagreek" unicode="&#x393;" horiz-adv-x="1041" 
d="M271 0h-136v1443h836v-124h-700v-1319z" />
    <glyph glyph-name="Deltagreek" unicode="&#x394;" horiz-adv-x="1283" 
d="M1233 0h-1183v97l524 1346h135l524 -1346v-97zM205 130v-6h874v6l-435 1151h-5z" />
    <glyph glyph-name="Epsilongreek" unicode="&#x395;" horiz-adv-x="1095" 
d="M1006 124v-124h-871v1443h871v-124h-735v-519h698v-122h-698v-554h735z" />
    <glyph glyph-name="Zetagreek" unicode="&#x396;" horiz-adv-x="1224" 
d="M87 0v99l866 1214v6h-838v124h1011v-100l-864 -1213v-6h876v-124h-1051z" />
    <glyph glyph-name="Etagreek" unicode="&#x397;" horiz-adv-x="1387" 
d="M1252 0h-137v677h-844v-677h-136v1443h136v-642h844v642h137v-1443z" />
    <glyph glyph-name="Thetagreek" unicode="&#x398;" horiz-adv-x="1471" 
d="M1055 661h-638v124h638v-124zM736 1466q305 0 482 -200.5t177 -544.5q0 -343 -177 -543.5t-482 -200.5t-482 200.5t-177 543.5t177 544t482 201zM736 1339q-240 0 -379.5 -166.5t-139.5 -451.5q0 -284 139.5 -450.5t379.5 -166.5t379.5 166.5t139.5 450.5
q0 285 -139.5 451.5t-379.5 166.5z" />
    <glyph glyph-name="Iotagreek" unicode="&#x399;" horiz-adv-x="406" 
d="M271 0h-136v1443h136v-1443z" />
    <glyph glyph-name="Kappagreek" unicode="&#x39a;" horiz-adv-x="1209" 
d="M271 0h-136v1443h136v-748h8l686 748h173l-593 -638l652 -805h-175l-573 708l-178 -193v-515z" />
    <glyph glyph-name="Lambdagreek" unicode="&#x39b;" horiz-adv-x="1222" 
d="M1054 0l-440 1266h-6l-440 -1266h-145l520 1443h136l519 -1443h-144z" />
    <glyph glyph-name="Mugreek" unicode="&#x39c;" horiz-adv-x="1660" 
d="M1525 1443v-1443h-128v1184h-6l-502 -1177h-119l-501 1177h-6v-1184h-128v1443h157l535 -1263h6l534 1263h158z" />
    <glyph glyph-name="Nugreek" unicode="&#x39d;" horiz-adv-x="1393" 
d="M270 0h-135v1443h135l846 -1205h7v1205h135v-1443h-132l-849 1206h-7v-1206z" />
    <glyph glyph-name="Xigreek" unicode="&#x39e;" horiz-adv-x="1220" 
d="M89 1443h1042v-126h-1042v126zM1054 676h-888v124h888v-124zM89 126h1042v-126h-1042v126z" />
    <glyph glyph-name="Omicrongreek" unicode="&#x39f;" horiz-adv-x="1465" 
d="M732 1466q302 0 479 -201t177 -544t-177 -543.5t-479 -200.5t-478.5 200.5t-176.5 543.5t177 544t478 201zM732 1339q-237 0 -376 -167t-139 -451t139 -450.5t376 -166.5t376.5 167t139.5 450q0 284 -139.5 451t-376.5 167z" />
    <glyph glyph-name="Pigreek" unicode="&#x3a0;" horiz-adv-x="1367" 
d="M1232 0h-137v1319h-824v-1319h-136v1443h1097v-1443z" />
    <glyph glyph-name="Rhogreek" unicode="&#x3a1;" horiz-adv-x="1171" 
d="M135 1443h512q206 0 334.5 -124t128.5 -325t-129 -325.5t-335 -124.5h-375v-544h-136v1443zM271 1321v-655h344q166 0 260.5 87t94.5 241t-94 240.5t-261 86.5h-344z" />
    <glyph glyph-name="Sigmagreek" unicode="&#x3a3;" horiz-adv-x="1197" 
d="M253 130v-6h858v-124h-1024v99l440 631l-423 604v109h988v-124h-817v-6l400 -571v-6z" />
    <glyph glyph-name="Taugreek" unicode="&#x3a4;" horiz-adv-x="1179" 
d="M658 0h-137v1319h-483v124h1103v-124h-483v-1319z" />
    <glyph glyph-name="Upsilongreek" unicode="&#x3a5;" horiz-adv-x="1219" 
d="M678 0h-137v624l-517 819h156l427 -685h5l427 685h156l-517 -819v-624z" />
    <glyph glyph-name="Phigreek" unicode="&#x3a6;" horiz-adv-x="1596" 
d="M1389 720q0 238 -139 375.5t-384 143.5v-1038q245 5 384 143t139 376zM206 720q0 -238 139 -376t384 -143v1038q-245 -6 -384 -143.5t-139 -375.5zM866 -58h-137v136q-307 9 -484.5 181.5t-177.5 460.5t177.5 460t484.5 182v133h137v-133q307 -10 485 -182t178 -460
t-178 -460.5t-485 -181.5v-136z" />
    <glyph glyph-name="Chigreek" unicode="&#x3a7;" horiz-adv-x="1263" 
d="M44 0l502 722v5l-498 716h165l421 -613h5l424 613h157l-507 -722v-4l499 -717h-164l-419 610h-5l-425 -610h-155z" />
    <glyph glyph-name="Psigreek" unicode="&#x3a8;" horiz-adv-x="1519" 
d="M828 0h-137v345q-268 1 -422 150.5t-154 408.5v539h136v-535q0 -209 113.5 -321.5t326.5 -115.5v972h137v-972q213 3 326.5 115.5t113.5 321.5v535h136v-539q0 -259 -154.5 -409t-421.5 -150v-345z" />
    <glyph glyph-name="Omegagreek" unicode="&#x3a9;" horiz-adv-x="1518" 
d="M1275 784q0 251 -140.5 403t-375.5 152t-375.5 -151.5t-140.5 -403.5q0 -208 94 -361t292 -269v-154h-524v124h363v6q-177 106 -271 274.5t-94 382.5q0 199 82 353.5t231.5 240t342.5 85.5q145 0 267.5 -50t208 -139.5t133 -215.5t47.5 -274q0 -214 -93.5 -382
t-271.5 -275v-6h363v-124h-524v154q198 116 292 269t94 361z" />
    <glyph glyph-name="Iotadieresisgreek" unicode="&#x3aa;" horiz-adv-x="422" 
d="M287 0h-136v1443h136v-1443zM41 1576q-38 0 -65.5 27.5t-27.5 64.5q0 38 27.5 65.5t65.5 27.5t65.5 -27.5t27.5 -65.5t-27.5 -65t-65.5 -27zM397 1576q-38 0 -65.5 27t-27.5 65t27.5 65.5t65.5 27.5t65.5 -27.5t27.5 -65.5t-27.5 -65t-65.5 -27z" />
    <glyph glyph-name="Upsilondieresisgreek" unicode="&#x3ab;" horiz-adv-x="1239" 
d="M698 0h-137v624l-517 819h156l427 -685h5l427 685h156l-517 -819v-624zM451 1576q-38 0 -65.5 27.5t-27.5 64.5q0 38 27.5 65.5t65.5 27.5t65.5 -27.5t27.5 -65.5t-27.5 -65t-65.5 -27zM807 1576q-38 0 -65.5 27t-27.5 65t27.5 65.5t65.5 27.5t65.5 -27.5t27.5 -65.5
t-27.5 -65t-65.5 -27z" />
    <glyph glyph-name="alphatonosgreek" unicode="&#x3ac;" horiz-adv-x="1222" 
d="M530 108q153 0 249.5 120.5t96.5 311.5q0 189 -97.5 310.5t-247.5 121.5q-146 0 -238.5 -120.5t-92.5 -311.5q0 -195 90.5 -313.5t239.5 -118.5zM520 -11q-202 0 -328.5 153t-126.5 398q0 244 126.5 397t328.5 153q117 0 216.5 -64.5t143.5 -170.5h3v223h126v-824
q0 -75 23.5 -108.5t77.5 -33.5q30 0 59 9l8 -114q-35 -10 -88 -10q-193 0 -213 181l-1 45h-2q-39 -100 -139 -167t-214 -67zM487 1251l83 313h168l-140 -313h-111z" />
    <glyph glyph-name="epsilontonosgreek" unicode="&#x3ad;" horiz-adv-x="1040" 
d="M472 1251l83 313h168l-140 -313h-111zM500 -12q-199 0 -312 81.5t-113 219.5q0 95 55 161.5t154 91.5v3q-90 23 -139.5 85t-49.5 153q0 138 114.5 222t309.5 84q200 0 317 -92t135 -252h-133q-33 226 -332 226q-136 0 -209.5 -52.5t-73.5 -138.5q0 -175 269 -175h151
v-115h-152q-131 0 -206 -51t-75 -139q0 -94 76 -143.5t220 -49.5q142 0 232.5 57.5t114.5 161.5h133q-26 -153 -158 -245.5t-328 -92.5z" />
    <glyph glyph-name="etatonosgreek" unicode="&#x3ae;" horiz-adv-x="1219" 
d="M1106 -357h-133v1016q0 151 -70 231.5t-212 80.5t-225.5 -93.5t-83.5 -246.5v-631h-132v824q0 75 -26 108.5t-80 33.5q-36 0 -63 -9v115q51 10 94 10q164 0 193 -158q1 -4 3.5 -23.5t3.5 -24.5h3q100 213 347 213q180 0 280.5 -106t100.5 -289v-1051zM472 1251l83 313
h168l-140 -313h-111z" />
    <glyph glyph-name="iotatonosgreek" unicode="&#x3af;" horiz-adv-x="514" 
d="M120 1077h132v-807q0 -85 34 -124t112 -39q46 0 74 7l8 -113q-33 -10 -109 -10q-135 0 -193 63t-58 209v814zM130 1251l83 313h168l-140 -313h-111z" />
    <glyph glyph-name="upsilondieresistonosgreek" unicode="&#x3b0;" horiz-adv-x="1058" 
d="M271 1259q-38 0 -65.5 27.5t-27.5 64.5q0 38 27.5 65.5t65.5 27.5t65.5 -27.5t27.5 -65.5t-27.5 -65t-65.5 -27zM761 1259q-38 0 -65.5 27t-27.5 65t27.5 65.5t65.5 27.5t65 -27.5t27 -65.5t-27 -65t-65 -27zM537 1251h-104l39 313h162zM525 -12q-200 0 -306 112.5
t-106 319.5v657h132v-650q0 -319 278 -319q155 0 235 115.5t80 328.5q0 174 -21 289t-75 236h136q43 -94 69 -229t26 -278q0 -279 -116.5 -430.5t-331.5 -151.5z" />
    <glyph glyph-name="alphagreek" unicode="&#x3b1;" horiz-adv-x="1222" 
d="M530 107q153 0 249.5 120.5t96.5 311.5q0 189 -97.5 310.5t-247.5 121.5q-146 0 -238.5 -120.5t-92.5 -311.5q0 -195 90.5 -313.5t239.5 -118.5zM520 -12q-202 0 -328.5 153t-126.5 398q0 244 126.5 397t328.5 153q117 0 216.5 -64.5t143.5 -170.5h3v223h126v-824
q0 -75 23.5 -108.5t77.5 -33.5q30 0 59 9l8 -114q-35 -10 -88 -10q-193 0 -213 181l-1 45h-2q-39 -100 -139 -167t-214 -67z" />
    <glyph glyph-name="betagreek" unicode="&#x3b2;" horiz-adv-x="1143" 
d="M443 756v115h108q140 0 217.5 71t77.5 198q0 117 -78 188t-206 71q-312 0 -312 -387v-471q0 -203 96 -318.5t272 -115.5q149 0 236.5 87.5t87.5 227.5q0 161 -104 247.5t-294 86.5h-101zM119 1025q0 238 113.5 365.5t324.5 127.5q195 0 307.5 -99.5t112.5 -270.5
q0 -115 -62.5 -200.5t-176.5 -122.5v-2q166 -34 253 -136t87 -260q0 -194 -123.5 -316.5t-319.5 -122.5q-138 0 -236.5 61t-144.5 173h-3v-579h-132v1382z" />
    <glyph glyph-name="gammagreek" unicode="&#x3b3;" horiz-adv-x="1054" 
d="M959 912q0 -121 -23.5 -230t-77.5 -223t-123.5 -223t-179.5 -257v-324h-131v326l-380 1096h140l318 -964h4q173 239 250.5 421t77.5 378q0 79 -11 165h126q10 -81 10 -165z" />
    <glyph glyph-name="deltagreek" unicode="&#x3b4;" horiz-adv-x="1092" 
d="M549 -12q-218 0 -352.5 140t-134.5 369q0 214 115 346.5t304 146.5v2q-129 56 -187.5 121.5t-58.5 147.5q0 121 96.5 189t260.5 68q197 0 331 -71l-7 -117q-169 72 -329 72q-107 0 -164 -36.5t-57 -103.5q0 -60 53 -104.5t210 -115.5q214 -101 307 -230t93 -313
q0 -230 -133.5 -370.5t-346.5 -140.5zM545 104q157 0 253.5 106t96.5 285q0 195 -98.5 300t-252.5 105q-159 0 -253.5 -110t-94.5 -295q0 -176 96 -283.5t253 -107.5z" />
    <glyph glyph-name="epsilongreek" unicode="&#x3b5;" horiz-adv-x="1040" 
d="M500 -12q-199 0 -312 81.5t-113 219.5q0 95 55 161.5t154 91.5v3q-90 23 -139.5 85t-49.5 153q0 138 114.5 222t309.5 84q200 0 317 -92t135 -252h-133q-33 226 -332 226q-136 0 -209.5 -52.5t-73.5 -138.5q0 -175 269 -175h151v-115h-152q-131 0 -206 -51t-75 -139
q0 -94 76 -143.5t220 -49.5q142 0 232.5 57.5t114.5 161.5h133q-26 -153 -158 -245.5t-328 -92.5z" />
    <glyph glyph-name="zetagreek" unicode="&#x3b6;" horiz-adv-x="869" 
d="M806 -352l-112 23q52 90 52 179q0 67 -48 111t-185 90q-249 83 -348.5 197t-99.5 317q0 225 158.5 441.5t426.5 376.5v4h-500v119h704v-118q-316 -179 -485 -385.5t-169 -431.5q0 -162 76 -245.5t291 -158.5q175 -60 241.5 -127t66.5 -172q0 -110 -69 -220z" />
    <glyph glyph-name="etagreek" unicode="&#x3b7;" horiz-adv-x="1219" 
d="M1106 -357h-133v1016q0 151 -70 231.5t-212 80.5t-225.5 -93.5t-83.5 -246.5v-631h-132v824q0 75 -26 108.5t-80 33.5q-36 0 -63 -9v115q51 10 94 10q164 0 193 -158q1 -4 3.5 -23.5t3.5 -24.5h3q100 213 347 213q180 0 280.5 -106t100.5 -289v-1051z" />
    <glyph glyph-name="thetagreek" unicode="&#x3b8;" horiz-adv-x="1157" 
d="M579 -12q-241 0 -365 196.5t-124 571.5q0 372 125.5 567t363.5 195t363 -196t125 -568q0 -374 -125 -570t-363 -196zM579 107q173 0 261 148t93 450h-708q5 -302 93 -450t261 -148zM226 823h706q-7 286 -96.5 431t-256.5 145q-338 0 -353 -576z" />
    <glyph glyph-name="iotagreek" unicode="&#x3b9;" horiz-adv-x="514" 
d="M120 1077h132v-807q0 -85 34 -124t112 -39q46 0 74 7l8 -113q-33 -10 -109 -10q-135 0 -193 63t-58 209v814z" />
    <glyph glyph-name="kappagreek" unicode="&#x3ba;" horiz-adv-x="1099" 
d="M126 0v1077h131v-625h2l406 472q78 92 133 125t127 33q51 0 88 -10v-115q-25 9 -73 9q-47 0 -86 -25.5t-104 -102.5l-156 -182l448 -656h-150l-380 562l-255 -283v-279h-131z" />
    <glyph glyph-name="lambdagreek" unicode="&#x3bb;" horiz-adv-x="1107" 
d="M40 0l431 1027l-63 173q-45 124 -85.5 162.5t-119.5 38.5q-32 0 -66 -9v115q47 11 88 11q119 0 182 -58.5t121 -223.5l357 -1018q22 -62 50 -84.5t79 -22.5q32 0 59 9l9 -114q-40 -10 -87 -10q-93 0 -142 39.5t-89 154.5l-234 677h-2l-352 -867h-136z" />
    <glyph glyph-name="mugreek" unicode="&#x3bc;" horiz-adv-x="1207" 
d="M119 -357v1434h132v-665q0 -145 73.5 -224.5t207.5 -79.5q145 0 231 92t86 245v632h132v-825q0 -75 24 -108t77 -33q34 0 60 9l8 -114q-31 -10 -91 -10q-174 0 -201 166q-1 3 -2 12t-2 20.5t-1 13.5h-2q-45 -102 -131 -161t-192 -59q-98 0 -172.5 45t-102.5 121h-2v-511
h-132z" />
    <glyph glyph-name="nugreek" unicode="&#x3bd;" horiz-adv-x="1040" 
d="M417 0l-373 1077h140l318 -964h4q166 230 238 413.5t72 385.5q0 72 -12 165h131q10 -71 10 -165q0 -233 -84 -435.5t-291 -476.5h-153z" />
    <glyph glyph-name="xigreek" unicode="&#x3be;" horiz-adv-x="906" 
d="M806 -352l-112 23q52 89 52 182q0 66 -50.5 110t-192.5 91q-128 43 -213.5 87.5t-135 95t-69.5 104t-20 123.5q0 135 84.5 223t240.5 115v2q-134 42 -197.5 111t-63.5 181q0 111 71.5 185t202.5 104v2h-272v119h711v-106l-107 -11q-244 -24 -363.5 -95.5t-119.5 -199.5
q0 -115 98.5 -168.5t297.5 -53.5h120v-119h-121q-447 0 -447 -276q0 -103 76.5 -169t284.5 -138q176 -60 245 -127.5t69 -174.5q0 -110 -69 -220z" />
    <glyph glyph-name="omicrongreek" unicode="&#x3bf;" horiz-adv-x="1099" 
d="M549 -12q-219 0 -351.5 150t-132.5 400q0 253 131.5 402t352.5 149q222 0 353.5 -149t131.5 -402q0 -250 -133 -400t-352 -150zM549 107q162 0 256 114.5t94 316.5q0 200 -95 316.5t-255 116.5t-254.5 -116.5t-94.5 -316.5q0 -202 93.5 -316.5t255.5 -114.5z" />
    <glyph glyph-name="pigreek" unicode="&#x3c0;" horiz-adv-x="1316" 
d="M287 0v962h-220v115h1167v-115h-218v-715q0 -71 24.5 -103.5t77.5 -32.5q30 0 58 9l9 -114q-39 -10 -89 -10q-108 0 -158 56.5t-50 181.5v728h-473v-962h-128z" />
    <glyph glyph-name="rhogreek" unicode="&#x3c1;" horiz-adv-x="1126" 
d="M573 107q162 0 257.5 117.5t95.5 316.5q0 198 -94.5 314t-253.5 116q-162 0 -253.5 -114t-91.5 -314q0 -194 96 -315t244 -121zM101 -357v896q0 252 129.5 401t347.5 149q215 0 349 -151t134 -397q0 -251 -126 -402t-336 -151q-122 0 -221 64.5t-141 169.5h-4v-579h-132z
" />
    <glyph glyph-name="sigmafinalgreek" unicode="&#x3c2;" horiz-adv-x="1034" 
d="M806 -352l-112 23q52 90 52 179q0 67 -48 111t-185 90q-249 82 -348.5 200t-99.5 320q0 233 127.5 375.5t345.5 142.5q186 0 301 -92.5t142 -257.5h-133q-22 108 -101.5 170t-201.5 62q-162 0 -253.5 -110t-91.5 -290q0 -157 77 -243t290 -161q175 -60 241.5 -127
t66.5 -172q0 -110 -69 -220z" />
    <glyph glyph-name="sigmagreek" unicode="&#x3c3;" horiz-adv-x="1236" 
d="M545 -11q-215 0 -347.5 149.5t-132.5 391.5q0 253 140.5 400t381.5 147h580v-115h-342v-3q94 -55 147.5 -168t53.5 -254q0 -246 -132.5 -397t-348.5 -151zM544 108q161 0 257.5 116t96.5 310q0 197 -89 310.5t-244 113.5q-168 0 -266.5 -116t-98.5 -313q0 -192 94 -306.5
t250 -114.5z" />
    <glyph glyph-name="taugreek" unicode="&#x3c4;" horiz-adv-x="1002" 
d="M668 -9q-143 0 -201 65t-58 218v688h-349v115h867v-115h-386v-687q0 -87 35.5 -127.5t119.5 -40.5q39 0 75 7l8 -113q-43 -10 -111 -10z" />
    <glyph glyph-name="upsilongreek" unicode="&#x3c5;" horiz-adv-x="1058" 
d="M525 -12q-200 0 -306 112.5t-106 319.5v657h132v-650q0 -319 278 -319q155 0 235 115.5t80 328.5q0 174 -21 289t-75 236h136q43 -94 69 -229t26 -278q0 -279 -116.5 -430.5t-331.5 -151.5z" />
    <glyph glyph-name="phigreek" unicode="&#x3c6;" horiz-adv-x="1406" 
d="M640 -357v346q-267 10 -424.5 159.5t-157.5 390.5q0 245 156 394.5t426 155.5v246h127v-246q270 -6 425.5 -155.5t155.5 -394.5q0 -241 -157.5 -390.5t-423.5 -159.5v-346h-127zM767 101q205 9 326.5 128t121.5 310q0 193 -120 313t-328 125v-876zM640 101v876
q-209 -5 -329 -125t-120 -313q0 -191 122 -310t327 -128z" />
    <glyph glyph-name="chigreek" unicode="&#x3c7;" horiz-adv-x="1143" 
d="M130 -357l396 709l-248 499q-35 69 -67 92t-89 23q-34 0 -61 -9v115q50 10 89 10q88 0 138 -37t102 -143l216 -434h2l324 609h141l-406 -731l235 -471q36 -71 66.5 -95.5t83.5 -24.5q34 0 58 8l9 -114q-33 -10 -82 -10q-93 0 -140.5 33.5t-98.5 137.5l-212 421h-2
l-313 -588h-141z" />
    <glyph glyph-name="psigreek" unicode="&#x3c8;" horiz-adv-x="1359" 
d="M612 -357v345q-236 2 -367.5 115t-131.5 317v657h132v-644q0 -156 94 -240.5t273 -84.5v1227h127v-1227q192 3 296 118t104 333q0 173 -21 285t-75 233h136q43 -92 69 -223t26 -273q0 -276 -141 -434t-394 -159v-345h-127z" />
    <glyph glyph-name="omegagreek" unicode="&#x3c9;" horiz-adv-x="1498" 
d="M446 -13q-174 0 -267.5 133.5t-93.5 382.5q0 151 45 310.5t116 263.5h146q-172 -251 -172 -573q0 -196 60 -296.5t176 -100.5q105 0 166 85t61 232v334h131v-334q0 -147 61 -232t167 -85q116 0 176 100.5t60 296.5q0 322 -172 573h146q71 -104 116 -263.5t45 -310.5
q0 -249 -93.5 -382.5t-267.5 -133.5q-109 0 -186 62.5t-115 181.5h-5q-37 -119 -114 -181.5t-186 -62.5z" />
    <glyph glyph-name="iotadieresisgreek" unicode="&#x3ca;" horiz-adv-x="514" 
d="M16 1259q-38 0 -65.5 27.5t-27.5 64.5q0 38 27.5 65.5t65.5 27.5t65.5 -27.5t27.5 -65.5t-27.5 -65t-65.5 -27zM372 1259q-38 0 -65.5 27t-27.5 65t27.5 65.5t65.5 27.5t65.5 -27.5t27.5 -65.5t-27.5 -65t-65.5 -27zM120 1077h132v-807q0 -85 34 -124t112 -39q46 0 74 7
l8 -113q-33 -10 -109 -10q-135 0 -193 63t-58 209v814z" />
    <glyph glyph-name="upsilondieresisgreek" unicode="&#x3cb;" horiz-adv-x="1058" 
d="M344 1259q-38 0 -65.5 27.5t-27.5 64.5q0 38 27.5 65.5t65.5 27.5t65.5 -27.5t27.5 -65.5t-27.5 -65t-65.5 -27zM700 1259q-38 0 -65.5 27t-27.5 65t27.5 65.5t65.5 27.5t65.5 -27.5t27.5 -65.5t-27.5 -65t-65.5 -27zM525 -12q-200 0 -306 112.5t-106 319.5v657h132v-650
q0 -319 278 -319q155 0 235 115.5t80 328.5q0 174 -21 289t-75 236h136q43 -94 69 -229t26 -278q0 -279 -116.5 -430.5t-331.5 -151.5z" />
    <glyph glyph-name="omicrontonosgreek" unicode="&#x3cc;" horiz-adv-x="1099" 
d="M549 -12q-219 0 -351.5 150t-132.5 400q0 253 131.5 402t352.5 149q222 0 353.5 -149t131.5 -402q0 -250 -133 -400t-352 -150zM549 107q162 0 256 114.5t94 316.5q0 200 -95 316.5t-255 116.5t-254.5 -116.5t-94.5 -316.5q0 -202 93.5 -316.5t255.5 -114.5zM497 1251
l83 313h168l-140 -313h-111z" />
    <glyph glyph-name="upsilontonosgreek" unicode="&#x3cd;" horiz-adv-x="1058" 
d="M448 1251l83 313h168l-140 -313h-111zM525 -12q-200 0 -306 112.5t-106 319.5v657h132v-650q0 -319 278 -319q155 0 235 115.5t80 328.5q0 174 -21 289t-75 236h136q43 -94 69 -229t26 -278q0 -279 -116.5 -430.5t-331.5 -151.5z" />
    <glyph glyph-name="omegatonosgreek" unicode="&#x3ce;" horiz-adv-x="1498" 
d="M446 -13q-174 0 -267.5 133.5t-93.5 382.5q0 151 45 310.5t116 263.5h146q-172 -251 -172 -573q0 -196 60 -296.5t176 -100.5q105 0 166 85t61 232v334h131v-334q0 -147 61 -232t167 -85q116 0 176 100.5t60 296.5q0 322 -172 573h146q71 -104 116 -263.5t45 -310.5
q0 -249 -93.5 -382.5t-267.5 -133.5q-109 0 -186 62.5t-115 181.5h-5q-37 -119 -114 -181.5t-186 -62.5zM699 1251l83 313h168l-140 -313h-111z" />
    <glyph glyph-name="Iocyrillic" unicode="&#x401;" horiz-adv-x="1115" 
d="M402 1576q-38 0 -65.5 27.5t-27.5 64.5q0 38 27.5 65.5t65.5 27.5t65.5 -27.5t27.5 -65.5t-27.5 -65t-65.5 -27zM758 1576q-38 0 -65.5 27t-27.5 65t27.5 65.5t65.5 27.5t65.5 -27.5t27.5 -65.5t-27.5 -65t-65.5 -27zM1016 124v-124h-871v1443h871v-124h-735v-519h698
v-122h-698v-554h735z" />
    <glyph glyph-name="Djecyrillic" unicode="&#x402;" horiz-adv-x="1626" 
d="M1095 -14q-78 0 -121 15v123q37 -13 119 -13q132 0 209 87t77 234q0 152 -92 243t-246 91q-115 0 -219.5 -56t-154.5 -142v-568h-136v1319h-483v124h1103v-124h-484v-578h7q68 71 165.5 110t209.5 39q211 0 338.5 -125.5t127.5 -331.5q0 -202 -115 -324.5t-305 -122.5z
" />
    <glyph glyph-name="Gjecyrillic" unicode="&#x403;" horiz-adv-x="1051" 
d="M615 1551h-117l252 295h154zM282 0h-137v1443h842v-125h-705v-1318z" />
    <glyph glyph-name="Ecyrillic" unicode="&#x404;" horiz-adv-x="1388" 
d="M1312 411q-41 -203 -196 -318.5t-386 -115.5q-295 0 -469 202.5t-174 545.5q0 339 174.5 540t468.5 201q225 0 387.5 -129.5t195.5 -334.5h-139q-33 149 -156.5 243t-287.5 94q-214 0 -350 -145t-150 -393h684v-124h-686q7 -263 144.5 -418t358.5 -155q169 0 288.5 82.5
t153.5 224.5h139z" />
    <glyph glyph-name="Dzecyrillic" unicode="&#x405;" horiz-adv-x="1201" 
d="M74 392h137q11 -130 123 -210.5t281 -80.5q162 0 266.5 79t104.5 201q0 101 -73 164.5t-234 104.5l-179 46q-201 51 -293.5 140t-92.5 231q0 174 140 286.5t354 112.5q210 0 349.5 -111.5t145.5 -283.5h-137q-10 122 -109 196.5t-253 74.5q-151 0 -249.5 -75.5
t-98.5 -194.5q0 -93 71 -151.5t231 -99.5l156 -40q218 -55 315 -145t97 -240q0 -190 -142 -304.5t-381 -114.5q-226 0 -372 114.5t-157 300.5z" />
    <glyph glyph-name="Icyrillic" unicode="&#x406;" horiz-adv-x="426" 
d="M281 0h-136v1443h136v-1443z" />
    <glyph glyph-name="Yicyrillic" unicode="&#x407;" horiz-adv-x="426" 
d="M281 0h-136v1443h136v-1443zM35 1576q-38 0 -65.5 27.5t-27.5 64.5q0 38 27.5 65.5t65.5 27.5t65.5 -27.5t27.5 -65.5t-27.5 -65t-65.5 -27zM391 1576q-38 0 -65.5 27t-27.5 65t27.5 65.5t65.5 27.5t65.5 -27.5t27.5 -65.5t-27.5 -65t-65.5 -27z" />
    <glyph glyph-name="Jecyrillic" unicode="&#x408;" horiz-adv-x="1007" 
d="M52 331h135q5 -104 77.5 -169t184.5 -65q132 0 204.5 78t72.5 222v1046h136v-1048q0 -199 -109.5 -312t-303.5 -113q-173 0 -284.5 101t-112.5 260z" />
    <glyph glyph-name="Ljecyrillic" unicode="&#x409;" horiz-adv-x="2115" 
d="M438 510q-7 -123 -27.5 -214.5t-58.5 -162t-100 -106.5t-148 -36q-35 0 -65 10v123q19 -7 54 -7q47 0 82 20t58 54t39 87t23.5 109t12.5 130l54 926h837v-558h367q207 0 335.5 -122.5t128.5 -320.5q0 -197 -128 -319.5t-334 -122.5h-506v1319h-574zM1199 124h336
q167 0 261.5 84t94.5 234t-94.5 235t-261.5 85h-336v-638z" />
    <glyph glyph-name="Njecyrillic" unicode="&#x40a;" horiz-adv-x="2130" 
d="M1228 124h337q167 0 261 75.5t94 209.5q0 126 -94 197t-261 71h-337v-553zM281 677v-677h-136v1443h136v-642h811v642h136v-642h368q207 0 335.5 -108.5t128.5 -283.5q0 -183 -128.5 -296t-334.5 -113h-505v677h-811z" />
    <glyph glyph-name="Tshecyrillic" unicode="&#x40b;" horiz-adv-x="1646" 
d="M1034 766q-112 0 -214.5 -55.5t-152.5 -142.5v-568h-136v1319h-483v124h1103v-124h-484v-576h7q68 70 165.5 108.5t207.5 38.5q212 0 338.5 -132.5t126.5 -354.5v-403h-137v392q0 175 -90.5 274.5t-250.5 99.5z" />
    <glyph glyph-name="Kjecyrillic" unicode="&#x40c;" horiz-adv-x="1223" 
d="M927 1846l-289 -295h-117l252 295h154zM432 750l771 -750h-190l-725 708h-7v-708h-136v1443h136v-671h7l677 671h175z" />
    <glyph glyph-name="Ushortcyrillic" unicode="&#x40e;" horiz-adv-x="1185" 
d="M314 1823h98q0 -84 55 -138t140 -54t140 54t55 138h98q0 -122 -81.5 -197t-211.5 -75t-211.5 75t-81.5 197zM280 -10q-49 0 -75 12v124q31 -9 75 -9q84 0 143.5 51.5t111.5 155.5l-501 1119h147l422 -965h7l405 965h143l-453 -1044q-96 -223 -188 -316t-237 -93z" />
    <glyph glyph-name="Dzhecyrillic" unicode="&#x40f;" horiz-adv-x="1389" 
d="M631 0h-486v1443h136v-1319h827v1319h136v-1443h-486v-285h-127v285z" />
    <glyph glyph-name="Acyrillic" unicode="&#x410;" horiz-adv-x="1282" 
d="M1104 0l-160 442h-606l-160 -442h-145l540 1443h136l539 -1443h-144zM638 1274l-259 -714h524l-259 714h-6z" />
    <glyph glyph-name="Becyrillic" unicode="&#x411;" horiz-adv-x="1211" 
d="M1109 425q0 -190 -128 -307.5t-335 -117.5h-501v1443h829v-124h-693v-467h364q206 0 335 -118.5t129 -308.5zM281 124h333q167 0 261 79.5t94 221.5t-94 222.5t-261 80.5h-333v-604z" />
    <glyph glyph-name="Vecyrillic" unicode="&#x412;" horiz-adv-x="1237" 
d="M679 0h-534v1443h531q186 0 301.5 -98t115.5 -258q0 -120 -74.5 -212t-189.5 -113v-7q152 -18 245 -114.5t93 -244.5q0 -185 -130 -290.5t-358 -105.5zM281 1322v-520h326q164 0 256 71.5t92 198.5q0 118 -82 184t-226 66h-366zM281 121h380q176 0 271 73.5t95 208.5
t-99.5 208t-285.5 73h-361v-563z" />
    <glyph glyph-name="Gecyrillic" unicode="&#x413;" horiz-adv-x="1051" 
d="M282 0h-137v1443h842v-125h-705v-1318z" />
    <glyph glyph-name="Decyrillic" unicode="&#x414;" horiz-adv-x="1434" 
d="M412 503q-9 -139 -32.5 -226.5t-76.5 -145.5v-7h766v1195h-607zM151 0v-285h-127v409h102q75 39 111 135t45 249l57 935h867v-1319h183v-409h-128v285h-1110z" />
    <glyph glyph-name="Iecyrillic" unicode="&#x415;" horiz-adv-x="1115" 
d="M1016 124v-124h-871v1443h871v-124h-735v-519h698v-122h-698v-554h735z" />
    <glyph glyph-name="Zhecyrillic" unicode="&#x416;" horiz-adv-x="1897" 
d="M1162 750l715 -750h-186l-669 708h-7v-708h-137v708h-6l-673 -708h-179l709 748l-654 695h176l621 -671h6v671h137v-671h7l622 671h171z" />
    <glyph glyph-name="Zecyrillic" unicode="&#x417;" horiz-adv-x="1158" 
d="M380 681v122h185q152 0 245 78t93 202q0 119 -87 193.5t-233 74.5q-143 0 -233.5 -73t-104.5 -195h-133q15 178 143 284t333 106q199 0 326 -107.5t127 -271.5q0 -124 -77.5 -216.5t-206.5 -121.5v-7q155 -16 243 -112.5t88 -246.5q0 -179 -143.5 -299.5t-361.5 -120.5
t-360 112t-152 287h132q11 -121 116.5 -198.5t263.5 -77.5q163 0 264 84t101 216q0 137 -98 212.5t-279 75.5h-191z" />
    <glyph glyph-name="Iicyrillic" unicode="&#x418;" horiz-adv-x="1413" 
d="M1133 0v1218h-12l-841 -1218h-135v1443h135v-1221h12l841 1221h135v-1443h-135z" />
    <glyph glyph-name="Iishortcyrillic" unicode="&#x419;" horiz-adv-x="1413" 
d="M413 1823h98q0 -84 55 -138t140 -54t140 54t55 138h98q0 -122 -81.5 -197t-211.5 -75t-211.5 75t-81.5 197zM1133 0v1218h-12l-841 -1218h-135v1443h135v-1221h12l841 1221h135v-1443h-135z" />
    <glyph glyph-name="Kacyrillic" unicode="&#x41a;" horiz-adv-x="1231" 
d="M432 750l771 -750h-190l-725 708h-7v-708h-136v1443h136v-671h7l677 671h175z" />
    <glyph glyph-name="Elcyrillic" unicode="&#x41b;" horiz-adv-x="1347" 
d="M1202 0h-137v1319h-577l-50 -809q-16 -262 -94.5 -390.5t-239.5 -128.5q-32 0 -65 10v123q19 -7 54 -7q103 0 153 97.5t62 302.5l54 926h840v-1443z" />
    <glyph glyph-name="Emcyrillic" unicode="&#x41c;" horiz-adv-x="1680" 
d="M1535 1443v-1443h-128v1184h-6l-502 -1177h-119l-501 1177h-6v-1184h-128v1443h157l535 -1263h6l534 1263h158z" />
    <glyph glyph-name="Encyrillic" unicode="&#x41d;" horiz-adv-x="1407" 
d="M1262 0h-137v677h-844v-677h-136v1443h136v-642h844v642h137v-1443z" />
    <glyph glyph-name="Ocyrillic" unicode="&#x41e;" horiz-adv-x="1485" 
d="M742 1466q302 0 479 -201t177 -544t-177 -543.5t-479 -200.5t-478.5 200.5t-176.5 543.5t177 544t478 201zM742 1339q-237 0 -376 -167t-139 -451t139 -450.5t376 -166.5t376.5 167t139.5 450q0 284 -139.5 451t-376.5 167z" />
    <glyph glyph-name="Pecyrillic" unicode="&#x41f;" horiz-adv-x="1389" 
d="M1244 0h-135v1318h-827v-1318h-137v1443h1099v-1443z" />
    <glyph glyph-name="Ercyrillic" unicode="&#x420;" horiz-adv-x="1190" 
d="M145 1443h512q206 0 334.5 -124t128.5 -325t-129 -325.5t-335 -124.5h-375v-544h-136v1443zM281 1321v-655h344q166 0 260.5 87t94.5 241t-94 240.5t-261 86.5h-344z" />
    <glyph glyph-name="Escyrillic" unicode="&#x421;" horiz-adv-x="1388" 
d="M730 -23q-295 0 -469 202.5t-174 545.5q0 339 174.5 540t468.5 201q225 0 387.5 -129.5t195.5 -334.5h-139q-33 149 -156.5 243t-287.5 94q-230 0 -366.5 -166.5t-136.5 -447.5q0 -285 136.5 -453t367.5 -168q169 0 288.5 82.5t153.5 224.5h139q-41 -203 -196 -318.5
t-386 -115.5z" />
    <glyph glyph-name="Tecyrillic" unicode="&#x422;" horiz-adv-x="1199" 
d="M668 0h-137v1319h-483v124h1103v-124h-483v-1319z" />
    <glyph glyph-name="Ucyrillic" unicode="&#x423;" horiz-adv-x="1185" 
d="M280 -10q-49 0 -75 12v124q31 -9 75 -9q84 0 143.5 51.5t111.5 155.5l-501 1119h147l422 -965h7l405 965h143l-453 -1044q-96 -223 -188 -316t-237 -93z" />
    <glyph glyph-name="Efcyrillic" unicode="&#x424;" horiz-adv-x="1581" 
d="M724 260v930q-234 -5 -371 -130.5t-137 -334.5q0 -210 137 -335t371 -130zM1366 725q0 209 -137 335t-370 130v-930q233 5 370 130.5t137 334.5zM724 137q-298 4 -472 163t-174 425t174 424t472 164v147h135v-147q297 -5 471 -163.5t174 -424.5t-174 -424.5t-471 -163.5
v-154h-135v154z" />
    <glyph glyph-name="Xacyrillic" unicode="&#x425;" horiz-adv-x="1283" 
d="M54 0l502 722v5l-498 716h165l421 -613h5l424 613h157l-507 -722v-4l499 -717h-164l-419 610h-5l-425 -610h-155z" />
    <glyph glyph-name="Tsecyrillic" unicode="&#x426;" horiz-adv-x="1470" 
d="M1425 -285h-128v285h-1152v1443h136v-1319h824v1319h137v-1319h183v-409z" />
    <glyph glyph-name="Checyrillic" unicode="&#x427;" horiz-adv-x="1306" 
d="M1162 0h-137v707h-6q-67 -69 -168 -111.5t-226 -42.5q-227 0 -367 139.5t-140 368.5v382h137v-372q0 -180 101 -285.5t268 -105.5q142 0 251 61t150 144v558h137v-1443z" />
    <glyph glyph-name="Shacyrillic" unicode="&#x428;" horiz-adv-x="1835" 
d="M145 0v1443h136v-1319h568v1319h137v-1319h568v1319h136v-1443h-1545z" />
    <glyph glyph-name="Shchacyrillic" unicode="&#x429;" horiz-adv-x="1918" 
d="M1873 -285h-127v285h-1601v1443h136v-1319h568v1319h137v-1319h568v1319h136v-1319h183v-409z" />
    <glyph glyph-name="Hardsigncyrillic" unicode="&#x42a;" horiz-adv-x="1453" 
d="M920 0h-505v1319h-340v124h476v-558h368q207 0 335.5 -122.5t128.5 -320.5q0 -197 -128.5 -319.5t-334.5 -122.5zM551 124h337q167 0 261 84t94 234t-94.5 235t-260.5 85h-337v-638z" />
    <glyph glyph-name="Yericyrillic" unicode="&#x42b;" horiz-adv-x="1601" 
d="M1456 0h-136v1443h136v-1443zM145 0v1443h136v-558h368q207 0 335.5 -122.5t128.5 -320.5q0 -197 -128 -319.5t-335 -122.5h-505zM281 124h337q167 0 261 84t94 234t-94.5 235t-260.5 85h-337v-638z" />
    <glyph glyph-name="Softsigncyrillic" unicode="&#x42c;" horiz-adv-x="1184" 
d="M145 0v1443h136v-558h368q207 0 335.5 -122.5t128.5 -320.5q0 -197 -128 -319.5t-335 -122.5h-505zM281 124h337q167 0 261 84t94 234t-94.5 235t-260.5 85h-337v-638z" />
    <glyph glyph-name="Ereversedcyrillic" unicode="&#x42d;" horiz-adv-x="1392" 
d="M668 -23q-234 0 -392 115t-201 319h140q35 -141 158 -224t294 -83q221 0 355.5 155t141.5 418h-683v124h680q-14 247 -147.5 392.5t-345.5 145.5q-165 0 -292 -94.5t-161 -242.5h-140q34 205 200 334.5t393 129.5q293 0 465 -201.5t172 -542.5q0 -344 -171 -544.5
t-466 -200.5z" />
    <glyph glyph-name="IUcyrillic" unicode="&#x42e;" horiz-adv-x="1932" 
d="M1206 -30q-288 0 -458 189.5t-181 517.5h-286v-677h-136v1443h136v-642h287q20 313 190 492.5t448 179.5q296 0 467.5 -202t171.5 -549t-171 -549.5t-468 -202.5zM1206 1346q-230 0 -365.5 -168.5t-135.5 -455.5q0 -286 134.5 -455.5t366.5 -169.5q230 0 364.5 169.5
t134.5 455.5q0 287 -134 455.5t-365 168.5z" />
    <glyph glyph-name="IAcyrillic" unicode="&#x42f;" horiz-adv-x="1231" 
d="M950 703v616h-342q-169 0 -262.5 -80.5t-93.5 -226.5t94 -227.5t262 -81.5h342zM615 579l-406 -579h-162l418 596q-160 31 -256 142t-96 274q0 193 127.5 312t334.5 119h511v-1443h-136v579h-335z" />
    <glyph glyph-name="acyrillic" unicode="&#x430;" horiz-adv-x="1068" 
d="M473 104q145 0 242.5 86.5t97.5 214.5v119l-315 -22q-136 -9 -206.5 -60.5t-70.5 -142.5q0 -87 70 -141t182 -54zM447 -12q-161 0 -261 86.5t-100 225.5q0 138 101 216.5t295 92.5l331 22v92q0 118 -71.5 183t-201.5 65q-113 0 -187 -54.5t-92 -150.5h-127
q8 142 122.5 232.5t284.5 90.5q185 0 294.5 -96t109.5 -259v-734h-126v206h-3q-44 -98 -144.5 -158t-224.5 -60z" />
    <glyph glyph-name="becyrillic" unicode="&#x431;" horiz-adv-x="1147" 
d="M579 -19q-240 0 -366 163t-126 473q0 471 127 670.5t438 207.5q70 0 113 5q161 11 236 49v-116q-25 -19 -88.5 -34t-140.5 -20q-45 -5 -115 -5q-119 -3 -198 -32.5t-131.5 -96.5t-81 -164t-45.5 -246h6q52 110 153.5 169t236.5 59q217 0 346 -144.5t129 -387.5
q0 -254 -133 -402t-360 -148zM579 99q167 0 262.5 115t95.5 317q0 194 -95.5 304t-262.5 110t-262 -110t-95 -304q0 -202 95 -317t262 -115z" />
    <glyph glyph-name="vecyrillic" unicode="&#x432;" horiz-adv-x="1013" 
d="M546 966h-286v-353h265q112 0 171 47t59 135q0 82 -54.5 126.5t-154.5 44.5zM536 502h-276v-391h302q119 0 181.5 50t62.5 147t-69 145.5t-201 48.5zM129 0v1077h432q150 0 236.5 -72.5t86.5 -197.5q0 -88 -53 -155.5t-135 -84.5v-6q106 -12 173 -81t67 -174
q0 -144 -98.5 -225t-272.5 -81h-436z" />
    <glyph glyph-name="gecyrillic" unicode="&#x433;" horiz-adv-x="876" 
d="M812 966h-552v-966h-131v1077h683v-111z" />
    <glyph glyph-name="decyrillic" unicode="&#x434;" horiz-adv-x="1207" 
d="M868 111v855h-468q-2 -45 -17.5 -252.5t-19.5 -250.5q-21 -253 -97 -346v-6h602zM146 -285h-124v396h87q108 70 131 357q4 51 22 309t20 300h718v-966h174v-396h-124v285h-904v-285z" />
    <glyph glyph-name="iecyrillic" unicode="&#x435;" horiz-adv-x="1095" 
d="M553 972q-145 0 -238.5 -98.5t-102.5 -259.5h670q-2 161 -92.5 259.5t-236.5 98.5zM875 305h131q-24 -139 -146.5 -228t-296.5 -89q-224 0 -356 147.5t-132 400.5q0 251 131.5 402t348.5 151q212 0 338.5 -142.5t126.5 -382.5v-58h-808v-7q0 -182 96.5 -288t257.5 -106
q119 0 202 55t107 145z" />
    <glyph glyph-name="zhecyrillic" unicode="&#x436;" horiz-adv-x="1505" 
d="M955 565l524 -565h-174l-483 527h-6v-527h-131v527h-6l-483 -527h-170l521 562l-505 515h167l470 -485h6v485h131v-485h6l470 485h166z" />
    <glyph glyph-name="zecyrillic" unicode="&#x437;" horiz-adv-x="963" 
d="M481 -19q-174 0 -287.5 80.5t-131.5 213.5h134q18 -83 93 -132.5t192 -49.5q127 0 200 56.5t73 151.5q0 201 -278 201h-167v111h167q117 0 179.5 48.5t62.5 138.5q0 82 -61 132t-173 50t-183.5 -50t-87.5 -132h-129q20 133 126 214t274 81q171 0 267 -78t96 -209
q0 -88 -54.5 -154.5t-141.5 -85.5v-6q108 -20 170.5 -86t62.5 -168q0 -149 -110.5 -238t-292.5 -89z" />
    <glyph glyph-name="iicyrillic" unicode="&#x438;" horiz-adv-x="1130" 
d="M260 0h-131v1077h131v-871h6l605 871h131v-1077h-131v871h-6z" />
    <glyph glyph-name="iishortcyrillic" unicode="&#x439;" horiz-adv-x="1130" 
d="M275 1530h101q0 -90 54.5 -146.5t145.5 -56.5t145 56.5t54 146.5h101q0 -129 -82.5 -207.5t-217.5 -78.5q-136 0 -218.5 78.5t-82.5 207.5zM260 0h-131v1077h131v-871h6l605 871h131v-1077h-131v871h-6z" />
    <glyph glyph-name="kacyrillic" unicode="&#x43a;" horiz-adv-x="994" 
d="M400 565l569 -565h-175l-528 527h-6v-527h-131v1077h131v-485h6l515 485h168z" />
    <glyph glyph-name="elcyrillic" unicode="&#x43b;" horiz-adv-x="1105" 
d="M374 463q-9 -112 -25.5 -192t-48.5 -146.5t-85 -100t-128 -33.5q-33 0 -60 10v121q24 -8 54 -8q79 0 117 91t51 263q4 43 21.5 301.5t20.5 307.5h685v-1077h-131v966h-435q-3 -48 -17.5 -254.5t-18.5 -248.5z" />
    <glyph glyph-name="emcyrillic" unicode="&#x43c;" horiz-adv-x="1423" 
d="M260 0h-131v1077h157l426 -902h6l425 902h152v-1077h-132v837h-6l-394 -816h-103l-394 816h-6v-837z" />
    <glyph glyph-name="encyrillic" unicode="&#x43d;" horiz-adv-x="1117" 
d="M857 0v504h-597v-504h-131v1077h131v-462h597v462h131v-1077h-131z" />
    <glyph glyph-name="ocyrillic" unicode="&#x43e;" horiz-adv-x="1129" 
d="M564 -12q-222 0 -355.5 149.5t-133.5 401.5q0 251 133.5 400.5t355.5 149.5q223 0 356.5 -149.5t133.5 -400.5t-133.5 -401t-356.5 -150zM564 107q165 0 260 115.5t95 316.5t-95 316.5t-260 115.5q-164 0 -259 -115.5t-95 -316.5t95 -316.5t259 -115.5z" />
    <glyph glyph-name="pecyrillic" unicode="&#x43f;" horiz-adv-x="1107" 
d="M847 0v966h-587v-966h-131v1077h849v-1077h-131z" />
    <glyph glyph-name="ercyrillic" unicode="&#x440;" horiz-adv-x="1164" 
d="M630 1089q204 0 331.5 -152t127.5 -398t-126.5 -398.5t-330.5 -152.5q-127 0 -224.5 63.5t-143.5 170.5h-3v-579h-132v1434h125v-223h3q43 104 145 169.5t228 65.5zM607 107q156 0 251.5 118.5t95.5 312.5t-95.5 313.5t-251.5 119.5q-154 0 -250.5 -120.5t-96.5 -311.5
q0 -192 96.5 -312t250.5 -120z" />
    <glyph glyph-name="escyrillic" unicode="&#x441;" horiz-adv-x="1060" 
d="M995 759h-132q-26 95 -106.5 153.5t-199.5 58.5q-159 0 -255 -118t-96 -314q0 -199 96.5 -315.5t255.5 -116.5q116 0 196 53.5t109 149.5h132q-30 -145 -148.5 -233.5t-288.5 -88.5q-221 0 -353.5 148.5t-132.5 402.5q0 250 132.5 400t351.5 150q175 0 293.5 -94
t145.5 -236z" />
    <glyph glyph-name="tecyrillic" unicode="&#x442;" horiz-adv-x="947" 
d="M907 1077v-111h-368v-966h-131v966h-368v111h867z" />
    <glyph glyph-name="ucyrillic" unicode="&#x443;" horiz-adv-x="1006" 
d="M210 -381q-29 0 -66 7v114q28 -7 64 -7q74 0 118.5 41.5t82.5 145.5l26 73l-405 1084h142l330 -943h3l331 943h140l-423 -1136q-70 -189 -141 -255.5t-202 -66.5z" />
    <glyph glyph-name="efcyrillic" unicode="&#x444;" horiz-adv-x="1407" 
d="M640 99v877q-198 -5 -315 -122.5t-117 -316.5t117 -315.5t315 -122.5zM1199 538q0 199 -117 316t-314 122v-877q197 5 314 122.5t117 316.5zM640 -15q-257 5 -411 154t-154 398q0 250 154 399t411 154v350h128v-350q256 -5 410 -154t154 -398q0 -250 -154 -399t-410 -154
v-342h-128v342z" />
    <glyph glyph-name="hacyrillic" unicode="&#x445;" horiz-adv-x="970" 
d="M486 444h-4l-298 -444h-150l380 542l-376 535h150l299 -434h3l296 434h150l-377 -530l374 -547h-150z" />
    <glyph glyph-name="tsecyrillic" unicode="&#x446;" horiz-adv-x="1179" 
d="M1146 -285h-124v285h-893v1077h131v-966h580v966h131v-966h175v-396z" />
    <glyph glyph-name="checyrillic" unicode="&#x447;" horiz-adv-x="1043" 
d="M915 0h-131v513h-6q-118 -120 -304 -120q-176 0 -275 105.5t-99 280.5v298h131v-293q0 -127 66 -200t186 -73q110 0 187 46t114 103v417h131v-1077z" />
    <glyph glyph-name="shacyrillic" unicode="&#x448;" horiz-adv-x="1572" 
d="M129 0v1077h131v-966h461v966h131v-966h461v966h131v-1077h-1315z" />
    <glyph glyph-name="shchacyrillic" unicode="&#x449;" horiz-adv-x="1652" 
d="M1618 -285h-124v285h-1365v1077h131v-966h461v966h131v-966h461v966h131v-966h174v-396z" />
    <glyph glyph-name="hardsigncyrillic" unicode="&#x44a;" horiz-adv-x="1155" 
d="M695 0h-365v966h-290v111h421v-366h234q179 0 284.5 -96.5t105.5 -259.5t-105.5 -259t-284.5 -96zM695 599h-234v-488h234q118 0 188.5 66.5t70.5 177.5q0 112 -70.5 178t-188.5 66z" />
    <glyph glyph-name="yericyrillic" unicode="&#x44b;" horiz-adv-x="1304" 
d="M1044 0v1077h131v-1077h-131zM493 599h-233v-488h233q118 0 188.5 66.5t70.5 177.5q0 112 -70.5 178t-188.5 66zM129 0v1077h131v-366h233q178 0 284.5 -96.5t106.5 -259.5q0 -162 -106.5 -258.5t-284.5 -96.5h-364z" />
    <glyph glyph-name="softsigncyrillic" unicode="&#x44c;" horiz-adv-x="954" 
d="M493 599h-233v-488h233q118 0 188.5 66.5t70.5 177.5q0 112 -70.5 178t-188.5 66zM129 0v1077h131v-366h233q178 0 284.5 -96.5t106.5 -259.5q0 -162 -106.5 -258.5t-284.5 -96.5h-364z" />
    <glyph glyph-name="ereversedcyrillic" unicode="&#x44d;" horiz-adv-x="1064" 
d="M198 309q29 -95 109.5 -148.5t197.5 -53.5q153 0 247.5 107t100.5 290h-527v111h524q-16 164 -109 260t-235 96q-119 0 -200.5 -59t-107.5 -153h-132q27 141 146.5 235.5t294.5 94.5q219 0 350.5 -150t131.5 -400q0 -254 -131.5 -402.5t-352.5 -148.5q-170 0 -289.5 88.5
t-149.5 232.5h132z" />
    <glyph glyph-name="iucyrillic" unicode="&#x44e;" horiz-adv-x="1523" 
d="M968 -19q-213 0 -341 139.5t-138 383.5h-229v-504h-131v1077h131v-462h233q20 224 146 352t329 128q221 0 350.5 -149.5t129.5 -408.5q0 -257 -129.5 -406.5t-350.5 -149.5zM968 99q161 0 252.5 116.5t91.5 321.5q0 206 -91.5 322.5t-252.5 116.5t-252.5 -116.5
t-91.5 -322.5q0 -205 91.5 -321.5t252.5 -116.5z" />
    <glyph glyph-name="iacyrillic" unicode="&#x44f;" horiz-adv-x="992" 
d="M489 518h243v448h-243q-119 0 -189 -61.5t-70 -167.5q0 -98 71 -158.5t188 -60.5zM732 0v407h-229l-296 -407h-154l315 429q-126 26 -197.5 106.5t-71.5 198.5q0 159 105.5 251t284.5 92h374v-1077h-131z" />
    <glyph glyph-name="iocyrillic" unicode="&#x451;" horiz-adv-x="1095" 
d="M553 972q-145 0 -238.5 -98.5t-102.5 -259.5h670q-2 161 -92.5 259.5t-236.5 98.5zM875 305h131q-24 -139 -146.5 -228t-296.5 -89q-224 0 -356 147.5t-132 400.5q0 251 131.5 402t348.5 151q212 0 338.5 -142.5t126.5 -382.5v-58h-808v-7q0 -182 96.5 -288t257.5 -106
q119 0 202 55t107 145zM377 1259q-38 0 -65.5 27.5t-27.5 64.5q0 38 27.5 65.5t65.5 27.5t65.5 -27.5t27.5 -65.5t-27.5 -65t-65.5 -27zM733 1259q-38 0 -65.5 27t-27.5 65t27.5 65.5t65.5 27.5t65.5 -27.5t27.5 -65.5t-27.5 -65t-65.5 -27z" />
    <glyph glyph-name="djecyrillic" unicode="&#x452;" horiz-adv-x="1146" 
d="M278 876h4q45 102 136 157.5t219 55.5q176 0 281 -109t105 -290v-762q0 -155 -76 -225t-234 -70h-30v113h26q98 0 139.5 42.5t41.5 139.5v741q0 142 -76.5 222t-213.5 80q-146 0 -234 -94.5t-88 -248.5v-628h-132v1272h-122v97h122v137h132v-137h275v-97h-275v-396z" />
    <glyph glyph-name="gjecyrillic" unicode="&#x453;" horiz-adv-x="882" 
d="M503 1251h-117l220 301h153zM812 966h-552v-966h-131v1077h683v-111z" />
    <glyph glyph-name="ecyrillic" unicode="&#x454;" horiz-adv-x="1071" 
d="M869 309h133q-30 -145 -149 -233t-289 -88q-221 0 -353.5 148.5t-132.5 402.5q0 250 132.5 400t351.5 150q175 0 293.5 -94.5t145.5 -235.5h-132q-26 95 -106.5 153.5t-199.5 58.5q-143 0 -236.5 -96.5t-108.5 -259.5h524v-111h-528q6 -183 101.5 -290t248.5 -107
q117 0 196.5 53t108.5 149z" />
    <glyph glyph-name="dzecyrillic" unicode="&#x455;" horiz-adv-x="977" 
d="M107 787q0 133 109.5 217.5t277.5 84.5q163 0 271 -88t116 -227h-127q-10 92 -80.5 147.5t-183.5 55.5q-109 0 -180.5 -51t-71.5 -132q0 -65 48.5 -106t152.5 -67l165 -40q162 -41 230 -105.5t68 -179.5q0 -136 -116.5 -222t-298.5 -86q-172 0 -286.5 88.5t-125.5 226.5
h134q12 -93 88.5 -148.5t197.5 -55.5q122 0 197.5 51.5t75.5 136.5q0 69 -46 109.5t-155 67.5l-182 46q-140 35 -209 103t-69 174z" />
    <glyph glyph-name="icyrillic" unicode="&#x456;" horiz-adv-x="418" 
d="M143 0v1077h132v-1077h-132zM209 1290q-37 0 -63.5 26.5t-26.5 62.5q0 37 26.5 63.5t63.5 26.5t63 -26.5t26 -63.5q0 -36 -26 -62.5t-63 -26.5z" />
    <glyph glyph-name="yicyrillic" unicode="&#x457;" horiz-adv-x="410" 
d="M54 1290q-38 0 -64.5 27t-26.5 64t26.5 63.5t64.5 26.5t64.5 -26.5t26.5 -63.5t-26.5 -64t-64.5 -27zM355 1290q-37 0 -63.5 27t-26.5 64t26.5 63.5t63.5 26.5q38 0 64.5 -26t26.5 -64t-26.5 -64.5t-64.5 -26.5zM129 0v1077h132v-1077h-132z" />
    <glyph glyph-name="jecyrillic" unicode="&#x458;" horiz-adv-x="419" 
d="M271 1077v-1145q0 -156 -74.5 -227.5t-233.5 -71.5h-31v113h27q97 0 138.5 42t41.5 140v1149h132zM205 1290q-37 0 -63.5 26.5t-26.5 62.5q0 37 26.5 63.5t63.5 26.5t63 -26.5t26 -63.5q0 -36 -26 -62.5t-63 -26.5z" />
    <glyph glyph-name="ljecyrillic" unicode="&#x459;" horiz-adv-x="1673" 
d="M374 463q-9 -112 -25.5 -192t-48.5 -146.5t-85 -100t-128 -33.5q-33 0 -60 10v121q24 -8 54 -8q79 0 117 91t51 263q4 43 21.5 301.5t20.5 307.5h689v-366h233q179 0 284.5 -96.5t105.5 -259.5t-105.5 -259t-284.5 -96h-364v966h-439q-3 -48 -17.5 -254.5t-18.5 -248.5z
M1213 599h-233v-488h233q118 0 188.5 66.5t70.5 177.5q0 112 -70.5 178t-188.5 66z" />
    <glyph glyph-name="njecyrillic" unicode="&#x45a;" horiz-adv-x="1662" 
d="M1209 533h-241v-422h241q115 0 183.5 57.5t68.5 153.5q0 97 -68.5 154t-183.5 57zM837 0v532h-577v-532h-131v1077h131v-434h577v434h131v-433h241q176 0 279.5 -87t103.5 -235t-103.5 -235t-279.5 -87h-372z" />
    <glyph glyph-name="tshecyrillic" unicode="&#x45b;" horiz-adv-x="1146" 
d="M278 876h4q45 102 136 157.5t219 55.5q176 0 281 -109t105 -290v-690h-133v669q0 142 -76.5 222t-213.5 80q-146 0 -234 -94.5t-88 -248.5v-628h-132v1272h-122v97h122v137h132v-137h275v-97h-275v-396z" />
    <glyph glyph-name="kjecyrillic" unicode="&#x45c;" horiz-adv-x="994" 
d="M804 1552l-256 -301h-117l220 301h153zM400 565l569 -565h-175l-528 527h-6v-527h-131v1077h131v-485h6l515 485h168z" />
    <glyph glyph-name="ushortcyrillic" unicode="&#x45e;" horiz-adv-x="1006" 
d="M210 1530h101q0 -90 54.5 -146.5t145.5 -56.5t145 56.5t54 146.5h101q0 -129 -82.5 -207.5t-217.5 -78.5q-136 0 -218.5 78.5t-82.5 207.5zM210 -381q-29 0 -66 7v114q28 -7 64 -7q74 0 118.5 41.5t82.5 145.5l26 73l-405 1084h142l330 -943h3l331 943h140l-423 -1136
q-70 -189 -141 -255.5t-202 -66.5z" />
    <glyph glyph-name="dzhecyrillic" unicode="&#x45f;" horiz-adv-x="1107" 
d="M978 0h-362v-285h-125v285h-362v1077h131v-966h587v966h131v-1077z" />
    <glyph glyph-name="Geupturncyrillic" unicode="&#x490;" horiz-adv-x="1051" 
d="M282 1318v-1318h-137v1443h714v273h128v-398h-705z" />
    <glyph glyph-name="geupturncyrillic" unicode="&#x491;" horiz-adv-x="876" 
d="M812 966h-552v-966h-131v1077h559v274h124v-385z" />
    <glyph glyph-name="baht" unicode="&#xe3f;" horiz-adv-x="1219" 
d="M590 688v-567q179 1 273.5 74t94.5 211q0 133 -94.5 205.5t-273.5 76.5zM258 121h228v567h-228v-567zM258 1322v-515h228v515h-228zM590 1322v-513q143 11 219.5 76t76.5 180q0 117 -78.5 184.5t-217.5 72.5zM759 769v-13q153 -17 246 -113.5t93 -243.5
q0 -189 -129.5 -294t-363.5 -105h-15v-150h-104v150h-365v1443h365v156h104v-156h4q199 0 314.5 -96t115.5 -260q0 -121 -74.5 -209.5t-190.5 -108.5z" />
    <glyph glyph-name="Aringbelow" unicode="&#x1e00;" horiz-adv-x="1262" 
d="M1094 0l-160 442h-606l-160 -442h-145l540 1443h136l539 -1443h-144zM628 1274l-259 -714h524l-259 714h-6zM631 -529q-77 0 -132 55.5t-55 132.5t55 132.5t132 55.5t132.5 -55.5t55.5 -132.5t-55.5 -132.5t-132.5 -55.5zM631 -461q50 0 85 35t35 85t-35 85t-85 35
q-49 0 -84 -35t-35 -85t35 -85t84 -35z" />
    <glyph glyph-name="aringbelow" unicode="&#x1e01;" horiz-adv-x="1048" 
d="M463 104q145 0 242.5 86.5t97.5 214.5v119l-315 -22q-136 -9 -206.5 -60.5t-70.5 -142.5q0 -87 70 -141t182 -54zM437 -12q-161 0 -261 86.5t-100 225.5q0 138 101 216.5t295 92.5l331 22v92q0 118 -71.5 183t-201.5 65q-113 0 -187 -54.5t-92 -150.5h-127
q8 142 122.5 232.5t284.5 90.5q185 0 294.5 -96t109.5 -259v-734h-126v206h-3q-44 -98 -144.5 -158t-224.5 -60zM514 -529q-77 0 -132 55.5t-55 132.5t55 132.5t132 55.5t132.5 -55.5t55.5 -132.5t-55.5 -132.5t-132.5 -55.5zM514 -461q50 0 85 35t35 85t-35 85t-85 35
q-49 0 -84 -35t-35 -85t35 -85t84 -35z" />
    <glyph glyph-name="Bdotaccent" unicode="&#x1e02;" horiz-adv-x="1217" 
d="M542 1575q-42 0 -72 30t-30 72t30 72t72 30t72 -30t30 -72t-30 -72t-72 -30zM669 0h-534v1443h531q186 0 301.5 -98t115.5 -258q0 -120 -74.5 -212t-189.5 -113v-7q152 -18 245 -114.5t93 -244.5q0 -185 -130 -290.5t-358 -105.5zM271 1322v-520h326q164 0 256 71.5
t92 198.5q0 118 -82 184t-226 66h-366zM271 121h380q176 0 271 73.5t95 208.5t-99.5 208t-285.5 73h-361v-563z" />
    <glyph glyph-name="bdotaccent" unicode="&#x1e03;" horiz-adv-x="1154" 
d="M195 1638q-42 0 -72 30t-30 72t30 72t72 30t72 -30t30 -72t-30 -72t-72 -30zM632 -12q-129 0 -227.5 63.5t-146.5 176.5h-3v-228h-126v1506h132v-650h3q47 109 145 171t225 62q203 0 329 -152t126 -398q0 -247 -126.5 -399t-330.5 -152zM610 971q-155 0 -252.5 -121
t-97.5 -312t97.5 -311t251.5 -120q155 0 250 118.5t95 313.5q0 194 -94.5 313t-249.5 119z" />
    <glyph glyph-name="Bdotbelow" unicode="&#x1e04;" horiz-adv-x="1217" 
d="M542 -351q-42 0 -72 30t-30 72t30 72t72 30t72 -30t30 -72t-30 -72t-72 -30zM669 0h-534v1443h531q186 0 301.5 -98t115.5 -258q0 -120 -74.5 -212t-189.5 -113v-7q152 -18 245 -114.5t93 -244.5q0 -185 -130 -290.5t-358 -105.5zM271 1322v-520h326q164 0 256 71.5
t92 198.5q0 118 -82 184t-226 66h-366zM271 121h380q176 0 271 73.5t95 208.5t-99.5 208t-285.5 73h-361v-563z" />
    <glyph glyph-name="bdotbelow" unicode="&#x1e05;" horiz-adv-x="1154" 
d="M610 -351q-42 0 -72 30t-30 72t30 72t72 30t72 -30t30 -72t-30 -72t-72 -30zM632 -12q-129 0 -227.5 63.5t-146.5 176.5h-3v-228h-126v1506h132v-650h3q47 109 145 171t225 62q203 0 329 -152t126 -398q0 -247 -126.5 -399t-330.5 -152zM610 971q-155 0 -252.5 -121
t-97.5 -312t97.5 -311t251.5 -120q155 0 250 118.5t95 313.5q0 194 -94.5 313t-249.5 119z" />
    <glyph glyph-name="Blinebelow" unicode="&#x1e06;" horiz-adv-x="1217" 
d="M669 0h-534v1443h531q186 0 301.5 -98t115.5 -258q0 -120 -74.5 -212t-189.5 -113v-7q152 -18 245 -114.5t93 -244.5q0 -185 -130 -290.5t-358 -105.5zM271 1322v-520h326q164 0 256 71.5t92 198.5q0 118 -82 184t-226 66h-366zM271 121h380q176 0 271 73.5t95 208.5
t-99.5 208t-285.5 73h-361v-563zM847 -214v-85h-610v85h610z" />
    <glyph glyph-name="blinebelow" unicode="&#x1e07;" horiz-adv-x="1154" 
d="M915 -214v-85h-610v85h610zM632 -12q-129 0 -227.5 63.5t-146.5 176.5h-3v-228h-126v1506h132v-650h3q47 109 145 171t225 62q203 0 329 -152t126 -398q0 -247 -126.5 -399t-330.5 -152zM610 971q-155 0 -252.5 -121t-97.5 -312t97.5 -311t251.5 -120q155 0 250 118.5
t95 313.5q0 194 -94.5 313t-249.5 119z" />
    <glyph glyph-name="Ccedillaacute" unicode="&#x1e08;" horiz-adv-x="1371" 
d="M1066 1847l-289 -295h-117l252 295h154zM1305 985h-137q-30 156 -155 255t-293 99q-230 0 -366.5 -166.5t-136.5 -447.5q0 -285 136.5 -453t367.5 -168q173 0 294 87t153 236h137q-37 -200 -180 -318.5t-360 -130.5l-46 -119q101 0 154.5 -39.5t53.5 -112.5
q0 -76 -61.5 -124.5t-156.5 -49.5q-84 0 -139 17v80q41 -16 122 -16q63 0 100 24.5t37 65.5q0 82 -155 82h-53v60l53 132q-275 17 -436 217.5t-161 529.5q0 339 174.5 540t468.5 201q151 0 277.5 -61t207.5 -171t100 -249z" />
    <glyph glyph-name="ccedillaacute" unicode="&#x1e09;" horiz-adv-x="1046" 
d="M856 1552l-256 -301h-117l220 301h153zM862 332h131q-22 -143 -128 -236t-265 -106l-50 -131q101 0 154.5 -39.5t53.5 -112.5q0 -76 -61.5 -124.5t-156.5 -49.5q-84 0 -139 17v80q41 -16 122 -16q63 0 100 24.5t37 65.5q0 82 -155 82h-53v60l58 143q-204 14 -324.5 161.5
t-120.5 388.5q0 250 132.5 400t351.5 150q182 0 302.5 -101t140.5 -250h-131q-20 103 -103 168t-208 65q-158 0 -254 -118t-96 -314q0 -199 96 -315.5t255 -116.5q124 0 206 59.5t105 165.5z" />
    <glyph glyph-name="Ddotaccent" unicode="&#x1e0a;" horiz-adv-x="1370" 
d="M551 1575q-42 0 -72 30t-30 72t30 72t72 30t72 -30t30 -72t-30 -72t-72 -30zM135 1443h475q324 0 504 -189.5t180 -531.5q0 -343 -179.5 -532.5t-504.5 -189.5h-475v1443zM272 1319v-1195h330q266 0 409.5 155t143.5 442q0 288 -143.5 443t-409.5 155h-330z" />
    <glyph glyph-name="ddotaccent" unicode="&#x1e0b;" horiz-adv-x="1157" 
d="M962 1638q-42 0 -72 30t-30 72t30 72t72 30t72 -30t30 -72t-30 -72t-72 -30zM526 -12q-203 0 -332 152.5t-129 398.5q0 245 128 397.5t330 152.5q128 0 227 -63.5t143 -169.5h3v650h133v-1506h-126v229h-3q-47 -111 -146 -176t-228 -65zM547 971q-155 0 -251 -119
t-96 -313t96 -313t251 -119t252.5 120t97.5 312q0 191 -97.5 311.5t-252.5 120.5z" />
    <glyph glyph-name="Ddotbelow" unicode="&#x1e0c;" horiz-adv-x="1370" 
d="M551 -351q-42 0 -72 30t-30 72t30 72t72 30t72 -30t30 -72t-30 -72t-72 -30zM135 1443h475q324 0 504 -189.5t180 -531.5q0 -343 -179.5 -532.5t-504.5 -189.5h-475v1443zM272 1319v-1195h330q266 0 409.5 155t143.5 442q0 288 -143.5 443t-409.5 155h-330z" />
    <glyph glyph-name="ddotbelow" unicode="&#x1e0d;" horiz-adv-x="1157" 
d="M535 -351q-42 0 -72 30t-30 72t30 72t72 30t72 -30t30 -72t-30 -72t-72 -30zM526 -12q-203 0 -332 152.5t-129 398.5q0 245 128 397.5t330 152.5q128 0 227 -63.5t143 -169.5h3v650h133v-1506h-126v229h-3q-47 -111 -146 -176t-228 -65zM547 971q-155 0 -251 -119
t-96 -313t96 -313t251 -119t252.5 120t97.5 312q0 191 -97.5 311.5t-252.5 120.5z" />
    <glyph glyph-name="Dlinebelow" unicode="&#x1e0e;" horiz-adv-x="1370" 
d="M856 -214v-85h-610v85h610zM135 1443h475q324 0 504 -189.5t180 -531.5q0 -343 -179.5 -532.5t-504.5 -189.5h-475v1443zM272 1319v-1195h330q266 0 409.5 155t143.5 442q0 288 -143.5 443t-409.5 155h-330z" />
    <glyph glyph-name="dlinebelow" unicode="&#x1e0f;" horiz-adv-x="1157" 
d="M840 -214v-85h-610v85h610zM526 -12q-203 0 -332 152.5t-129 398.5q0 245 128 397.5t330 152.5q128 0 227 -63.5t143 -169.5h3v650h133v-1506h-126v229h-3q-47 -111 -146 -176t-228 -65zM547 971q-155 0 -251 -119t-96 -313t96 -313t251 -119t252.5 120t97.5 312
q0 191 -97.5 311.5t-252.5 120.5z" />
    <glyph glyph-name="Dcommaaccent" unicode="&#x1e10;" horiz-adv-x="1370" 
d="M518 -520h-100l95 358h121zM135 1443h475q324 0 504 -189.5t180 -531.5q0 -343 -179.5 -532.5t-504.5 -189.5h-475v1443zM272 1319v-1195h330q266 0 409.5 155t143.5 442q0 288 -143.5 443t-409.5 155h-330z" />
    <glyph glyph-name="dcommaaccent" unicode="&#x1e11;" horiz-adv-x="1157" 
d="M502 -520h-100l95 358h121zM526 -12q-203 0 -332 152.5t-129 398.5q0 245 128 397.5t330 152.5q128 0 227 -63.5t143 -169.5h3v650h133v-1506h-126v229h-3q-47 -111 -146 -176t-228 -65zM547 971q-155 0 -251 -119t-96 -313t96 -313t251 -119t252.5 120t97.5 312
q0 191 -97.5 311.5t-252.5 120.5z" />
    <glyph glyph-name="Dcircumflexbelow" unicode="&#x1e12;" horiz-adv-x="1370" 
d="M135 1443h475q324 0 504 -189.5t180 -531.5q0 -343 -179.5 -532.5t-504.5 -189.5h-475v1443zM272 1319v-1195h330q266 0 409.5 155t143.5 442q0 288 -143.5 443t-409.5 155h-330zM496 -158h110l283 -295h-131l-206 217h-2l-206 -217h-131z" />
    <glyph glyph-name="dcircumflexbelow" unicode="&#x1e13;" horiz-adv-x="1157" 
d="M526 -12q-203 0 -332 152.5t-129 398.5q0 245 128 397.5t330 152.5q128 0 227 -63.5t143 -169.5h3v650h133v-1506h-126v229h-3q-47 -111 -146 -176t-228 -65zM547 971q-155 0 -251 -119t-96 -313t96 -313t251 -119t252.5 120t97.5 312q0 191 -97.5 311.5t-252.5 120.5z
M480 -158h110l283 -295h-131l-206 217h-2l-206 -217h-131z" />
    <glyph glyph-name="Emacrongrave" unicode="&#x1e14;" horiz-adv-x="1104" 
d="M265 1633v85h610v-85h-610zM630 1818h-109l-231 203h145zM1006 124v-124h-871v1443h871v-124h-735v-519h698v-122h-698v-554h735z" />
    <glyph glyph-name="emacrongrave" unicode="&#x1e15;" horiz-adv-x="1075" 
d="M543 972q-145 0 -238.5 -98.5t-102.5 -259.5h670q-2 161 -92.5 259.5t-236.5 98.5zM865 305h131q-24 -139 -146.5 -228t-296.5 -89q-224 0 -356 147.5t-132 400.5q0 251 131.5 402t348.5 151q212 0 338.5 -142.5t126.5 -382.5v-58h-808v-7q0 -182 96.5 -288t257.5 -106
q119 0 202 55t107 145zM612 1563h-117l-218 274h145zM852 1400v-85h-618v85h618z" />
    <glyph glyph-name="Emacronacute" unicode="&#x1e16;" horiz-adv-x="1104" 
d="M875 1633h-610v85h610v-85zM510 1818l195 203h145l-231 -203h-109zM1006 124v-124h-871v1443h871v-124h-735v-519h698v-122h-698v-554h735z" />
    <glyph glyph-name="emacronacute" unicode="&#x1e17;" horiz-adv-x="1075" 
d="M543 972q-145 0 -238.5 -98.5t-102.5 -259.5h670q-2 161 -92.5 259.5t-236.5 98.5zM865 305h131q-24 -139 -146.5 -228t-296.5 -89q-224 0 -356 147.5t-132 400.5q0 251 131.5 402t348.5 151q212 0 338.5 -142.5t126.5 -382.5v-58h-808v-7q0 -182 96.5 -288t257.5 -106
q119 0 202 55t107 145zM478 1563l190 274h145l-218 -274h-117zM852 1400v-85h-618v85h618z" />
    <glyph glyph-name="Ecircumflexbelow" unicode="&#x1e18;" horiz-adv-x="1104" 
d="M1006 124v-124h-871v1443h871v-124h-735v-519h698v-122h-698v-554h735zM515 -158h110l283 -295h-131l-206 217h-2l-206 -217h-131z" />
    <glyph glyph-name="ecircumflexbelow" unicode="&#x1e19;" horiz-adv-x="1075" 
d="M543 972q-145 0 -238.5 -98.5t-102.5 -259.5h670q-2 161 -92.5 259.5t-236.5 98.5zM865 305h131q-24 -139 -146.5 -228t-296.5 -89q-224 0 -356 147.5t-132 400.5q0 251 131.5 402t348.5 151q212 0 338.5 -142.5t126.5 -382.5v-58h-808v-7q0 -182 96.5 -288t257.5 -106
q119 0 202 55t107 145zM498 -158h110l283 -295h-131l-206 217h-2l-206 -217h-131z" />
    <glyph glyph-name="Etildebelow" unicode="&#x1e1a;" horiz-adv-x="1104" 
d="M701 -394q-36 0 -67.5 16t-54.5 39t-44 46.5t-44.5 39.5t-47.5 16q-38 0 -58 -38t-20 -106h-91q0 109 43.5 171.5t122.5 62.5q46 0 86 -24.5t64 -54t54 -54t57 -24.5q73 0 73 144h91q0 -107 -43.5 -170.5t-120.5 -63.5zM1006 124v-124h-871v1443h871v-124h-735v-519h698
v-122h-698v-554h735z" />
    <glyph glyph-name="etildebelow" unicode="&#x1e1b;" horiz-adv-x="1075" 
d="M684 -394q-36 0 -67.5 16t-54.5 39t-44 46.5t-44.5 39.5t-47.5 16q-38 0 -58 -38t-20 -106h-91q0 109 43.5 171.5t122.5 62.5q46 0 86 -24.5t64 -54t54 -54t57 -24.5q73 0 73 144h91q0 -107 -43.5 -170.5t-120.5 -63.5zM543 972q-145 0 -238.5 -98.5t-102.5 -259.5h670
q-2 161 -92.5 259.5t-236.5 98.5zM865 305h131q-24 -139 -146.5 -228t-296.5 -89q-224 0 -356 147.5t-132 400.5q0 251 131.5 402t348.5 151q212 0 338.5 -142.5t126.5 -382.5v-58h-808v-7q0 -182 96.5 -288t257.5 -106q119 0 202 55t107 145z" />
    <glyph glyph-name="Ecedillabreve" unicode="&#x1e1c;" horiz-adv-x="1104" 
d="M768 1823h94q0 -121 -81.5 -196.5t-210.5 -75.5t-210.5 75.5t-81.5 196.5h94q0 -80 56 -134.5t142 -54.5t142 54.5t56 134.5zM1006 1319h-735v-519h698v-122h-698v-554h735v-124h-383l-54 -141q101 0 154.5 -39.5t53.5 -112.5q0 -76 -61.5 -124.5t-156.5 -49.5
q-84 0 -139 17v80q41 -16 122 -16q63 0 100 24.5t37 65.5q0 82 -155 82h-53v60l62 154h-398v1443h871v-124z" />
    <glyph glyph-name="ecedillabreve" unicode="&#x1e1d;" horiz-adv-x="1075" 
d="M748 1530h97q0 -129 -83.5 -207.5t-217.5 -78.5t-217.5 78.5t-83.5 207.5h97q0 -86 58 -143t146 -57t146 57t58 143zM202 614h670q-2 161 -92.5 259.5t-236.5 98.5q-145 0 -238.5 -98.5t-102.5 -259.5zM1010 506h-808v-7q0 -182 96.5 -288t257.5 -106q119 0 202 55
t107 145h131q-23 -129 -130 -215.5t-264 -99.5l-50 -131q101 0 154.5 -39.5t53.5 -112.5q0 -76 -61.5 -124.5t-156.5 -49.5q-84 0 -139 17v80q41 -16 122 -16q63 0 100 24.5t37 65.5q0 82 -155 82h-53v60l58 143q-207 14 -327 160t-120 387q0 251 131.5 402t348.5 151
q212 0 338.5 -142.5t126.5 -382.5v-58z" />
    <glyph glyph-name="Fdotaccent" unicode="&#x1e1e;" horiz-adv-x="1061" 
d="M563 1575q-42 0 -72 30t-30 72t30 72t72 30t72 -30t30 -72t-30 -72t-72 -30zM271 0h-136v1443h856v-124h-720v-542h662v-122h-662v-655z" />
    <glyph glyph-name="fdotaccent" unicode="&#x1e1f;" horiz-adv-x="589" 
d="M346 1597q-42 0 -72 30t-30 72t30 72t72 30t72 -30t30 -72t-30 -72t-72 -30zM173 0v966h-150v111h150v123q0 141 65.5 206.5t200.5 65.5q49 0 89 -9v-111q-35 8 -78 8q-73 0 -108 -38t-36 -124v-121h219v-111h-219v-966h-133z" />
    <glyph glyph-name="Gmacron" unicode="&#x1e20;" horiz-adv-x="1409" 
d="M1324 586q0 -286 -159 -447.5t-440 -161.5q-293 0 -470.5 206t-177.5 547q0 335 176.5 535.5t471.5 200.5q227 0 388 -125t202 -332h-142q-44 154 -163.5 242t-284.5 88q-235 0 -371.5 -163.5t-136.5 -445.5q0 -286 138 -456t370 -170q209 0 336 123t127 327v51h-448v120
h584v-139zM1030 1718v-85h-610v85h610z" />
    <glyph glyph-name="gmacron" unicode="&#x1e21;" horiz-adv-x="1144" 
d="M863 1400v-85h-618v85h618zM543 114q156 0 253 118.5t97 308.5q0 191 -97 310.5t-253 119.5q-154 0 -248.5 -118t-94.5 -312q0 -193 94 -310t249 -117zM552 -375q-178 0 -296 76t-138 200h138q20 -73 102 -116.5t202 -43.5q151 0 242 72.5t91 196.5v219h-3
q-46 -106 -144.5 -170t-225.5 -64q-203 0 -329 151t-126 395q0 247 126 397.5t332 150.5q127 0 226.5 -64t147.5 -171h2v223h126v-1057q0 -184 -128 -289.5t-345 -105.5z" />
    <glyph glyph-name="Hdotaccent" unicode="&#x1e22;" horiz-adv-x="1387" 
d="M1252 0h-137v677h-844v-677h-136v1443h136v-642h844v642h137v-1443zM693 1575q-42 0 -72 30t-30 72t30 72t72 30t72 -30t30 -72t-30 -72t-72 -30z" />
    <glyph glyph-name="hdotaccent" unicode="&#x1e23;" horiz-adv-x="1118" 
d="M129 0v1506h132v-630h3q46 102 137 157.5t219 55.5q176 0 280.5 -109t104.5 -290v-690h-132v669q0 142 -76.5 222t-213.5 80q-146 0 -234 -94.5t-88 -248.5v-628h-132zM196 1638q-42 0 -72 30t-30 72t30 72t72 30t72 -30t30 -72t-30 -72t-72 -30z" />
    <glyph glyph-name="Hdotbelow" unicode="&#x1e24;" horiz-adv-x="1387" 
d="M1252 0h-137v677h-844v-677h-136v1443h136v-642h844v642h137v-1443zM693 -351q-42 0 -72 30t-30 72t30 72t72 30t72 -30t30 -72t-30 -72t-72 -30z" />
    <glyph glyph-name="hdotbelow" unicode="&#x1e25;" horiz-adv-x="1118" 
d="M129 0v1506h132v-630h3q46 102 137 157.5t219 55.5q176 0 280.5 -109t104.5 -290v-690h-132v669q0 142 -76.5 222t-213.5 80q-146 0 -234 -94.5t-88 -248.5v-628h-132zM568 -351q-42 0 -72 30t-30 72t30 72t72 30t72 -30t30 -72t-30 -72t-72 -30z" />
    <glyph glyph-name="Hdieresis" unicode="&#x1e26;" horiz-adv-x="1387" 
d="M1252 0h-137v677h-844v-677h-136v1443h136v-642h844v642h137v-1443zM515 1576q-38 0 -65.5 27.5t-27.5 64.5q0 38 27.5 65.5t65.5 27.5t65.5 -27.5t27.5 -65.5t-27.5 -65t-65.5 -27zM871 1576q-38 0 -65.5 27t-27.5 65t27.5 65.5t65.5 27.5t65.5 -27.5t27.5 -65.5
t-27.5 -65t-65.5 -27z" />
    <glyph glyph-name="hdieresis" unicode="&#x1e27;" horiz-adv-x="1118" 
d="M129 0v1506h132v-630h3q46 102 137 157.5t219 55.5q176 0 280.5 -109t104.5 -290v-690h-132v669q0 142 -76.5 222t-213.5 80q-146 0 -234 -94.5t-88 -248.5v-628h-132zM18 1639q-38 0 -65.5 27.5t-27.5 64.5q0 38 27.5 65.5t65.5 27.5t65.5 -27.5t27.5 -65.5t-27.5 -65
t-65.5 -27zM374 1639q-38 0 -65.5 27t-27.5 65t27.5 65.5t65.5 27.5t65.5 -27.5t27.5 -65.5t-27.5 -65t-65.5 -27z" />
    <glyph glyph-name="Hcedilla" unicode="&#x1e28;" horiz-adv-x="1387" 
d="M1115 1443h137v-1443h-137v677h-844v-677h-15l-54 -141q101 0 154.5 -39.5t53.5 -112.5q0 -76 -61.5 -124.5t-156.5 -49.5q-84 0 -139 17v80q41 -16 122 -16q63 0 100 24.5t37 65.5q0 82 -155 82h-53v60l62 154h-31v1443h136v-642h844v642z" />
    <glyph glyph-name="hcedilla" unicode="&#x1e29;" horiz-adv-x="1118" 
d="M261 876h3q46 102 137 157.5t219 55.5q176 0 280.5 -109t104.5 -290v-690h-132v669q0 142 -76.5 222t-213.5 80q-146 0 -234 -94.5t-88 -248.5v-628h-12l-54 -141q101 0 154.5 -39.5t53.5 -112.5q0 -76 -61.5 -124.5t-156.5 -49.5q-84 0 -139 17v80q41 -16 122 -16
q63 0 100 24.5t37 65.5q0 82 -155 82h-53v60l62 154h-30v1506h132v-630z" />
    <glyph glyph-name="Hbrevebelow" unicode="&#x1e2a;" horiz-adv-x="1387" 
d="M401 -179h94q0 -80 56 -134.5t142 -54.5t142 54.5t56 134.5h94q0 -121 -81.5 -196.5t-210.5 -75.5t-210.5 75.5t-81.5 196.5zM1252 0h-137v677h-844v-677h-136v1443h136v-642h844v642h137v-1443z" />
    <glyph glyph-name="hbrevebelow" unicode="&#x1e2b;" horiz-adv-x="1118" 
d="M276 -179h94q0 -80 56 -134.5t142 -54.5t142 54.5t56 134.5h94q0 -121 -81.5 -196.5t-210.5 -75.5t-210.5 75.5t-81.5 196.5zM129 0v1506h132v-630h3q46 102 137 157.5t219 55.5q176 0 280.5 -109t104.5 -290v-690h-132v669q0 142 -76.5 222t-213.5 80q-146 0 -234 -94.5
t-88 -248.5v-628h-132z" />
    <glyph glyph-name="Itildebelow" unicode="&#x1e2c;" horiz-adv-x="406" 
d="M271 0h-136v1443h136v-1443zM334 -394q-36 0 -67.5 16t-54.5 39t-44 46.5t-44.5 39.5t-47.5 16q-38 0 -58 -38t-20 -106h-91q0 109 43.5 171.5t122.5 62.5q46 0 86 -24.5t64 -54t54 -54t57 -24.5q73 0 73 144h91q0 -107 -43.5 -170.5t-120.5 -63.5z" />
    <glyph glyph-name="itildebelow" unicode="&#x1e2d;" horiz-adv-x="390" 
d="M129 0v1077h132v-1077h-132zM195 1290q-37 0 -63.5 26.5t-26.5 62.5q0 37 26.5 63.5t63.5 26.5t63 -26.5t26 -63.5q0 -36 -26 -62.5t-63 -26.5zM326 -394q-36 0 -67.5 16t-54.5 39t-44 46.5t-44.5 39.5t-47.5 16q-38 0 -58 -38t-20 -106h-91q0 109 43.5 171.5t122.5 62.5
q46 0 86 -24.5t64 -54t54 -54t57 -24.5q73 0 73 144h91q0 -107 -43.5 -170.5t-120.5 -63.5z" />
    <glyph glyph-name="Idieresisacute" unicode="&#x1e2e;" horiz-adv-x="406" 
d="M271 0h-136v1443h136v-1443zM143 1818l195 203h145l-231 -203h-109zM33 1580q-35 0 -59.5 24.5t-24.5 59.5q0 34 24.5 58.5t59.5 24.5q34 0 58.5 -24.5t24.5 -58.5q0 -35 -24.5 -59.5t-58.5 -24.5zM373 1580q-34 0 -58.5 24.5t-24.5 59.5q0 34 24.5 58.5t58.5 24.5
q35 0 59.5 -24.5t24.5 -58.5q0 -35 -24.5 -59.5t-59.5 -24.5z" />
    <glyph glyph-name="idieresisacute" unicode="&#x1e2f;" horiz-adv-x="390" 
d="M132 1565l187 269h148l-217 -269h-118zM17 1259q-38 0 -65.5 27.5t-27.5 64.5q0 38 27.5 65.5t65.5 27.5t65.5 -27.5t27.5 -65.5t-27.5 -65t-65.5 -27zM373 1259q-38 0 -65.5 27t-27.5 65t27.5 65.5t65.5 27.5t65.5 -27.5t27.5 -65.5t-27.5 -65t-65.5 -27zM129 0v1077
h132v-1077h-132z" />
    <glyph glyph-name="Kacute" unicode="&#x1e30;" horiz-adv-x="1209" 
d="M638 1551h-117l252 295h154zM271 0h-136v1443h136v-748h8l686 748h173l-593 -638l652 -805h-175l-573 708l-178 -193v-515z" />
    <glyph glyph-name="kacute" unicode="&#x1e31;" horiz-adv-x="988" 
d="M252 1614h-117l252 295h154zM262 565l537 512h164l-486 -465l496 -612h-156l-434 531l-122 -111v-420h-132v1506h132v-941h1z" />
    </font>
</defs>
</svg>
