<?xml version="1.0" standalone="no"?>
<!DOCTYPE svg PUBLIC "-//W3C//DTD SVG 1.1//EN" "http://www.w3.org/Graphics/SVG/1.1/DTD/svg11.dtd" >
<svg>
<metadata>
Created by FontForge 20090622 at Thu Jul 26 14:22:42 2018
 By deploy user
&#194;&#169; 2015 Apple Inc. All rights reserved.
</metadata>
<defs>
<font id="SFUIDisplay-Medium" horiz-adv-x="0" >
  <font-face 
    font-family="SF UI Display"
    font-weight="500"
    font-stretch="normal"
    units-per-em="2048"
    panose-1="0 0 6 0 0 0 0 0 0 0"
    ascent="1638"
    descent="-410"
    x-height="1086"
    cap-height="1443"
    bbox="-544 -898 2592 2144"
    underline-thickness="145"
    underline-position="-227"
    unicode-range="U+0020-U+FB02"
  />
<missing-glyph horiz-adv-x="2048" 
d="M100 -494v256h1848v-256h-1848zM100 -56v256h1848v-256h-1848zM100 381v256h1848v-256h-1848zM100 819v256h1848v-256h-1848zM100 1256v256h1848v-256h-1848zM100 1694v256h1848v-256h-1848z" />
    <glyph glyph-name=".notdef" horiz-adv-x="2048" 
d="M100 -494v256h1848v-256h-1848zM100 -56v256h1848v-256h-1848zM100 381v256h1848v-256h-1848zM100 819v256h1848v-256h-1848zM100 1256v256h1848v-256h-1848zM100 1694v256h1848v-256h-1848z" />
    <glyph glyph-name=".null" 
 />
    <glyph glyph-name="nonmarkingreturn" 
 />
    <glyph glyph-name="space" unicode=" " horiz-adv-x="472" 
 />
    <glyph glyph-name="exclam" unicode="!" horiz-adv-x="583" 
d="M180 1443h223l-16 -965h-191zM291 -15q-55 0 -93 37t-38 92t38 92t93 37q56 0 94 -37t38 -92t-38 -92t-94 -37z" />
    <glyph glyph-name="quotedbl" unicode="&#x22;" horiz-adv-x="851" 
d="M318 915h-193v528h193v-528zM725 915h-192v528h192v-528z" />
    <glyph glyph-name="numbersign" unicode="#" horiz-adv-x="1229" 
d="M1195 887h-229l-64 -314h216l-33 -170h-217l-81 -403h-172l82 403h-282l-81 -403h-171l81 403h-212l32 170h215l63 314h-203l34 168h203l80 388h171l-78 -388h280l80 388h171l-79 -388h226zM509 894l-67 -330h293l67 330h-293z" />
    <glyph glyph-name="dollar" unicode="$" horiz-adv-x="1270" 
d="M707 -137h-137v132q-214 14 -341 123.5t-128 282.5h212q8 -92 76 -152t181 -73v473l-89 23q-168 42 -257.5 140.5t-89.5 243.5q0 171 116 278.5t320 126.5v139h137v-139q195 -16 313.5 -125.5t123.5 -275.5h-209q-3 85 -66 145.5t-162 73.5v-447l93 -21
q187 -47 278 -143.5t91 -251.5q0 -182 -121 -292t-341 -128v-133zM957 396q0 89 -60.5 144.5t-189.5 82.5v-450q119 7 184.5 65.5t65.5 157.5zM348 1071q0 -81 57 -134t165 -76v418q-96 -5 -159 -63.5t-63 -144.5z" />
    <glyph glyph-name="percent" unicode="%" horiz-adv-x="1549" 
d="M1500 347q0 -166 -84.5 -265.5t-226.5 -99.5q-143 0 -228 99.5t-85 265.5t85 265t228 99q142 0 226.5 -98.5t84.5 -265.5zM1189 123q59 0 93.5 60t34.5 164q0 105 -33.5 163.5t-94.5 58.5q-60 0 -95 -59.5t-35 -162.5t35 -163.5t95 -60.5zM672 1105q0 -166 -84.5 -265.5
t-226.5 -99.5q-143 0 -228 99.5t-85 265.5t85 265t228 99q142 0 226.5 -98.5t84.5 -265.5zM361 881q59 0 93.5 60t34.5 164q0 105 -33.5 163.5t-94.5 58.5q-60 0 -95 -59.5t-35 -162.5t35 -163.5t95 -60.5zM345 0h-204l1055 1443h202z" />
    <glyph glyph-name="ampersand" unicode="&#x26;" horiz-adv-x="1394" 
d="M1149 0l-125 136q-88 -77 -207.5 -119t-248.5 -42q-220 0 -355.5 112.5t-135.5 294.5q0 125 68 221.5t209 172.5l23.5 12.5l23.5 12t12 5.5q-98 103 -138.5 179t-40.5 155q0 140 108.5 232.5t271.5 92.5q166 0 272 -91t106 -234q0 -110 -71.5 -198t-231.5 -173l328 -353
q62 115 62 343v55h194v-61q0 -301 -120 -480l259 -273h-263zM477 659q-100 -62 -144 -123t-44 -138q0 -112 83 -181t217 -69q90 0 175 33t137 88l-379 414q-18 -9 -45 -24zM579 882q118 61 168 117.5t50 129.5q0 78 -50.5 127t-131.5 49q-79 0 -130.5 -50t-51.5 -127
q0 -56 33 -111t113 -135z" />
    <glyph glyph-name="quotesingle" unicode="'" horiz-adv-x="443" 
d="M318 915h-193v528h193v-528z" />
    <glyph glyph-name="parenleft" unicode="(" horiz-adv-x="663" 
d="M627 -277h-197q-51 64 -95 142t-85.5 185.5t-65.5 249.5t-24 299q0 158 22.5 290t66 233.5t86.5 171.5t105 148h190q-40 -47 -80 -119.5t-79.5 -177t-64.5 -247.5t-25 -297q0 -124 16.5 -240.5t39 -201t59 -173.5t64 -141.5t67.5 -121.5z" />
    <glyph glyph-name="parenright" unicode=")" horiz-adv-x="663" 
d="M35 -277q51 87 85 158t75.5 183t63 248t21.5 289q0 154 -24.5 296.5t-63.5 247t-79 178t-80 119.5h190q62 -79 104.5 -148t86.5 -171.5t66.5 -234t22.5 -289.5q0 -157 -24 -299t-66 -249.5t-86 -185.5t-95 -142h-197z" />
    <glyph glyph-name="asterisk" unicode="*" horiz-adv-x="990" 
d="M790 864l-240 166l24 -290h-158l24 291l-239 -167l-78 136l264 125l-264 123l78 138l240 -170l-25 294h158l-25 -294l241 170l77 -138l-263 -123l263 -125z" />
    <glyph glyph-name="plus" unicode="+" horiz-adv-x="1270" 
d="M734 475v-451h-198v451h-420v195h420v442h198v-442h420v-195h-420z" />
    <glyph glyph-name="comma" unicode="," horiz-adv-x="538" 
d="M259 -262h-166l94 488h217z" />
    <glyph glyph-name="hyphen" unicode="-" horiz-adv-x="888" 
d="M772 475h-656v195h656v-195z" />
    <glyph glyph-name="hyphen" unicode="&#x2011;" horiz-adv-x="888" 
d="M772 475h-656v195h656v-195z" />
    <glyph glyph-name="period" unicode="." horiz-adv-x="538" 
d="M269 -11q-55 0 -93 38t-38 93t38 93t93 38t93 -37.5t38 -93.5q0 -55 -38 -93t-93 -38z" />
    <glyph glyph-name="slash" unicode="/" horiz-adv-x="625" 
d="M189 -316h-189l431 1760h194z" />
    <glyph glyph-name="zero" unicode="0" horiz-adv-x="1275" 
d="M638 -27q-258 0 -404.5 201.5t-146.5 548.5q0 344 147 545.5t404 201.5t403 -200.5t146 -545.5q0 -347 -145.5 -549t-403.5 -202zM638 161q154 0 238.5 149.5t84.5 412.5q0 260 -85.5 409.5t-237.5 149.5t-238 -150t-86 -409q0 -263 85 -412.5t239 -149.5z" />
    <glyph glyph-name="one" unicode="1" horiz-adv-x="935" 
d="M477 0v1221h-5l-377 -268v220l380 270h221v-1443h-219z" />
    <glyph glyph-name="two" unicode="2" horiz-adv-x="1186" 
d="M100 1020q0 195 140.5 322.5t355.5 127.5q206 0 343 -116t137 -288q0 -121 -67 -229.5t-234 -279.5l-361 -363v-5h685v-189h-987v152l521 531q132 138 177 212.5t45 159.5q0 96 -77 163t-189 67q-118 0 -197.5 -75.5t-79.5 -188.5v-3h-212v2z" />
    <glyph glyph-name="three" unicode="3" horiz-adv-x="1240" 
d="M426 653v176h174q116 0 189.5 66t73.5 168q0 103 -68.5 163t-194.5 60q-117 0 -190 -62.5t-83 -169.5h-211q13 190 146.5 303t347.5 113q206 0 339 -105.5t133 -271.5q0 -134 -81 -225.5t-216 -115.5v-4q164 -11 260.5 -105t96.5 -245q0 -187 -151 -306t-379 -119
q-231 0 -372.5 115.5t-152.5 304.5h215q11 -105 93.5 -169t216.5 -64q132 0 217 67.5t85 173.5q0 117 -82.5 184.5t-225.5 67.5h-180z" />
    <glyph glyph-name="four" unicode="4" horiz-adv-x="1271" 
d="M798 0v285h-722v196q174 328 613 962h324v-970h198v-188h-198v-285h-215zM285 475v-5h515v800h-4q-358 -517 -511 -795z" />
    <glyph glyph-name="five" unicode="5" horiz-adv-x="1228" 
d="M629 -27q-216 0 -359 119.5t-153 308.5h214q12 -107 95.5 -174t204.5 -67q136 0 222 86t86 222t-85.5 223.5t-220.5 87.5q-94 0 -170.5 -40.5t-118.5 -111.5h-205l76 816h859v-189h-679l-40 -443h5q48 69 132.5 107.5t189.5 38.5q208 0 342 -136.5t134 -346.5
q0 -222 -147.5 -361.5t-381.5 -139.5z" />
    <glyph glyph-name="six" unicode="6" horiz-adv-x="1259" 
d="M655 -28q-160 0 -283.5 79t-194.5 225q-89 173 -89 426q0 362 153 565.5t424 203.5q191 0 327.5 -105t169.5 -278h-224q-26 89 -101 142t-174 53q-171 0 -265 -148.5t-95 -420.5h4q48 106 155 170t241 64q206 0 342.5 -136t136.5 -341q0 -217 -149 -358t-378 -141z
M653 161q128 0 217 88t89 215q0 131 -85.5 216t-218.5 85q-132 0 -219.5 -84.5t-87.5 -212.5q0 -129 88 -218t217 -89z" />
    <glyph glyph-name="seven" unicode="7" horiz-adv-x="1139" 
d="M192 0l641 1249v5h-761v189h982v-194l-627 -1249h-235z" />
    <glyph glyph-name="eight" unicode="8" horiz-adv-x="1266" 
d="M633 -27q-241 0 -393.5 117t-152.5 300q0 137 88.5 239t232.5 132v5q-120 33 -191.5 120.5t-71.5 203.5q0 164 138 272t350 108q213 0 350 -107.5t137 -273.5q0 -114 -71 -201t-191 -122v-5q144 -30 232.5 -132t88.5 -239q0 -184 -153 -300.5t-393 -116.5zM633 153
q138 0 226 71.5t88 181.5q0 112 -88 183.5t-226 71.5t-226.5 -72t-88.5 -183q0 -110 88.5 -181.5t226.5 -71.5zM633 841q116 0 191 63.5t75 161.5q0 99 -74.5 162.5t-191.5 63.5t-191.5 -63.5t-74.5 -162.5t74.5 -162t191.5 -63z" />
    <glyph glyph-name="nine" unicode="9" horiz-adv-x="1260" 
d="M596 -27q-192 0 -329.5 105.5t-169.5 277.5h225q26 -89 101.5 -143t175.5 -54q169 0 263 150t94 422h-2h-1h-1q-44 -107 -151 -171.5t-245 -64.5q-206 0 -342.5 136t-136.5 341q0 217 149 358t378 141q160 0 284.5 -78.5t194.5 -224.5q89 -173 89 -426
q0 -362 -152.5 -565.5t-423.5 -203.5zM604 678q133 0 221 84.5t88 212.5t-88.5 216.5t-217.5 88.5t-218 -87.5t-89 -213.5q0 -130 86.5 -215.5t217.5 -85.5z" />
    <glyph glyph-name="colon" unicode=":" horiz-adv-x="538" 
d="M269 -11q-55 0 -93 38t-38 93t38 93t93 38t93 -37.5t38 -93.5q0 -55 -38 -93t-93 -38zM269 718q-55 0 -93 38t-38 93t38 93t93 38t93 -38t38 -93t-38 -93t-93 -38z" />
    <glyph glyph-name="semicolon" unicode=";" horiz-adv-x="538" 
d="M269 718q-55 0 -93 38t-38 93t38 93t93 38t93 -38t38 -93t-38 -93t-93 -38zM225 -262h-166l93 488h219z" />
    <glyph glyph-name="less" unicode="&#x3c;" horiz-adv-x="1270" 
d="M1088 953l-689 -371v-9l689 -353v-224l-906 490v172l906 519v-224z" />
    <glyph glyph-name="equal" unicode="=" horiz-adv-x="1270" 
d="M1136 272h-1002v189h1002v-189zM1136 685h-1002v189h1002v-189z" />
    <glyph glyph-name="greater" unicode="&#x3e;" horiz-adv-x="1270" 
d="M182 954v224l906 -519v-172l-906 -490v224l689 353v9z" />
    <glyph glyph-name="question" unicode="?" horiz-adv-x="1035" 
d="M55 1056q7 177 125.5 288t328.5 111q196 0 319 -104.5t123 -266.5q0 -217 -210 -343q-96 -57 -131 -105.5t-35 -126.5v-61h-207l-1 80q-4 104 42.5 177t150.5 136q92 55 128 106t36 128q0 86 -62 141t-164 55q-103 0 -166 -58t-70 -157h-207zM473 -15q-55 0 -93 37
t-38 92t38 92t93 37q56 0 94 -37t38 -92t-38 -92t-94 -37z" />
    <glyph glyph-name="at" unicode="@" horiz-adv-x="1798" 
d="M890 863q-92 0 -144.5 -69.5t-52.5 -193.5q0 -122 52.5 -192.5t143.5 -70.5q95 0 151 71t56 192t-55.5 192t-150.5 71zM925 1440q232 0 414.5 -91.5t285.5 -260t103 -386.5q0 -241 -102.5 -384.5t-279.5 -143.5q-89 0 -153.5 45.5t-76.5 118.5h-10q-31 -76 -96 -116.5
t-153 -40.5q-156 0 -252 117t-96 307q0 182 96 296.5t248 114.5q80 0 146 -38.5t94 -102.5h11v121h169v-568q0 -51 27 -81t80 -30q85 0 138.5 101t53.5 279q0 272 -182 438.5t-476 166.5q-192 0 -344 -89t-237 -249.5t-85 -363.5q0 -216 91 -373.5t248 -236.5t361 -79
q210 0 313 43v-138q-134 -44 -320 -44q-185 0 -341 56.5t-269 161.5t-176 263t-63 353q0 246 105.5 436t295 294t432.5 104z" />
    <glyph glyph-name="A" unicode="A" horiz-adv-x="1336" 
d="M1073 0l-132 390h-550l-132 -390h-233l521 1443h242l521 -1443h-237zM663 1203l-215 -633h436l-215 633h-6z" />
    <glyph glyph-name="B" unicode="B" horiz-adv-x="1279" 
d="M726 0h-593v1443h591q191 0 307 -98.5t116 -261.5q0 -115 -74 -205.5t-182 -108.5v-8q147 -17 237.5 -113.5t90.5 -239.5q0 -191 -131 -299.5t-362 -108.5zM357 1260v-431h265q146 0 224 58t78 165q0 100 -66.5 154t-188.5 54h-312zM357 183h324q151 0 230 61t79 178
t-81.5 176.5t-240.5 59.5h-311v-475z" />
    <glyph glyph-name="C" unicode="C" horiz-adv-x="1424" 
d="M742 -24q-304 0 -482.5 201t-178.5 545q0 342 179 543.5t482 201.5q246 0 415 -138.5t197 -363.5h-222q-30 139 -136.5 222.5t-253.5 83.5q-197 0 -314.5 -149.5t-117.5 -399.5q0 -253 117 -401.5t316 -148.5q150 0 252.5 73t136.5 204h223q-41 -224 -202.5 -348.5
t-410.5 -124.5z" />
    <glyph glyph-name="D" unicode="D" horiz-adv-x="1413" 
d="M133 1443h517q323 0 503 -189t180 -530q0 -342 -180 -533t-503 -191h-517v1443zM357 1250v-1056h272q230 0 353 136.5t123 391.5t-123 391.5t-353 136.5h-272z" />
    <glyph glyph-name="E" unicode="E" horiz-adv-x="1146" 
d="M1049 194v-194h-916v1443h916v-193h-692v-422h655v-186h-655v-448h692z" />
    <glyph glyph-name="F" unicode="F" horiz-adv-x="1096" 
d="M357 0h-224v1443h901v-193h-677v-457h620v-189h-620v-604z" />
    <glyph glyph-name="G" unicode="G" horiz-adv-x="1462" 
d="M1376 600q0 -293 -164.5 -458.5t-457.5 -165.5q-310 0 -491.5 202.5t-181.5 549.5q0 341 180.5 540t489.5 199q241 0 408.5 -131t205.5 -347h-230q-40 134 -141 208t-242 74q-207 0 -324.5 -143.5t-117.5 -397.5q0 -259 120 -408.5t326 -149.5q175 0 286 102.5t113 266.5
v25h-373v181h594v-147z" />
    <glyph glyph-name="H" unicode="H" horiz-adv-x="1454" 
d="M1322 0h-224v639h-741v-639h-224v1443h224v-610h741v610h224v-1443z" />
    <glyph glyph-name="I" unicode="I" horiz-adv-x="490" 
d="M357 0h-224v1443h224v-1443z" />
    <glyph glyph-name="J" unicode="J" horiz-adv-x="1060" 
d="M38 370h220q2 -90 61.5 -146t153.5 -56q110 0 168.5 64.5t58.5 188.5v1022h224v-1023q0 -214 -119 -333t-330 -119q-195 0 -316 111t-121 291z" />
    <glyph glyph-name="K" unicode="K" horiz-adv-x="1293" 
d="M357 0h-224v1443h224v-687h9l603 687h266l-572 -639l620 -804h-278l-500 650l-148 -169v-481z" />
    <glyph glyph-name="L" unicode="L" horiz-adv-x="1088" 
d="M1029 194v-194h-896v1443h224v-1249h672z" />
    <glyph glyph-name="M" unicode="M" horiz-adv-x="1726" 
d="M1593 1443v-1443h-205v1062h-7l-435 -1051h-166l-436 1051h-7v-1062h-204v1443h259l467 -1139h8l466 1139h260z" />
    <glyph glyph-name="N" unicode="N" horiz-adv-x="1443" 
d="M351 0h-218v1443h203l748 -1064h8v1064h218v-1443h-202l-748 1063h-9v-1063z" />
    <glyph glyph-name="O" unicode="O" horiz-adv-x="1513" 
d="M757 1467q311 0 493.5 -201t182.5 -545t-182 -544.5t-494 -200.5t-494 200.5t-182 544.5t182 545t494 201zM757 1270q-206 0 -326.5 -148t-120.5 -401q0 -252 120.5 -400t326.5 -148q205 0 325.5 148t120.5 400q0 253 -120.5 401t-325.5 148z" />
    <glyph glyph-name="P" unicode="P" horiz-adv-x="1237" 
d="M133 1443h565q210 0 343 -132t133 -342q0 -211 -135 -343.5t-348 -132.5h-334v-493h-224v1443zM357 1254v-573h282q146 0 226 75.5t80 211.5q0 137 -80 211.5t-226 74.5h-282z" />
    <glyph glyph-name="Q" unicode="Q" horiz-adv-x="1513" 
d="M1370 -153h-234l-123 172q-114 -43 -256 -43q-312 0 -494 200t-182 545q0 344 182 545t494 201q311 0 493.5 -201.5t182.5 -544.5q0 -201 -65 -357t-186 -250zM757 172q70 0 135 20l-172 243h227l102 -138q154 143 154 424q0 253 -120.5 401.5t-325.5 148.5t-326 -148.5
t-121 -401.5q0 -252 121 -400.5t326 -148.5z" />
    <glyph glyph-name="R" unicode="R" horiz-adv-x="1265" 
d="M357 1255v-519h322q130 0 201.5 68t71.5 192q0 121 -74.5 190t-204.5 69h-316zM357 555v-555h-224v1443h567q222 0 352 -119.5t130 -321.5q0 -147 -74.5 -257.5t-205.5 -154.5l324 -590h-259l-294 555h-316z" />
    <glyph glyph-name="S" unicode="S" horiz-adv-x="1244" 
d="M69 402h221q12 -107 107 -172t238 -65q136 0 224.5 63t88.5 160q0 84 -63 137.5t-203 87.5l-187 45q-199 48 -293.5 143t-94.5 246q0 186 146.5 303t378.5 117q228 0 372 -116.5t149 -303.5h-218q-10 107 -92.5 169t-213.5 62q-130 0 -211.5 -60t-81.5 -156
q0 -76 61 -124.5t201 -83.5l159 -39q222 -52 320.5 -146.5t98.5 -253.5q0 -202 -150 -320.5t-407 -118.5q-241 0 -390.5 115.5t-159.5 310.5z" />
    <glyph glyph-name="T" unicode="T" horiz-adv-x="1222" 
d="M723 0h-224v1250h-450v193h1123v-193h-449v-1250z" />
    <glyph glyph-name="U" unicode="U" horiz-adv-x="1434" 
d="M357 1443v-917q0 -158 95.5 -254.5t264.5 -96.5t265 96.5t96 254.5v917h223v-936q0 -237 -158 -384t-426 -147t-426 147t-158 384v936h224z" />
    <glyph glyph-name="V" unicode="V" horiz-adv-x="1327" 
d="M786 0h-245l-515 1443h243l393 -1191h6l394 1191h239z" />
    <glyph glyph-name="W" unicode="W" horiz-adv-x="1923" 
d="M956 1088l-311 -1088h-212l-389 1443h233l267 -1130h8l305 1130h208l306 -1130h8l267 1130h233l-390 -1443h-211l-312 1088h-10z" />
    <glyph glyph-name="X" unicode="X" horiz-adv-x="1337" 
d="M44 0l479 723v7l-474 713h267l356 -558h8l360 558h253l-489 -721v-6l480 -716h-262l-359 550h-7l-364 -550h-248z" />
    <glyph glyph-name="Y" unicode="Y" horiz-adv-x="1293" 
d="M758 0h-224v591l-508 852h250l368 -637h7l368 637h248l-509 -852v-591z" />
    <glyph glyph-name="Z" unicode="Z" horiz-adv-x="1273" 
d="M95 0v153l790 1089v8h-766v193h1041v-153l-787 -1089v-7h806v-194h-1084z" />
    <glyph glyph-name="bracketleft" unicode="[" horiz-adv-x="697" 
d="M184 1444h496v-164h-287v-1356h300v-164h-509v1684z" />
    <glyph glyph-name="backslash" unicode="\" horiz-adv-x="625" 
d="M436 -316l-436 1760h193l432 -1760h-189z" />
    <glyph glyph-name="bracketright" unicode="]" horiz-adv-x="697" 
d="M512 1444v-1684h-508v164h301v1356h-288v164h495z" />
    <glyph glyph-name="asciicircum" unicode="^" horiz-adv-x="926" 
d="M454 1256l-206 -442h-197l305 622h215l303 -622h-199l-204 442h-17z" />
    <glyph glyph-name="underscore" unicode="_" horiz-adv-x="838" 
d="M890 -267h-941v160h941v-160z" />
    <glyph glyph-name="grave" unicode="`" horiz-adv-x="1007" 
d="M722 1255h-178l-262 303h225z" />
    <glyph glyph-name="a" unicode="a" horiz-adv-x="1092" 
d="M488 162q121 0 202 69.5t81 176.5v85l-264 -18q-225 -14 -225 -160q0 -70 56 -111.5t150 -41.5zM430 -11q-163 0 -265 88.5t-102 233.5q0 142 106.5 223t308.5 94l293 17v84q0 93 -59.5 142.5t-168.5 49.5q-88 0 -148.5 -42t-74.5 -113h-203q5 144 127 239t305 95
q199 0 317.5 -97t118.5 -258v-745h-207v181h-5q-45 -88 -138 -140t-205 -52z" />
    <glyph glyph-name="b" unicode="b" horiz-adv-x="1201" 
d="M683 -11q-118 0 -208.5 50.5t-140.5 144.5h-5v-184h-209v1508h217v-602h4q50 92 139.5 141.5t204.5 49.5q206 0 330 -151t124 -403t-124.5 -403t-331.5 -151zM628 913q-131 0 -211.5 -102.5t-80.5 -267.5q0 -166 80.5 -268t211.5 -102t210 100.5t79 269.5t-79 269.5
t-210 100.5z" />
    <glyph glyph-name="c" unicode="c" horiz-adv-x="1089" 
d="M1039 715h-207q-16 90 -83.5 146t-175.5 56q-132 0 -211.5 -102t-79.5 -272q0 -174 80 -274t212 -100q106 0 173.5 50.5t86.5 145.5h207q-19 -171 -146 -274.5t-322 -103.5q-232 0 -371.5 150t-139.5 406q0 253 139 405t370 152q101 0 187 -30.5t144.5 -83.5t94 -122.5
t42.5 -148.5z" />
    <glyph glyph-name="d" unicode="d" horiz-adv-x="1200" 
d="M520 -11q-205 0 -331.5 152t-126.5 403q0 249 126.5 401t329.5 152q116 0 205.5 -50.5t136.5 -140.5h5v602h216v-1508h-210v184h-4q-48 -93 -138.5 -144t-208.5 -51zM575 913q-131 0 -211 -101t-80 -269q0 -169 79.5 -269.5t211.5 -100.5q131 0 211 102t80 268t-80.5 268
t-210.5 102z" />
    <glyph glyph-name="e" unicode="e" horiz-adv-x="1113" 
d="M563 923q-117 0 -194.5 -78t-86.5 -203h551q-4 127 -78 204t-192 77zM832 318h207q-23 -146 -153 -238.5t-313 -92.5q-236 0 -373.5 148.5t-137.5 403.5t137 408t365 153q224 0 355 -144.5t131 -391.5v-76h-769v-13q0 -141 81 -226.5t215 -85.5q95 0 164 42t91 113z" />
    <glyph glyph-name="f" unicode="f" horiz-adv-x="667" 
d="M176 0v915h-150v171h150v100q0 153 74 222.5t238 69.5q52 0 110 -10v-165q-35 8 -81 8q-67 0 -96.5 -31t-30.5 -101v-93h209v-171h-207v-915h-216z" />
    <glyph glyph-name="g" unicode="g" horiz-adv-x="1192" 
d="M572 183q132 0 212.5 99.5t80.5 263.5q0 165 -80.5 266t-212.5 101q-131 0 -209.5 -100t-78.5 -267q0 -166 78.5 -264.5t209.5 -98.5zM573 -391q-196 0 -324 84t-144 223h219q18 -63 88 -100t170 -37q129 0 206 63t77 169v179h-5q-47 -88 -138.5 -137.5t-206.5 -49.5
q-204 0 -328.5 148.5t-124.5 395.5q0 251 124.5 400.5t333.5 149.5q115 0 206 -50.5t141 -140.5h4v180h210v-1058q0 -194 -136.5 -306.5t-371.5 -112.5z" />
    <glyph glyph-name="h" unicode="h" horiz-adv-x="1171" 
d="M120 0v1508h215v-605h5q99 195 343 195q178 0 280 -109.5t102 -294.5v-694h-217v652q0 123 -61 191.5t-179 68.5q-126 0 -198.5 -79t-72.5 -211v-622h-217z" />
    <glyph glyph-name="i" unicode="i" horiz-adv-x="455" 
d="M119 0v1086h217v-1086h-217zM228 1241q-53 0 -90 36.5t-37 88.5q0 53 37 89t90 36t90 -36t37 -89q0 -52 -37 -88.5t-90 -36.5z" />
    <glyph glyph-name="j" unicode="j" horiz-adv-x="455" 
d="M336 1086v-1133q0 -166 -87 -245.5t-266 -79.5q-5 0 -25.5 0.5t-22.5 0.5v172h31q84 0 118.5 35t34.5 118v1132h217zM228 1241q-53 0 -90 36.5t-37 88.5q0 53 37 89t90 36t90 -36t37 -89q0 -52 -37 -88.5t-90 -36.5z" />
    <glyph glyph-name="k" unicode="k" horiz-adv-x="1062" 
d="M338 617l447 469h255l-454 -468l470 -618h-250l-375 486l-94 -92v-394h-217v1508h217v-891h1z" />
    <glyph glyph-name="l" unicode="l" horiz-adv-x="457" 
d="M120 0v1508h217v-1508h-217z" />
    <glyph glyph-name="m" unicode="m" horiz-adv-x="1740" 
d="M111 0v1086h207v-184h4q37 91 119.5 143.5t189.5 52.5q113 0 192 -55t112 -156h5q43 98 133.5 154.5t206.5 56.5q161 0 257.5 -97.5t96.5 -260.5v-740h-216v688q0 107 -55.5 165.5t-156.5 58.5q-100 0 -163.5 -67t-63.5 -171v-674h-213v706q0 94 -56.5 150t-151.5 56
q-100 0 -165 -69.5t-65 -176.5v-666h-217z" />
    <glyph glyph-name="n" unicode="n" horiz-adv-x="1148" 
d="M111 0v1086h207v-183h4q101 195 343 195q179 0 278 -106.5t99 -295.5v-696h-217v655q0 257 -235 257q-122 0 -192 -77.5t-70 -207.5v-627h-217z" />
    <glyph glyph-name="o" unicode="o" horiz-adv-x="1152" 
d="M576 -13q-236 0 -375 150t-139 406q0 255 139.5 406t374.5 151t374 -150.5t139 -406.5t-138.5 -406t-374.5 -150zM576 167q138 0 215.5 99t77.5 277t-77.5 277.5t-215.5 99.5t-216 -100t-78 -277t78 -276.5t216 -99.5z" />
    <glyph glyph-name="p" unicode="p" horiz-adv-x="1192" 
d="M671 1097q208 0 333.5 -151t125.5 -403q0 -251 -124.5 -402.5t-329.5 -151.5q-117 0 -206 49.5t-138 139.5h-4v-538h-217v1446h209v-180h5q46 88 139.5 139.5t206.5 51.5zM616 173q132 0 212 101t80 269t-80 269t-212 101q-129 0 -209 -102t-81 -268q1 -167 80.5 -268.5
t209.5 -101.5z" />
    <glyph glyph-name="q" unicode="q" horiz-adv-x="1192" 
d="M520 1097q118 0 208.5 -50t138.5 -141h4v180h210v-1446h-216v538h-5q-47 -89 -138 -139t-207 -50q-204 0 -328.5 151.5t-124.5 403.5q0 251 125.5 402t332.5 151zM572 173q131 0 212 102t81 268q0 165 -81 267.5t-212 102.5t-209.5 -100.5t-78.5 -269.5t78.5 -269.5
t209.5 -100.5z" />
    <glyph glyph-name="r" unicode="r" horiz-adv-x="688" 
d="M111 0v1086h207v-183h4q25 91 95.5 142.5t166.5 51.5q46 0 76 -7v-203q-33 13 -99 13q-107 0 -170 -68.5t-63 -183.5v-648h-217z" />
    <glyph glyph-name="s" unicode="s" horiz-adv-x="1018" 
d="M93 777q0 143 117 232.5t304 89.5q178 0 294.5 -90.5t120.5 -232.5h-204q-7 72 -65 114t-151 42q-92 0 -148.5 -39.5t-56.5 -103.5q0 -98 169 -139l180 -43q164 -40 232 -106t68 -186q0 -145 -125 -236.5t-322 -91.5q-189 0 -309.5 89.5t-132.5 237.5h214
q13 -78 74.5 -119.5t164.5 -41.5q101 0 160.5 39t59.5 105q0 52 -35.5 82t-121.5 52l-194 48q-293 72 -293 298z" />
    <glyph glyph-name="t" unicode="t" horiz-adv-x="672" 
d="M176 1330h216v-244h208v-171h-208v-607q0 -71 32.5 -104.5t100.5 -33.5q39 0 74 5v-171q-44 -11 -122 -11q-163 0 -232 67.5t-69 225.5v629h-150v171h150v244z" />
    <glyph glyph-name="u" unicode="u" horiz-adv-x="1148" 
d="M1037 1086v-1086h-207v186h-4q-97 -198 -339 -198q-178 0 -279.5 107.5t-101.5 294.5v696h217v-655q0 -126 59.5 -191t176.5 -65q121 0 191 77.5t70 207.5v626h217z" />
    <glyph glyph-name="v" unicode="v" horiz-adv-x="1052" 
d="M1033 1086l-391 -1086h-231l-392 1086h229l277 -872h5l278 872h225z" />
    <glyph glyph-name="w" unicode="w" horiz-adv-x="1563" 
d="M1537 1086l-299 -1086h-224l-231 818h-5l-229 -818h-223l-300 1086h216l202 -860h4l230 860h208l231 -860h4l202 860h214z" />
    <glyph glyph-name="x" unicode="x" horiz-adv-x="1032" 
d="M515 403h-5l-244 -403h-235l361 542l-357 544h243l241 -395h5l239 395h238l-358 -536l354 -550h-239z" />
    <glyph glyph-name="y" unicode="y" horiz-adv-x="1066" 
d="M220 -395q-54 0 -88 6v176q20 -5 69 -5q78 0 123.5 36.5t73.5 122.5l17 56l-394 1089h233l279 -888h5l279 888h228l-407 -1136q-70 -195 -160.5 -270t-257.5 -75z" />
    <glyph glyph-name="z" unicode="z" horiz-adv-x="1015" 
d="M89 0v141l584 769v3h-581v173h828v-149l-570 -760v-4h576v-173h-837z" />
    <glyph glyph-name="braceleft" unicode="{" horiz-adv-x="771" 
d="M329 599q189 -18 189 -241v-309q0 -118 52 -168t175 -50h45v-166h-76q-206 0 -303.5 88t-97.5 275v266q0 118 -38 164t-137 46v219q98 0 136.5 46t38.5 165v232q0 183 97 269t304 86h76v-167h-45q-124 0 -175.5 -50t-51.5 -169v-276q0 -215 -189 -233v-27z" />
    <glyph glyph-name="bar" unicode="|" horiz-adv-x="503" 
d="M347 -314h-192v1757h192v-1757z" />
    <glyph glyph-name="braceright" unicode="}" horiz-adv-x="771" 
d="M443 599v27q-97 9 -143.5 66.5t-46.5 166.5v276q0 119 -51.5 169t-175.5 50h-45v167h76q207 0 304 -86t97 -269v-232q0 -119 38.5 -165t136.5 -46v-219q-99 0 -137 -46t-38 -164v-266q0 -187 -97 -275t-304 -88h-76v166h45q123 0 175 50t52 168v309q0 223 190 241z" />
    <glyph glyph-name="asciitilde" unicode="~" horiz-adv-x="1225" 
d="M567 632q-52 52 -85.5 73t-67.5 21q-123 0 -132 -179h-184q-4 172 79.5 272.5t230.5 100.5q125 0 252 -127q50 -51 83.5 -72t67.5 -21q124 0 132 179h184q4 -173 -79 -273t-231 -100q-66 0 -125 30t-125 96z" />
    <glyph glyph-name="nonbreakingspace" unicode="&#xa0;" horiz-adv-x="472" 
 />
    <glyph glyph-name="exclamdown" unicode="&#xa1;" horiz-adv-x="583" 
d="M180 -335l16 965h191l16 -965h-223zM291 866q-55 0 -93 37.5t-38 91.5q0 55 38 92.5t93 37.5q56 0 94 -37.5t38 -92.5q0 -54 -38 -91.5t-94 -37.5z" />
    <glyph glyph-name="cent" unicode="&#xa2;" horiz-adv-x="1270" 
d="M1156 539q-16 -153 -128 -257.5t-281 -124.5v-174h-198v177q-199 33 -317 183t-118 374q0 221 118 370t317 181v177h198v-174q168 -21 283.5 -130.5t125.5 -257.5h-209q-19 97 -98 154.5t-194 57.5q-142 0 -231.5 -105t-89.5 -273q0 -170 90 -277t231 -107q253 0 292 206
h209z" />
    <glyph glyph-name="sterling" unicode="&#xa3;" horiz-adv-x="1270" 
d="M425 188h760v-188h-1084v181q133 26 219.5 122.5t86.5 218.5q0 54 -17 124h-288v167h231q-61 160 -61 256q0 193 140.5 301t391.5 108q90 0 175 -14.5t136 -37.5v-187q-43 22 -126 37.5t-165 15.5q-153 0 -239 -62.5t-86 -173.5q0 -91 55 -243h450v-167h-396
q14 -65 14 -113q0 -113 -56 -201t-141 -139v-5z" />
    <glyph glyph-name="currency" unicode="&#xa4;" horiz-adv-x="1279" 
d="M387 653q0 -104 75 -178.5t179 -74.5t178 74.5t74 178.5t-74 179t-178 75t-179 -75t-75 -179zM1149 1036l-161 -162q64 -102 64 -221q0 -120 -65 -221l162 -162l-128 -127l-161 161q-101 -63 -219 -63q-120 0 -221 65l-162 -163l-128 127l162 163q-64 102 -64 220
q0 119 64 221l-162 162l128 127l162 -161q102 64 221 64q118 0 220 -64l160 161z" />
    <glyph glyph-name="yen" unicode="&#xa5;" horiz-adv-x="1270" 
d="M1022 248h-274v-248h-224v248h-275v147h275v155h-275v147h213l-447 746h249l368 -635h7l367 635h249l-445 -746h212v-147h-274v-155h274v-147z" />
    <glyph glyph-name="brokenbar" unicode="&#xa6;" horiz-adv-x="504" 
d="M348 774h-192v669h192v-669zM348 -314h-192v669h192v-669z" />
    <glyph glyph-name="section" unicode="&#xa7;" horiz-adv-x="990" 
d="M435 418l92 -25q80 3 135 53t55 121q0 58 -41.5 98.5t-118.5 59.5l-92 24q-79 -3 -135 -54t-56 -120q0 -56 42.5 -97.5t118.5 -59.5zM498 -267q-177 0 -293.5 86.5t-125.5 224.5h204q9 -64 70.5 -103.5t151.5 -39.5q93 0 151 40.5t58 106.5q0 52 -42.5 87t-137.5 61
l-153 46q-163 46 -237.5 116t-74.5 176q0 95 58.5 164.5t162.5 99.5v17q-215 89 -215 273q0 144 114.5 232.5t300.5 88.5q173 0 283.5 -81.5t125.5 -220.5h-201q-9 61 -66.5 98t-144.5 37q-92 0 -148.5 -40.5t-56.5 -106.5q0 -52 41.5 -87t135.5 -62l152 -45
q161 -47 235.5 -115.5t74.5 -170.5q0 -101 -68 -179t-178 -102v-17q243 -67 243 -260q0 -143 -117 -233.5t-303 -90.5z" />
    <glyph glyph-name="dieresis" unicode="&#xa8;" horiz-adv-x="1006" 
d="M302 1260q-50 0 -85.5 35t-35.5 84t35.5 84t85.5 35t85 -34.5t35 -84.5q0 -49 -35 -84t-85 -35zM705 1260q-50 0 -85.5 35t-35.5 84t35.5 84t85.5 35t85 -34.5t35 -84.5q0 -49 -35 -84t-85 -35z" />
    <glyph glyph-name="copyright" unicode="&#xa9;" horiz-adv-x="1703" 
d="M851 -158q-218 0 -399.5 104t-286.5 286t-105 403t105 403t286.5 285.5t399.5 103.5q220 0 401.5 -103.5t286 -285.5t104.5 -403t-104.5 -403t-286.5 -286t-401 -104zM851 -9q133 0 252 49.5t204.5 135t135.5 205t50 254.5t-50 255t-135.5 204.5t-204.5 134t-252 49.5
q-177 0 -324 -83.5t-232.5 -231.5t-85.5 -328t85.5 -328t232.5 -232t324 -84zM1225 765h-156q-16 65 -68.5 105.5t-132.5 40.5q-104 0 -165.5 -73.5t-61.5 -201.5q0 -129 61.5 -203.5t165.5 -74.5q79 0 132 36.5t69 104.5h156q-17 -125 -111.5 -201.5t-244.5 -76.5
q-180 0 -285.5 111.5t-105.5 303.5q0 189 105.5 300.5t283.5 111.5q150 0 245.5 -79.5t112.5 -203.5z" />
    <glyph glyph-name="ordfeminine" unicode="&#xaa;" horiz-adv-x="754" 
d="M340 839q74 0 122.5 41t48.5 104v54l-162 -10q-132 -9 -132 -97q0 -42 33.5 -67t89.5 -25zM285 706q-108 0 -176.5 60.5t-68.5 157.5t73 152.5t211 63.5l187 11v51q0 55 -36 85t-101 30q-54 0 -90.5 -25.5t-44.5 -68.5h-163q4 102 89 166.5t216 64.5q138 0 221 -65.5
t83 -174.5v-500h-171v115h-3q-29 -57 -91 -90t-135 -33z" />
    <glyph glyph-name="guillemotleft" unicode="&#xab;" horiz-adv-x="1322" 
d="M845 572v-13l349 -412h-229l-348 414v8l349 415h228zM355 572v-13l349 -412h-229l-348 414v8l349 415h228z" />
    <glyph glyph-name="logicalnot" unicode="&#xac;" horiz-adv-x="1270" 
d="M1126 673v-569h-186v385h-796v184h982z" />
    <glyph glyph-name="registered" unicode="&#xae;" horiz-adv-x="1166" 
d="M583 582q-206 0 -348 140t-142 342q0 203 142 343t348 140q136 0 248.5 -63.5t177.5 -174.5t65 -245q0 -202 -142.5 -342t-348.5 -140zM583 692q156 0 263 108t107 264q0 158 -106.5 265t-263.5 107q-156 0 -263 -107.5t-107 -264.5q0 -156 107.5 -264t262.5 -108z
M501 845h-105v455h228q72 0 117.5 -39.5t45.5 -101.5q0 -53 -27.5 -89.5t-75.5 -45.5l127 -179h-130l-106 164h-74v-164zM501 1213v-125h101q35 0 54 17t19 48q0 60 -70 60h-104z" />
    <glyph glyph-name="macron" unicode="&#xaf;" horiz-adv-x="1000" 
d="M823 1431v-119h-646v119h646z" />
    <glyph glyph-name="degree" unicode="&#xb0;" horiz-adv-x="740" 
d="M369 811q-124 0 -210 86.5t-86 210.5q0 125 86 211t210 86q125 0 211 -86.5t86 -210.5t-86.5 -210.5t-210.5 -86.5zM370 956q64 0 108.5 45t44.5 107q0 64 -44.5 109t-108.5 45q-61 0 -107 -45.5t-46 -108.5q0 -62 45.5 -107t107.5 -45z" />
    <glyph glyph-name="plusminus" unicode="&#xb1;" horiz-adv-x="1270" 
d="M1140 99h-1010v173h1010v-173zM727 658v-272h-184v272h-413v165h413v272h184v-272h413v-165h-413z" />
    <glyph glyph-name="two.sups" unicode="&#xb2;" horiz-adv-x="635" 
d="M40 1591q0 104 75.5 168t198.5 64q118 0 191.5 -56.5t73.5 -148.5q0 -54 -28.5 -102t-99.5 -112l-158 -144v-3h294v-143h-536v124l273 247q42 41 58 67t16 53q0 35 -25.5 57t-66.5 22t-68 -26.5t-27 -66.5v-4h-171v4z" />
    <glyph glyph-name="three.sups" unicode="&#xb3;" horiz-adv-x="662" 
d="M239 1404v126h85q42 0 67 22t25 57t-25 55.5t-69 20.5q-43 0 -70 -23.5t-29 -62.5h-168q1 101 75.5 162.5t197.5 61.5q118 0 190 -51.5t72 -136.5q0 -61 -39 -104.5t-105 -55.5v-4q79 -7 124 -51.5t45 -113.5q0 -95 -79.5 -152.5t-211.5 -57.5q-124 0 -201 62t-81 165
h177q3 -38 31.5 -59.5t74.5 -21.5q45 0 73 22.5t28 57.5q0 38 -27.5 60t-75.5 22h-84z" />
    <glyph glyph-name="acute" unicode="&#xb4;" horiz-adv-x="1007" 
d="M462 1255h-178l215 303h225z" />
    <glyph glyph-name="paragraph" unicode="&#xb6;" horiz-adv-x="1299" 
d="M824 -233h-216v765h-20q-210 0 -351 128.5t-141 320.5q0 200 140.5 331t352.5 131h235v-1676zM979 -233v1676h216v-1676h-216z" />
    <glyph glyph-name="periodcentered" unicode="&#xb7;" horiz-adv-x="560" 
d="M280 482q-55 0 -93 38t-38 93t38 93t93 38q56 0 93.5 -38t37.5 -93t-38 -93t-93 -38z" />
    <glyph glyph-name="cedilla" unicode="&#xb8;" horiz-adv-x="1007" 
d="M364 -229v83l63 155l122 -9l-51 -132q97 0 148.5 -39.5t51.5 -114.5q0 -80 -62.5 -129.5t-163.5 -50.5q-85 -2 -145 17v105q37 -14 118 -14q115 0 115 66q0 34 -32.5 48.5t-108.5 14.5h-55z" />
    <glyph glyph-name="one.sups" unicode="&#xb9;" horiz-adv-x="516" 
d="M243 1114v533h-3l-176 -119v159l176 118h183v-691h-180z" />
    <glyph glyph-name="ordmasculine" unicode="&#xba;" horiz-adv-x="791" 
d="M395 703q-163 0 -258.5 100.5t-95.5 275.5q0 173 95.5 274t258.5 101t259 -100.5t96 -274.5q0 -175 -95.5 -275.5t-259.5 -100.5zM395 842q83 0 129 62.5t46 174.5q0 111 -46.5 173.5t-128.5 62.5t-128 -62.5t-46 -173.5q0 -112 46.5 -174.5t127.5 -62.5z" />
    <glyph glyph-name="guillemotright" unicode="&#xbb;" horiz-adv-x="1321" 
d="M476 572l-349 412h228l349 -415v-8l-347 -414h-230l349 412v13zM966 572l-349 412h228l349 -415v-8l-347 -414h-230l349 412v13z" />
    <glyph glyph-name="onequarter" unicode="&#xbc;" horiz-adv-x="1521" 
d="M1225 0v108h-341v156q81 156 259 427h259v-438h85v-145h-85v-108h-177zM1041 249v-3h189v320h-3q-125 -199 -186 -317zM253 753v533h-3l-176 -119v159l176 118h183v-691h-180zM303 0h-204l1055 1443h202z" />
    <glyph glyph-name="onehalf" unicode="&#xbd;" horiz-adv-x="1520" 
d="M939 477q0 104 75.5 168t198.5 64q118 0 191.5 -56.5t73.5 -148.5q0 -54 -28.5 -102t-99.5 -112l-158 -144v-3h294v-143h-536v124l273 247q42 41 58 67t16 53q0 35 -25.5 57t-66.5 22t-68 -26.5t-27 -66.5v-4h-171v4zM253 753v533h-3l-176 -119v159l176 118h183v-691
h-180zM303 0h-204l1055 1443h202z" />
    <glyph glyph-name="threequarters" unicode="&#xbe;" horiz-adv-x="1623" 
d="M239 1043v126h85q42 0 67 22t25 57t-25 55.5t-69 20.5q-43 0 -70 -23.5t-29 -62.5h-168q1 101 75.5 162.5t197.5 61.5q118 0 190 -51.5t72 -136.5q0 -61 -39 -104.5t-105 -55.5v-4q79 -7 124 -51.5t45 -113.5q0 -95 -79.5 -152.5t-211.5 -57.5q-124 0 -201 62t-81 165
h177q3 -38 31.5 -59.5t74.5 -21.5q45 0 73 22.5t28 57.5q0 38 -27.5 60t-75.5 22h-84zM1328 0v108h-341v156q81 156 259 427h259v-438h85v-145h-85v-108h-177zM1144 249v-3h189v320h-3q-125 -199 -186 -317zM411 0h-204l1055 1443h202z" />
    <glyph glyph-name="questiondown" unicode="&#xbf;" horiz-adv-x="1035" 
d="M980 49q-7 -177 -125.5 -288t-327.5 -111q-198 0 -321 104.5t-123 267.5q0 216 211 342q96 57 130.5 105.5t34.5 125.5v61h207l1 -80q4 -104 -41.5 -177t-150.5 -136q-91 -55 -127.5 -106t-36.5 -126q0 -87 62 -142.5t164 -55.5q103 0 165.5 58t69.5 158h208zM551 866
q-55 0 -93.5 37.5t-38.5 91.5q0 55 38 92.5t94 37.5t94 -37.5t38 -92.5q0 -54 -38.5 -91.5t-93.5 -37.5z" />
    <glyph glyph-name="Agrave" unicode="&#xc0;" horiz-adv-x="1336" 
d="M1073 0l-132 390h-550l-132 -390h-233l521 1443h242l521 -1443h-237zM663 1203l-215 -633h436l-215 633h-6zM581 1553l-280 303h225l231 -303h-176z" />
    <glyph glyph-name="Aacute" unicode="&#xc1;" horiz-adv-x="1336" 
d="M1073 0l-132 390h-550l-132 -390h-233l521 1443h242l521 -1443h-237zM663 1203l-215 -633h436l-215 633h-6zM756 1551h-176l231 303h225z" />
    <glyph glyph-name="Acircumflex" unicode="&#xc2;" horiz-adv-x="1336" 
d="M1073 0l-132 390h-550l-132 -390h-233l521 1443h242l521 -1443h-237zM663 1203l-215 -633h436l-215 633h-6zM582 1853h172l286 -306h-188l-182 200h-4l-182 -200h-188z" />
    <glyph glyph-name="Atilde" unicode="&#xc3;" horiz-adv-x="1336" 
d="M1073 0l-132 390h-550l-132 -390h-233l521 1443h242l521 -1443h-237zM663 1203l-215 -633h436l-215 633h-6zM801 1537q-45 0 -84.5 23t-63 50t-52 50t-53.5 23q-33 0 -50.5 -34.5t-18.5 -95.5h-129q0 120 51.5 188.5t139.5 68.5q47 0 88 -23t65 -50t51.5 -50t51.5 -23
q63 0 63 132h130q0 -118 -52.5 -188.5t-136.5 -70.5z" />
    <glyph glyph-name="Adieresis" unicode="&#xc4;" horiz-adv-x="1336" 
d="M1073 0l-132 390h-550l-132 -390h-233l521 1443h242l521 -1443h-237zM663 1203l-215 -633h436l-215 633h-6zM467 1576q-50 0 -85.5 35t-35.5 84t35.5 84t85.5 35t85 -34.5t35 -84.5q0 -49 -35 -84t-85 -35zM870 1576q-50 0 -85.5 35t-35.5 84t35.5 84t85.5 35t85 -34.5
t35 -84.5q0 -49 -35 -84t-85 -35z" />
    <glyph glyph-name="Aring" unicode="&#xc5;" horiz-adv-x="1336" 
d="M1073 0l-132 390h-550l-132 -390h-233l521 1443h242l521 -1443h-237zM663 1203l-215 -633h436l-215 633h-6zM668 1509q-83 0 -143 59.5t-60 142.5q0 82 60 141.5t143 59.5t143 -59.5t60 -141.5q0 -83 -60 -142.5t-143 -59.5zM668 1602q45 0 77.5 32t32.5 77t-32.5 77
t-77.5 32t-77.5 -32t-32.5 -77t32.5 -77t77.5 -32z" />
    <glyph glyph-name="AE" unicode="&#xc6;" horiz-adv-x="1997" 
d="M812 1263l-298 -656h449v656h-151zM963 0v428h-527l-196 -428h-227l661 1443h1189v-193h-685v-430h648v-186h-648v-441h685v-193h-900z" />
    <glyph glyph-name="Ccedilla" unicode="&#xc7;" horiz-adv-x="1424" 
d="M1132 449h223q-38 -208 -182 -331t-366 -140l-43 -110q97 0 148.5 -39.5t51.5 -114.5q0 -80 -62.5 -129.5t-163.5 -50.5q-85 -2 -145 17v105q37 -14 118 -14q115 0 115 66q0 34 -32.5 48.5t-108.5 14.5h-55v83l51 124q-278 21 -439 219.5t-161 524.5q0 342 179 543.5
t482 201.5q246 0 415 -138.5t197 -363.5h-222q-30 139 -136.5 222.5t-253.5 83.5q-197 0 -314.5 -149.5t-117.5 -399.5q0 -253 117 -401.5t316 -148.5q150 0 252.5 73t136.5 204z" />
    <glyph glyph-name="Egrave" unicode="&#xc8;" horiz-adv-x="1146" 
d="M504 1553l-280 303h225l231 -303h-176zM1049 194v-194h-916v1443h916v-193h-692v-422h655v-186h-655v-448h692z" />
    <glyph glyph-name="Eacute" unicode="&#xc9;" horiz-adv-x="1146" 
d="M679 1551h-176l231 303h225zM1049 194v-194h-916v1443h916v-193h-692v-422h655v-186h-655v-448h692z" />
    <glyph glyph-name="Ecircumflex" unicode="&#xca;" horiz-adv-x="1146" 
d="M505 1853h172l286 -306h-188l-182 200h-4l-182 -200h-188zM1049 194v-194h-916v1443h916v-193h-692v-422h655v-186h-655v-448h692z" />
    <glyph glyph-name="Edieresis" unicode="&#xcb;" horiz-adv-x="1146" 
d="M390 1576q-50 0 -85.5 35t-35.5 84t35.5 84t85.5 35t85 -34.5t35 -84.5q0 -49 -35 -84t-85 -35zM793 1576q-50 0 -85.5 35t-35.5 84t35.5 84t85.5 35t85 -34.5t35 -84.5q0 -49 -35 -84t-85 -35zM1049 194v-194h-916v1443h916v-193h-692v-422h655v-186h-655v-448h692z" />
    <glyph glyph-name="Igrave" unicode="&#xcc;" horiz-adv-x="490" 
d="M357 0h-224v1443h224v-1443zM158 1553l-280 303h225l231 -303h-176z" />
    <glyph glyph-name="Iacute" unicode="&#xcd;" horiz-adv-x="490" 
d="M357 0h-224v1443h224v-1443zM333 1551h-176l231 303h225z" />
    <glyph glyph-name="Icircumflex" unicode="&#xce;" horiz-adv-x="490" 
d="M357 0h-224v1443h224v-1443zM159 1853h172l286 -306h-188l-182 200h-4l-182 -200h-188z" />
    <glyph glyph-name="Idieresis" unicode="&#xcf;" horiz-adv-x="490" 
d="M357 0h-224v1443h224v-1443zM44 1576q-50 0 -85.5 35t-35.5 84t35.5 84t85.5 35t85 -34.5t35 -84.5q0 -49 -35 -84t-85 -35zM447 1576q-50 0 -85.5 35t-35.5 84t35.5 84t85.5 35t85 -34.5t35 -84.5q0 -49 -35 -84t-85 -35z" />
    <glyph glyph-name="Eth" unicode="&#xd0;" horiz-adv-x="1428" 
d="M372 194h272q230 0 353 136.5t123 391.5t-123 391.5t-353 136.5h-272v-418h269v-184h-269v-454zM148 1443h517q323 0 503 -189t180 -530q0 -342 -180 -533t-503 -191h-517v648h-118v184h118v611z" />
    <glyph glyph-name="Ntilde" unicode="&#xd1;" horiz-adv-x="1443" 
d="M855 1537q-45 0 -84.5 23t-63 50t-52 50t-53.5 23q-33 0 -50.5 -34.5t-18.5 -95.5h-129q0 120 51.5 188.5t139.5 68.5q47 0 88 -23t65 -50t51.5 -50t51.5 -23q63 0 63 132h130q0 -118 -52.5 -188.5t-136.5 -70.5zM351 0h-218v1443h203l748 -1064h8v1064h218v-1443h-202
l-748 1063h-9v-1063z" />
    <glyph glyph-name="Ograve" unicode="&#xd2;" horiz-adv-x="1513" 
d="M670 1553l-280 303h225l231 -303h-176zM757 1467q311 0 493.5 -201t182.5 -545t-182 -544.5t-494 -200.5t-494 200.5t-182 544.5t182 545t494 201zM757 1270q-206 0 -326.5 -148t-120.5 -401q0 -252 120.5 -400t326.5 -148q205 0 325.5 148t120.5 400q0 253 -120.5 401
t-325.5 148z" />
    <glyph glyph-name="Oacute" unicode="&#xd3;" horiz-adv-x="1513" 
d="M845 1551h-176l231 303h225zM757 1467q311 0 493.5 -201t182.5 -545t-182 -544.5t-494 -200.5t-494 200.5t-182 544.5t182 545t494 201zM757 1270q-206 0 -326.5 -148t-120.5 -401q0 -252 120.5 -400t326.5 -148q205 0 325.5 148t120.5 400q0 253 -120.5 401t-325.5 148z
" />
    <glyph glyph-name="Ocircumflex" unicode="&#xd4;" horiz-adv-x="1513" 
d="M671 1853h172l286 -306h-188l-182 200h-4l-182 -200h-188zM757 1467q311 0 493.5 -201t182.5 -545t-182 -544.5t-494 -200.5t-494 200.5t-182 544.5t182 545t494 201zM757 1270q-206 0 -326.5 -148t-120.5 -401q0 -252 120.5 -400t326.5 -148q205 0 325.5 148t120.5 400
q0 253 -120.5 401t-325.5 148z" />
    <glyph glyph-name="Otilde" unicode="&#xd5;" horiz-adv-x="1513" 
d="M757 1467q311 0 493.5 -201t182.5 -545t-182 -544.5t-494 -200.5t-494 200.5t-182 544.5t182 545t494 201zM757 1270q-206 0 -326.5 -148t-120.5 -401q0 -252 120.5 -400t326.5 -148q205 0 325.5 148t120.5 400q0 253 -120.5 401t-325.5 148zM890 1537q-45 0 -84.5 23
t-63 50t-52 50t-53.5 23q-33 0 -50.5 -34.5t-18.5 -95.5h-129q0 120 51.5 188.5t139.5 68.5q47 0 88 -23t65 -50t51.5 -50t51.5 -23q63 0 63 132h130q0 -118 -52.5 -188.5t-136.5 -70.5z" />
    <glyph glyph-name="Odieresis" unicode="&#xd6;" horiz-adv-x="1513" 
d="M556 1576q-50 0 -85.5 35t-35.5 84t35.5 84t85.5 35t85 -34.5t35 -84.5q0 -49 -35 -84t-85 -35zM959 1576q-50 0 -85.5 35t-35.5 84t35.5 84t85.5 35t85 -34.5t35 -84.5q0 -49 -35 -84t-85 -35zM757 1467q311 0 493.5 -201t182.5 -545t-182 -544.5t-494 -200.5
t-494 200.5t-182 544.5t182 545t494 201zM757 1270q-206 0 -326.5 -148t-120.5 -401q0 -252 120.5 -400t326.5 -148q205 0 325.5 148t120.5 400q0 253 -120.5 401t-325.5 148z" />
    <glyph glyph-name="multiply" unicode="&#xd7;" horiz-adv-x="1271" 
d="M636 451l-307 -306l-130 130l306 306l-306 307l130 130l307 -306l306 306l129 -130l-305 -307l305 -306l-129 -130z" />
    <glyph glyph-name="Oslash" unicode="&#xd8;" horiz-adv-x="1513" 
d="M1114 1078l-605 -830q104 -75 248 -75q205 0 325.5 148t120.5 400q0 216 -89 357zM420 335l614 838q-112 97 -277 97q-206 0 -326.5 -148t-120.5 -401q0 -240 110 -386zM1370 1429l-119 -163q182 -201 182 -545t-182 -544.5t-494 -200.5q-215 0 -374 99l-94 -129l-101 73
l98 134q-205 202 -205 568q0 344 182 545t494 201q238 0 404 -120l108 147z" />
    <glyph glyph-name="Ugrave" unicode="&#xd9;" horiz-adv-x="1434" 
d="M630 1553l-280 303h225l231 -303h-176zM357 1443v-917q0 -158 95.5 -254.5t264.5 -96.5t265 96.5t96 254.5v917h223v-936q0 -237 -158 -384t-426 -147t-426 147t-158 384v936h224z" />
    <glyph glyph-name="Uacute" unicode="&#xda;" horiz-adv-x="1434" 
d="M805 1551h-176l231 303h225zM357 1443v-917q0 -158 95.5 -254.5t264.5 -96.5t265 96.5t96 254.5v917h223v-936q0 -237 -158 -384t-426 -147t-426 147t-158 384v936h224z" />
    <glyph glyph-name="Ucircumflex" unicode="&#xdb;" horiz-adv-x="1434" 
d="M631 1853h172l286 -306h-188l-182 200h-4l-182 -200h-188zM357 1443v-917q0 -158 95.5 -254.5t264.5 -96.5t265 96.5t96 254.5v917h223v-936q0 -237 -158 -384t-426 -147t-426 147t-158 384v936h224z" />
    <glyph glyph-name="Udieresis" unicode="&#xdc;" horiz-adv-x="1434" 
d="M516 1576q-50 0 -85.5 35t-35.5 84t35.5 84t85.5 35t85 -34.5t35 -84.5q0 -49 -35 -84t-85 -35zM919 1576q-50 0 -85.5 35t-35.5 84t35.5 84t85.5 35t85 -34.5t35 -84.5q0 -49 -35 -84t-85 -35zM357 1443v-917q0 -158 95.5 -254.5t264.5 -96.5t265 96.5t96 254.5v917h223
v-936q0 -237 -158 -384t-426 -147t-426 147t-158 384v936h224z" />
    <glyph glyph-name="Yacute" unicode="&#xdd;" horiz-adv-x="1293" 
d="M758 0h-224v591l-508 852h250l368 -637h7l368 637h248l-509 -852v-591zM734 1551h-176l231 303h225z" />
    <glyph glyph-name="Thorn" unicode="&#xde;" horiz-adv-x="1267" 
d="M157 1443h224v-255h350q121 0 220 -50t160 -149t61 -231t-62 -231.5t-163 -150t-223 -50.5h-343v-326h-224v1443zM381 999v-485h287q125 0 200 62.5t75 181.5q0 118 -75 179.5t-200 61.5h-287z" />
    <glyph glyph-name="germandbls" unicode="&#xdf;" horiz-adv-x="1282" 
d="M384 0h-214v1094q0 181 121.5 289t326.5 108q196 0 319.5 -105t123.5 -271q0 -125 -60.5 -216.5t-164.5 -122.5v-7q157 -19 246.5 -117.5t89.5 -251.5q0 -188 -127 -301t-339 -113q-98 0 -157 14v181q53 -15 131 -15q127 0 201.5 65.5t74.5 176.5q0 118 -83.5 183.5
t-232.5 65.5h-65v195h50q106 0 166.5 63.5t60.5 176.5q0 97 -63.5 157t-166.5 60q-113 0 -175.5 -65t-62.5 -182v-1062z" />
    <glyph glyph-name="agrave" unicode="&#xe0;" horiz-adv-x="1092" 
d="M488 162q121 0 202 69.5t81 176.5v85l-264 -18q-225 -14 -225 -160q0 -70 56 -111.5t150 -41.5zM430 -11q-163 0 -265 88.5t-102 233.5q0 142 106.5 223t308.5 94l293 17v84q0 93 -59.5 142.5t-168.5 49.5q-88 0 -148.5 -42t-74.5 -113h-203q5 144 127 239t305 95
q199 0 317.5 -97t118.5 -258v-745h-207v181h-5q-45 -88 -138 -140t-205 -52zM630 1255h-178l-262 303h225z" />
    <glyph glyph-name="aacute" unicode="&#xe1;" horiz-adv-x="1092" 
d="M488 162q121 0 202 69.5t81 176.5v85l-264 -18q-225 -14 -225 -160q0 -70 56 -111.5t150 -41.5zM430 -11q-163 0 -265 88.5t-102 233.5q0 142 106.5 223t308.5 94l293 17v84q0 93 -59.5 142.5t-168.5 49.5q-88 0 -148.5 -42t-74.5 -113h-203q5 144 127 239t305 95
q199 0 317.5 -97t118.5 -258v-745h-207v181h-5q-45 -88 -138 -140t-205 -52zM632 1255h-178l215 303h225z" />
    <glyph glyph-name="acircumflex" unicode="&#xe2;" horiz-adv-x="1092" 
d="M488 162q121 0 202 69.5t81 176.5v85l-264 -18q-225 -14 -225 -160q0 -70 56 -111.5t150 -41.5zM430 -11q-163 0 -265 88.5t-102 233.5q0 142 106.5 223t308.5 94l293 17v84q0 93 -59.5 142.5t-168.5 49.5q-88 0 -148.5 -42t-74.5 -113h-203q5 144 127 239t305 95
q199 0 317.5 -97t118.5 -258v-745h-207v181h-5q-45 -88 -138 -140t-205 -52zM624 1558l273 -307h-185l-164 194h-6l-164 -194h-185l273 307h158z" />
    <glyph glyph-name="atilde" unicode="&#xe3;" horiz-adv-x="1092" 
d="M488 162q121 0 202 69.5t81 176.5v85l-264 -18q-225 -14 -225 -160q0 -70 56 -111.5t150 -41.5zM430 -11q-163 0 -265 88.5t-102 233.5q0 142 106.5 223t308.5 94l293 17v84q0 93 -59.5 142.5t-168.5 49.5q-88 0 -148.5 -42t-74.5 -113h-203q5 144 127 239t305 95
q199 0 317.5 -97t118.5 -258v-745h-207v181h-5q-45 -88 -138 -140t-205 -52zM681 1258q-45 0 -84.5 23t-63 50t-52 50t-53.5 23q-33 0 -50.5 -34.5t-18.5 -95.5h-129q0 120 51.5 188.5t139.5 68.5q47 0 88 -23t65 -50t51.5 -50t51.5 -23q63 0 63 132h130
q0 -118 -52.5 -188.5t-136.5 -70.5z" />
    <glyph glyph-name="adieresis" unicode="&#xe4;" horiz-adv-x="1092" 
d="M488 162q121 0 202 69.5t81 176.5v85l-264 -18q-225 -14 -225 -160q0 -70 56 -111.5t150 -41.5zM430 -11q-163 0 -265 88.5t-102 233.5q0 142 106.5 223t308.5 94l293 17v84q0 93 -59.5 142.5t-168.5 49.5q-88 0 -148.5 -42t-74.5 -113h-203q5 144 127 239t305 95
q199 0 317.5 -97t118.5 -258v-745h-207v181h-5q-45 -88 -138 -140t-205 -52zM344 1260q-50 0 -85.5 35t-35.5 84t35.5 84t85.5 35t85 -34.5t35 -84.5q0 -49 -35 -84t-85 -35zM747 1260q-50 0 -85.5 35t-35.5 84t35.5 84t85.5 35t85 -34.5t35 -84.5q0 -49 -35 -84t-85 -35z
" />
    <glyph glyph-name="aring" unicode="&#xe5;" horiz-adv-x="1092" 
d="M488 162q121 0 202 69.5t81 176.5v85l-264 -18q-225 -14 -225 -160q0 -70 56 -111.5t150 -41.5zM430 -11q-163 0 -265 88.5t-102 233.5q0 142 106.5 223t308.5 94l293 17v84q0 93 -59.5 142.5t-168.5 49.5q-88 0 -148.5 -42t-74.5 -113h-203q5 144 127 239t305 95
q199 0 317.5 -97t118.5 -258v-745h-207v181h-5q-45 -88 -138 -140t-205 -52zM545 1193q-85 0 -146 60.5t-61 144.5q0 85 61 145.5t146 60.5t146 -60.5t61 -145.5q0 -84 -61 -144.5t-146 -60.5zM545 1288q46 0 78.5 32.5t32.5 77.5q0 46 -32.5 78.5t-78.5 32.5t-78.5 -32.5
t-32.5 -78.5q0 -45 32.5 -77.5t78.5 -32.5z" />
    <glyph glyph-name="ae" unicode="&#xe6;" horiz-adv-x="1796" 
d="M1269 -13q-134 0 -237 56.5t-156 160.5h-9q-131 -215 -405 -215q-183 0 -291 86.5t-108 231.5q0 143 107 225.5t307 92.5l293 15v72q0 92 -65.5 150.5t-168.5 58.5q-97 0 -157.5 -42t-67.5 -113h-204q8 147 124.5 240.5t297.5 93.5q133 0 231.5 -52.5t139.5 -144.5h8
q115 197 365 197q211 0 336 -144.5t125 -391.5v-75h-755v-14q0 -142 80 -227t214 -85q91 0 155 41t87 114h207q-24 -149 -149 -240t-304 -91zM1258 923q-117 0 -193 -77t-85 -204h536q-3 130 -72.5 205.5t-185.5 75.5zM479 161q122 0 206.5 71.5t84.5 175.5v80l-269 -16
q-107 -5 -165 -46t-58 -111t55.5 -112t145.5 -42z" />
    <glyph glyph-name="ccedilla" unicode="&#xe7;" horiz-adv-x="1089" 
d="M834 365h207q-17 -155 -124.5 -255.5t-275.5 -118.5l-47 -123q97 0 148.5 -39.5t51.5 -114.5q0 -80 -62.5 -129.5t-163.5 -50.5q-85 -2 -145 17v105q37 -14 118 -14q115 0 115 66q0 34 -32.5 48.5t-108.5 14.5h-55v83l55 136q-208 19 -330.5 166.5t-122.5 386.5
q0 253 139 405t370 152q101 0 187 -30.5t144.5 -83.5t94 -122.5t42.5 -148.5h-207q-16 90 -83.5 146t-175.5 56q-132 0 -211.5 -102t-79.5 -272q0 -174 80 -274t212 -100q106 0 173.5 50.5t86.5 145.5z" />
    <glyph glyph-name="egrave" unicode="&#xe8;" horiz-adv-x="1113" 
d="M649 1255h-178l-262 303h225zM563 923q-117 0 -194.5 -78t-86.5 -203h551q-4 127 -78 204t-192 77zM832 318h207q-23 -146 -153 -238.5t-313 -92.5q-236 0 -373.5 148.5t-137.5 403.5t137 408t365 153q224 0 355 -144.5t131 -391.5v-76h-769v-13q0 -141 81 -226.5
t215 -85.5q95 0 164 42t91 113z" />
    <glyph glyph-name="eacute" unicode="&#xe9;" horiz-adv-x="1113" 
d="M651 1255h-178l215 303h225zM563 923q-117 0 -194.5 -78t-86.5 -203h551q-4 127 -78 204t-192 77zM832 318h207q-23 -146 -153 -238.5t-313 -92.5q-236 0 -373.5 148.5t-137.5 403.5t137 408t365 153q224 0 355 -144.5t131 -391.5v-76h-769v-13q0 -141 81 -226.5
t215 -85.5q95 0 164 42t91 113z" />
    <glyph glyph-name="ecircumflex" unicode="&#xea;" horiz-adv-x="1113" 
d="M643 1558l273 -307h-185l-164 194h-6l-164 -194h-185l273 307h158zM563 923q-117 0 -194.5 -78t-86.5 -203h551q-4 127 -78 204t-192 77zM832 318h207q-23 -146 -153 -238.5t-313 -92.5q-236 0 -373.5 148.5t-137.5 403.5t137 408t365 153q224 0 355 -144.5t131 -391.5
v-76h-769v-13q0 -141 81 -226.5t215 -85.5q95 0 164 42t91 113z" />
    <glyph glyph-name="edieresis" unicode="&#xeb;" horiz-adv-x="1113" 
d="M563 923q-117 0 -194.5 -78t-86.5 -203h551q-4 127 -78 204t-192 77zM832 318h207q-23 -146 -153 -238.5t-313 -92.5q-236 0 -373.5 148.5t-137.5 403.5t137 408t365 153q224 0 355 -144.5t131 -391.5v-76h-769v-13q0 -141 81 -226.5t215 -85.5q95 0 164 42t91 113z
M363 1260q-50 0 -85.5 35t-35.5 84t35.5 84t85.5 35t85 -34.5t35 -84.5q0 -49 -35 -84t-85 -35zM766 1260q-50 0 -85.5 35t-35.5 84t35.5 84t85.5 35t85 -34.5t35 -84.5q0 -49 -35 -84t-85 -35z" />
    <glyph glyph-name="igrave" unicode="&#xec;" horiz-adv-x="455" 
d="M313 1255h-178l-262 303h225zM119 0v1086h217v-1086h-217z" />
    <glyph glyph-name="iacute" unicode="&#xed;" horiz-adv-x="455" 
d="M315 1255h-178l215 303h225zM119 0v1086h217v-1086h-217z" />
    <glyph glyph-name="icircumflex" unicode="&#xee;" horiz-adv-x="455" 
d="M307 1558l273 -307h-185l-164 194h-6l-164 -194h-185l273 307h158zM119 0v1086h217v-1086h-217z" />
    <glyph glyph-name="idieresis" unicode="&#xef;" horiz-adv-x="455" 
d="M119 0v1086h217v-1086h-217zM27 1260q-50 0 -85.5 35t-35.5 84t35.5 84t85.5 35t85 -34.5t35 -84.5q0 -49 -35 -84t-85 -35zM430 1260q-50 0 -85.5 35t-35.5 84t35.5 84t85.5 35t85 -34.5t35 -84.5q0 -49 -35 -84t-85 -35z" />
    <glyph glyph-name="eth" unicode="&#xf0;" horiz-adv-x="1181" 
d="M593 -18q-235 0 -373 146.5t-138 396.5q0 241 129 386t341 145q89 0 171.5 -44t119.5 -111h15q-21 79 -71 170t-107 158l-280 -92l-42 123l229 75q-70 74 -214 188h262q76 -62 136 -128l255 84l43 -122l-203 -65q232 -305 232 -710q0 -277 -136.5 -438.5t-368.5 -161.5z
M595 883q-133 0 -212 -97.5t-79 -261.5t78.5 -261t212.5 -97t213.5 97t79.5 261q0 163 -80 261t-213 98z" />
    <glyph glyph-name="ntilde" unicode="&#xf1;" horiz-adv-x="1148" 
d="M712 1258q-45 0 -84.5 23t-63 50t-52 50t-53.5 23q-33 0 -50.5 -34.5t-18.5 -95.5h-129q0 120 51.5 188.5t139.5 68.5q47 0 88 -23t65 -50t51.5 -50t51.5 -23q63 0 63 132h130q0 -118 -52.5 -188.5t-136.5 -70.5zM111 0v1086h207v-183h4q101 195 343 195
q179 0 278 -106.5t99 -295.5v-696h-217v655q0 257 -235 257q-122 0 -192 -77.5t-70 -207.5v-627h-217z" />
    <glyph glyph-name="ograve" unicode="&#xf2;" horiz-adv-x="1152" 
d="M661 1255h-178l-262 303h225zM576 -13q-236 0 -375 150t-139 406q0 255 139.5 406t374.5 151t374 -150.5t139 -406.5t-138.5 -406t-374.5 -150zM576 167q138 0 215.5 99t77.5 277t-77.5 277.5t-215.5 99.5t-216 -100t-78 -277t78 -276.5t216 -99.5z" />
    <glyph glyph-name="oacute" unicode="&#xf3;" horiz-adv-x="1152" 
d="M663 1255h-178l215 303h225zM576 -13q-236 0 -375 150t-139 406q0 255 139.5 406t374.5 151t374 -150.5t139 -406.5t-138.5 -406t-374.5 -150zM576 167q138 0 215.5 99t77.5 277t-77.5 277.5t-215.5 99.5t-216 -100t-78 -277t78 -276.5t216 -99.5z" />
    <glyph glyph-name="ocircumflex" unicode="&#xf4;" horiz-adv-x="1152" 
d="M655 1558l273 -307h-185l-164 194h-6l-164 -194h-185l273 307h158zM576 -13q-236 0 -375 150t-139 406q0 255 139.5 406t374.5 151t374 -150.5t139 -406.5t-138.5 -406t-374.5 -150zM576 167q138 0 215.5 99t77.5 277t-77.5 277.5t-215.5 99.5t-216 -100t-78 -277
t78 -276.5t216 -99.5z" />
    <glyph glyph-name="otilde" unicode="&#xf5;" horiz-adv-x="1152" 
d="M712 1258q-45 0 -84.5 23t-63 50t-52 50t-53.5 23q-33 0 -50.5 -34.5t-18.5 -95.5h-129q0 120 51.5 188.5t139.5 68.5q47 0 88 -23t65 -50t51.5 -50t51.5 -23q63 0 63 132h130q0 -118 -52.5 -188.5t-136.5 -70.5zM576 -13q-236 0 -375 150t-139 406q0 255 139.5 406
t374.5 151t374 -150.5t139 -406.5t-138.5 -406t-374.5 -150zM576 167q138 0 215.5 99t77.5 277t-77.5 277.5t-215.5 99.5t-216 -100t-78 -277t78 -276.5t216 -99.5z" />
    <glyph glyph-name="odieresis" unicode="&#xf6;" horiz-adv-x="1152" 
d="M375 1260q-50 0 -85.5 35t-35.5 84t35.5 84t85.5 35t85 -34.5t35 -84.5q0 -49 -35 -84t-85 -35zM778 1260q-50 0 -85.5 35t-35.5 84t35.5 84t85.5 35t85 -34.5t35 -84.5q0 -49 -35 -84t-85 -35zM576 -13q-236 0 -375 150t-139 406q0 255 139.5 406t374.5 151t374 -150.5
t139 -406.5t-138.5 -406t-374.5 -150zM576 167q138 0 215.5 99t77.5 277t-77.5 277.5t-215.5 99.5t-216 -100t-78 -277t78 -276.5t216 -99.5z" />
    <glyph glyph-name="divide" unicode="&#xf7;" horiz-adv-x="1270" 
d="M636 805q-62 0 -101 38t-39 99q0 60 39.5 98.5t100.5 38.5t100.5 -38.5t39.5 -98.5t-39.5 -98.5t-100.5 -38.5zM636 68q-62 0 -101 38t-39 99q0 60 39.5 98.5t100.5 38.5t100.5 -38.5t39.5 -98.5t-39.5 -98.5t-100.5 -38.5zM1155 487h-1039v173h1039v-173z" />
    <glyph glyph-name="oslash" unicode="&#xf8;" horiz-adv-x="1152" 
d="M814 787l-384 -583q63 -37 146 -37q138 0 215.5 99t77.5 277q0 149 -55 244zM341 293l389 585q-67 42 -154 42q-138 0 -216 -100t-78 -277q0 -154 59 -250zM1003 1074l-70 -107q156 -150 156 -424q0 -256 -138.5 -406t-374.5 -150q-141 0 -252 57l-61 -93l-104 67l64 97
q-161 150 -161 428q0 255 139.5 406t374.5 151q150 0 260 -62l65 98z" />
    <glyph glyph-name="ugrave" unicode="&#xf9;" horiz-adv-x="1148" 
d="M657 1255h-178l-262 303h225zM1037 1086v-1086h-207v186h-4q-97 -198 -339 -198q-178 0 -279.5 107.5t-101.5 294.5v696h217v-655q0 -126 59.5 -191t176.5 -65q121 0 191 77.5t70 207.5v626h217z" />
    <glyph glyph-name="uacute" unicode="&#xfa;" horiz-adv-x="1148" 
d="M659 1255h-178l215 303h225zM1037 1086v-1086h-207v186h-4q-97 -198 -339 -198q-178 0 -279.5 107.5t-101.5 294.5v696h217v-655q0 -126 59.5 -191t176.5 -65q121 0 191 77.5t70 207.5v626h217z" />
    <glyph glyph-name="ucircumflex" unicode="&#xfb;" horiz-adv-x="1148" 
d="M651 1558l273 -307h-185l-164 194h-6l-164 -194h-185l273 307h158zM1037 1086v-1086h-207v186h-4q-97 -198 -339 -198q-178 0 -279.5 107.5t-101.5 294.5v696h217v-655q0 -126 59.5 -191t176.5 -65q121 0 191 77.5t70 207.5v626h217z" />
    <glyph glyph-name="udieresis" unicode="&#xfc;" horiz-adv-x="1148" 
d="M1037 1086v-1086h-207v186h-4q-97 -198 -339 -198q-178 0 -279.5 107.5t-101.5 294.5v696h217v-655q0 -126 59.5 -191t176.5 -65q121 0 191 77.5t70 207.5v626h217zM371 1260q-50 0 -85.5 35t-35.5 84t35.5 84t85.5 35t85 -34.5t35 -84.5q0 -49 -35 -84t-85 -35z
M774 1260q-50 0 -85.5 35t-35.5 84t35.5 84t85.5 35t85 -34.5t35 -84.5q0 -49 -35 -84t-85 -35z" />
    <glyph glyph-name="yacute" unicode="&#xfd;" horiz-adv-x="1066" 
d="M220 -395q-54 0 -88 6v176q20 -5 69 -5q78 0 123.5 36.5t73.5 122.5l17 56l-394 1089h233l279 -888h5l279 888h228l-407 -1136q-70 -195 -160.5 -270t-257.5 -75zM621 1255h-178l215 303h225z" />
    <glyph glyph-name="thorn" unicode="&#xfe;" horiz-adv-x="1201" 
d="M686 1105q208 0 329.5 -151.5t121.5 -410.5q0 -257 -122 -409t-328 -152q-116 0 -205 48t-131 134h-16v-519h-215v1861h209v-600h16q50 93 140 146t201 53zM624 166q137 0 214.5 100t77.5 277t-77.5 277.5t-213.5 100.5t-215 -101.5t-79 -276.5q0 -174 79 -275.5
t214 -101.5z" />
    <glyph glyph-name="ydieresis" unicode="&#xff;" horiz-adv-x="1066" 
d="M220 -395q-54 0 -88 6v176q20 -5 69 -5q78 0 123.5 36.5t73.5 122.5l17 56l-394 1089h233l279 -888h5l279 888h228l-407 -1136q-70 -195 -160.5 -270t-257.5 -75zM333 1260q-50 0 -85.5 35t-35.5 84t35.5 84t85.5 35t85 -34.5t35 -84.5q0 -49 -35 -84t-85 -35zM736 1260
q-50 0 -85.5 35t-35.5 84t35.5 84t85.5 35t85 -34.5t35 -84.5q0 -49 -35 -84t-85 -35z" />
    <glyph glyph-name="Amacron" unicode="&#x100;" horiz-adv-x="1336" 
d="M1073 0l-132 390h-550l-132 -390h-233l521 1443h242l521 -1443h-237zM663 1203l-215 -633h436l-215 633h-6zM995 1755v-119h-654v119h654z" />
    <glyph glyph-name="amacron" unicode="&#x101;" horiz-adv-x="1092" 
d="M488 162q121 0 202 69.5t81 176.5v85l-264 -18q-225 -14 -225 -160q0 -70 56 -111.5t150 -41.5zM430 -11q-163 0 -265 88.5t-102 233.5q0 142 106.5 223t308.5 94l293 17v84q0 93 -59.5 142.5t-168.5 49.5q-88 0 -148.5 -42t-74.5 -113h-203q5 144 127 239t305 95
q199 0 317.5 -97t118.5 -258v-745h-207v181h-5q-45 -88 -138 -140t-205 -52zM868 1431v-119h-646v119h646z" />
    <glyph glyph-name="Abreve" unicode="&#x102;" horiz-adv-x="1336" 
d="M1073 0l-132 390h-550l-132 -390h-233l521 1443h242l521 -1443h-237zM663 1203l-215 -633h436l-215 633h-6zM343 1853h140q0 -80 52.5 -134t132.5 -54t132.5 54t52.5 134h140q-1 -134 -90.5 -220t-234.5 -86t-234.5 86t-90.5 220z" />
    <glyph glyph-name="abreve" unicode="&#x103;" horiz-adv-x="1092" 
d="M488 162q121 0 202 69.5t81 176.5v85l-264 -18q-225 -14 -225 -160q0 -70 56 -111.5t150 -41.5zM430 -11q-163 0 -265 88.5t-102 233.5q0 142 106.5 223t308.5 94l293 17v84q0 93 -59.5 142.5t-168.5 49.5q-88 0 -148.5 -42t-74.5 -113h-203q5 144 127 239t305 95
q199 0 317.5 -97t118.5 -258v-745h-207v181h-5q-45 -88 -138 -140t-205 -52zM209 1557h143q1 -82 55.5 -137.5t136.5 -55.5t136.5 55.5t55.5 137.5h143q-1 -139 -93 -226.5t-242 -87.5t-242 87.5t-93 226.5z" />
    <glyph glyph-name="Aogonek" unicode="&#x104;" horiz-adv-x="1336" 
d="M663 1203l-215 -633h436l-215 633h-6zM1277 -425q-48 -18 -116 -18q-112 0 -183.5 59.5t-71.5 152.5q0 137 165 238l-130 383h-550l-132 -390h-233l521 1443h242l521 -1443l-21 -3q-85 -24 -139 -76.5t-54 -110.5q0 -44 31 -70.5t83 -26.5q48 0 67 6v-144z" />
    <glyph glyph-name="aogonek" unicode="&#x105;" horiz-adv-x="1092" 
d="M488 162q121 0 202 69.5t81 176.5v85l-264 -18q-225 -14 -225 -160q0 -70 56 -111.5t150 -41.5zM967 -425q-46 -18 -116 -18q-112 0 -183 59t-71 151q0 76 50 141.5t131 97.5v175h-5q-45 -88 -138 -140t-205 -52q-163 0 -265 88.5t-102 233.5q0 142 106.5 223t308.5 94
l293 17v84q0 93 -59.5 142.5t-168.5 49.5q-88 0 -148.5 -42t-74.5 -113h-203q5 144 127 239t305 95q199 0 317.5 -97t118.5 -258v-745l-20 -6q-82 -29 -130.5 -78.5t-48.5 -105.5q0 -43 31.5 -70t82.5 -27q48 0 67 6v-144z" />
    <glyph glyph-name="Cacute" unicode="&#x106;" horiz-adv-x="1424" 
d="M826 1553h-176l231 303h225zM742 -24q-304 0 -482.5 201t-178.5 545q0 342 179 543.5t482 201.5q246 0 415 -138.5t197 -363.5h-222q-30 139 -136.5 222.5t-253.5 83.5q-197 0 -314.5 -149.5t-117.5 -399.5q0 -253 117 -401.5t316 -148.5q150 0 252.5 73t136.5 204h223
q-41 -224 -202.5 -348.5t-410.5 -124.5z" />
    <glyph glyph-name="cacute" unicode="&#x107;" horiz-adv-x="1089" 
d="M1039 715h-207q-16 90 -83.5 146t-175.5 56q-132 0 -211.5 -102t-79.5 -272q0 -174 80 -274t212 -100q106 0 173.5 50.5t86.5 145.5h207q-19 -171 -146 -274.5t-322 -103.5q-232 0 -371.5 150t-139.5 406q0 253 139 405t370 152q101 0 187 -30.5t144.5 -83.5t94 -122.5
t42.5 -148.5zM653 1255h-178l215 303h225z" />
    <glyph glyph-name="Ccircumflex" unicode="&#x108;" horiz-adv-x="1424" 
d="M742 -24q-304 0 -482.5 201t-178.5 545q0 342 179 543.5t482 201.5q246 0 415 -138.5t197 -363.5h-222q-30 139 -136.5 222.5t-253.5 83.5q-197 0 -314.5 -149.5t-117.5 -399.5q0 -253 117 -401.5t316 -148.5q150 0 252.5 73t136.5 204h223q-41 -224 -202.5 -348.5
t-410.5 -124.5zM652 1855h172l286 -306h-188l-182 200h-4l-182 -200h-188z" />
    <glyph glyph-name="ccircumflex" unicode="&#x109;" horiz-adv-x="1089" 
d="M645 1558l273 -307h-185l-164 194h-6l-164 -194h-185l273 307h158zM1039 715h-207q-16 90 -83.5 146t-175.5 56q-132 0 -211.5 -102t-79.5 -272q0 -174 80 -274t212 -100q106 0 173.5 50.5t86.5 145.5h207q-19 -171 -146 -274.5t-322 -103.5q-232 0 -371.5 150
t-139.5 406q0 253 139 405t370 152q101 0 187 -30.5t144.5 -83.5t94 -122.5t42.5 -148.5z" />
    <glyph glyph-name="Cdotaccent" unicode="&#x10a;" horiz-adv-x="1424" 
d="M738 1578q-55 0 -93 38.5t-38 92.5q0 55 38 93t93 38t93 -38t38 -93q0 -54 -38 -92.5t-93 -38.5zM742 -24q-304 0 -482.5 201t-178.5 545q0 342 179 543.5t482 201.5q246 0 415 -138.5t197 -363.5h-222q-30 139 -136.5 222.5t-253.5 83.5q-197 0 -314.5 -149.5
t-117.5 -399.5q0 -253 117 -401.5t316 -148.5q150 0 252.5 73t136.5 204h223q-41 -224 -202.5 -348.5t-410.5 -124.5z" />
    <glyph glyph-name="cdotaccent" unicode="&#x10b;" horiz-adv-x="1089" 
d="M1039 715h-207q-16 90 -83.5 146t-175.5 56q-132 0 -211.5 -102t-79.5 -272q0 -174 80 -274t212 -100q106 0 173.5 50.5t86.5 145.5h207q-19 -171 -146 -274.5t-322 -103.5q-232 0 -371.5 150t-139.5 406q0 253 139 405t370 152q101 0 187 -30.5t144.5 -83.5t94 -122.5
t42.5 -148.5zM566 1262q-55 0 -94.5 39t-39.5 93q0 55 39.5 94t94.5 39t94 -39t39 -94q0 -54 -39 -93t-94 -39z" />
    <glyph glyph-name="Ccaron" unicode="&#x10c;" horiz-adv-x="1424" 
d="M742 -24q-304 0 -482.5 201t-178.5 545q0 342 179 543.5t482 201.5q246 0 415 -138.5t197 -363.5h-222q-30 139 -136.5 222.5t-253.5 83.5q-197 0 -314.5 -149.5t-117.5 -399.5q0 -253 117 -401.5t316 -148.5q150 0 252.5 73t136.5 204h223q-41 -224 -202.5 -348.5
t-410.5 -124.5zM652 1549l-286 306h188l182 -199h4l182 199h188l-286 -306h-172z" />
    <glyph glyph-name="ccaron" unicode="&#x10d;" horiz-adv-x="1089" 
d="M645 1251h-158l-273 307h185l164 -194h6l164 194h185zM1039 715h-207q-16 90 -83.5 146t-175.5 56q-132 0 -211.5 -102t-79.5 -272q0 -174 80 -274t212 -100q106 0 173.5 50.5t86.5 145.5h207q-19 -171 -146 -274.5t-322 -103.5q-232 0 -371.5 150t-139.5 406
q0 253 139 405t370 152q101 0 187 -30.5t144.5 -83.5t94 -122.5t42.5 -148.5z" />
    <glyph glyph-name="Dcaron" unicode="&#x10e;" horiz-adv-x="1413" 
d="M498 1547l-286 306h188l182 -199h4l182 199h188l-286 -306h-172zM133 1443h517q323 0 503 -189t180 -530q0 -342 -180 -533t-503 -191h-517v1443zM357 1250v-1056h272q230 0 353 136.5t123 391.5t-123 391.5t-353 136.5h-272z" />
    <glyph glyph-name="dcaron" unicode="&#x10f;" horiz-adv-x="1358" 
d="M1232 1506h168l-34 -493h-134v493zM520 -11q-205 0 -331.5 152t-126.5 403q0 249 126.5 401t329.5 152q116 0 205.5 -50.5t136.5 -140.5h5v602h216v-1508h-210v184h-4q-48 -93 -138.5 -144t-208.5 -51zM575 913q-131 0 -211 -101t-80 -269q0 -169 79.5 -269.5
t211.5 -100.5q131 0 211 102t80 268t-80.5 268t-210.5 102z" />
    <glyph glyph-name="Dcroat" unicode="&#x110;" horiz-adv-x="1428" 
d="M372 194h272q230 0 353 136.5t123 391.5t-123 391.5t-353 136.5h-272v-418h269v-184h-269v-454zM148 1443h517q323 0 503 -189t180 -530q0 -342 -180 -533t-503 -191h-517v648h-118v184h118v611z" />
    <glyph glyph-name="dcroat" unicode="&#x111;" horiz-adv-x="1221" 
d="M575 173q131 0 211 102t80 268t-80.5 268t-210.5 102q-131 0 -211 -101t-80 -269q0 -169 79.5 -269.5t211.5 -100.5zM1203 1395v-133h-122v-1262h-210v184h-4q-48 -93 -138.5 -144t-208.5 -51q-205 0 -331.5 152t-126.5 403q0 249 126.5 401t329.5 152q116 0 205.5 -50.5
t136.5 -140.5h5v356h-237v133h237v113h216v-113h122z" />
    <glyph glyph-name="Emacron" unicode="&#x112;" horiz-adv-x="1146" 
d="M1049 194v-194h-916v1443h916v-193h-692v-422h655v-186h-655v-448h692zM918 1755v-119h-654v119h654z" />
    <glyph glyph-name="emacron" unicode="&#x113;" horiz-adv-x="1113" 
d="M563 923q-117 0 -194.5 -78t-86.5 -203h551q-4 127 -78 204t-192 77zM832 318h207q-23 -146 -153 -238.5t-313 -92.5q-236 0 -373.5 148.5t-137.5 403.5t137 408t365 153q224 0 355 -144.5t131 -391.5v-76h-769v-13q0 -141 81 -226.5t215 -85.5q95 0 164 42t91 113z
M887 1431v-119h-646v119h646z" />
    <glyph glyph-name="Ebreve" unicode="&#x114;" horiz-adv-x="1146" 
d="M1049 194v-194h-916v1443h916v-193h-692v-422h655v-186h-655v-448h692zM266 1853h140q0 -80 52.5 -134t132.5 -54t132.5 54t52.5 134h140q-1 -134 -90.5 -220t-234.5 -86t-234.5 86t-90.5 220z" />
    <glyph glyph-name="ebreve" unicode="&#x115;" horiz-adv-x="1113" 
d="M563 923q-117 0 -194.5 -78t-86.5 -203h551q-4 127 -78 204t-192 77zM832 318h207q-23 -146 -153 -238.5t-313 -92.5q-236 0 -373.5 148.5t-137.5 403.5t137 408t365 153q224 0 355 -144.5t131 -391.5v-76h-769v-13q0 -141 81 -226.5t215 -85.5q95 0 164 42t91 113z
M228 1557h143q1 -82 55.5 -137.5t136.5 -55.5t136.5 55.5t55.5 137.5h143q-1 -139 -93 -226.5t-242 -87.5t-242 87.5t-93 226.5z" />
    <glyph glyph-name="Edotaccent" unicode="&#x116;" horiz-adv-x="1146" 
d="M591 1576q-55 0 -93 38.5t-38 92.5q0 55 38 93t93 38t93 -38t38 -93q0 -54 -38 -92.5t-93 -38.5zM1049 194v-194h-916v1443h916v-193h-692v-422h655v-186h-655v-448h692z" />
    <glyph glyph-name="edotaccent" unicode="&#x117;" horiz-adv-x="1113" 
d="M564 1262q-55 0 -94.5 39t-39.5 93q0 55 39.5 94t94.5 39t94 -39t39 -94q0 -54 -39 -93t-94 -39zM563 923q-117 0 -194.5 -78t-86.5 -203h551q-4 127 -78 204t-192 77zM832 318h207q-23 -146 -153 -238.5t-313 -92.5q-236 0 -373.5 148.5t-137.5 403.5t137 408t365 153
q224 0 355 -144.5t131 -391.5v-76h-769v-13q0 -141 81 -226.5t215 -85.5q95 0 164 42t91 113z" />
    <glyph glyph-name="Eogonek" unicode="&#x118;" horiz-adv-x="1146" 
d="M883 -443q-111 0 -182.5 59.5t-71.5 152.5q0 67 38.5 127t108.5 100v4h-643v1443h916v-193h-692v-422h655v-186h-655v-448h692v-184l-44 -13q-78 -23 -132.5 -76t-54.5 -111q0 -43 31.5 -70t82.5 -27q46 0 67 6v-144q-48 -18 -116 -18z" />
    <glyph glyph-name="eogonek" unicode="&#x119;" horiz-adv-x="1113" 
d="M764 -443q-112 0 -183 59t-71 151q0 127 133 220v5q-27 -5 -70 -5q-236 0 -373.5 148.5t-137.5 403.5t137 408t365 153q224 0 355 -144.5t131 -391.5v-76h-769v-13q0 -141 81 -226.5t215 -85.5q95 0 163.5 42t91.5 113h207q-25 -149 -193 -279q-147 -116 -147 -227
q0 -44 31 -71.5t83 -27.5q47 0 67 6v-144q-46 -18 -116 -18zM563 923q-117 0 -194.5 -78t-86.5 -203h551q-4 127 -78 204t-192 77z" />
    <glyph glyph-name="Ecaron" unicode="&#x11a;" horiz-adv-x="1146" 
d="M505 1547l-286 306h188l182 -199h4l182 199h188l-286 -306h-172zM1049 194v-194h-916v1443h916v-193h-692v-422h655v-186h-655v-448h692z" />
    <glyph glyph-name="ecaron" unicode="&#x11b;" horiz-adv-x="1113" 
d="M643 1251h-158l-273 307h185l164 -194h6l164 194h185zM563 923q-117 0 -194.5 -78t-86.5 -203h551q-4 127 -78 204t-192 77zM832 318h207q-23 -146 -153 -238.5t-313 -92.5q-236 0 -373.5 148.5t-137.5 403.5t137 408t365 153q224 0 355 -144.5t131 -391.5v-76h-769v-13
q0 -141 81 -226.5t215 -85.5q95 0 164 42t91 113z" />
    <glyph glyph-name="Gcircumflex" unicode="&#x11c;" horiz-adv-x="1462" 
d="M661 1853h172l286 -306h-188l-182 200h-4l-182 -200h-188zM1376 600q0 -293 -164.5 -458.5t-457.5 -165.5q-310 0 -491.5 202.5t-181.5 549.5q0 341 180.5 540t489.5 199q241 0 408.5 -131t205.5 -347h-230q-40 134 -141 208t-242 74q-207 0 -324.5 -143.5t-117.5 -397.5
q0 -259 120 -408.5t326 -149.5q175 0 286 102.5t113 266.5v25h-373v181h594v-147z" />
    <glyph glyph-name="gcircumflex" unicode="&#x11d;" horiz-adv-x="1192" 
d="M653 1558l273 -307h-185l-164 194h-6l-164 -194h-185l273 307h158zM572 183q132 0 212.5 99.5t80.5 263.5q0 165 -80.5 266t-212.5 101q-131 0 -209.5 -100t-78.5 -267q0 -166 78.5 -264.5t209.5 -98.5zM573 -391q-196 0 -324 84t-144 223h219q18 -63 88 -100t170 -37
q129 0 206 63t77 169v179h-5q-47 -88 -138.5 -137.5t-206.5 -49.5q-204 0 -328.5 148.5t-124.5 395.5q0 251 124.5 400.5t333.5 149.5q115 0 206 -50.5t141 -140.5h4v180h210v-1058q0 -194 -136.5 -306.5t-371.5 -112.5z" />
    <glyph glyph-name="Gbreve" unicode="&#x11e;" horiz-adv-x="1462" 
d="M1376 600q0 -293 -164.5 -458.5t-457.5 -165.5q-310 0 -491.5 202.5t-181.5 549.5q0 341 180.5 540t489.5 199q241 0 408.5 -131t205.5 -347h-230q-40 134 -141 208t-242 74q-207 0 -324.5 -143.5t-117.5 -397.5q0 -259 120 -408.5t326 -149.5q175 0 286 102.5t113 266.5
v25h-373v181h594v-147zM422 1853h140q0 -80 52.5 -134t132.5 -54t132.5 54t52.5 134h140q-1 -134 -90.5 -220t-234.5 -86t-234.5 86t-90.5 220z" />
    <glyph glyph-name="gbreve" unicode="&#x11f;" horiz-adv-x="1192" 
d="M238 1557h143q1 -82 55.5 -137.5t136.5 -55.5t136.5 55.5t55.5 137.5h143q-1 -139 -93 -226.5t-242 -87.5t-242 87.5t-93 226.5zM572 183q132 0 212.5 99.5t80.5 263.5q0 165 -80.5 266t-212.5 101q-131 0 -209.5 -100t-78.5 -267q0 -166 78.5 -264.5t209.5 -98.5z
M573 -391q-196 0 -324 84t-144 223h219q18 -63 88 -100t170 -37q129 0 206 63t77 169v179h-5q-47 -88 -138.5 -137.5t-206.5 -49.5q-204 0 -328.5 148.5t-124.5 395.5q0 251 124.5 400.5t333.5 149.5q115 0 206 -50.5t141 -140.5h4v180h210v-1058q0 -194 -136.5 -306.5
t-371.5 -112.5z" />
    <glyph glyph-name="Gdotaccent" unicode="&#x120;" horiz-adv-x="1462" 
d="M747 1576q-55 0 -93 38.5t-38 92.5q0 55 38 93t93 38t93 -38t38 -93q0 -54 -38 -92.5t-93 -38.5zM1376 600q0 -293 -164.5 -458.5t-457.5 -165.5q-310 0 -491.5 202.5t-181.5 549.5q0 341 180.5 540t489.5 199q241 0 408.5 -131t205.5 -347h-230q-40 134 -141 208
t-242 74q-207 0 -324.5 -143.5t-117.5 -397.5q0 -259 120 -408.5t326 -149.5q175 0 286 102.5t113 266.5v25h-373v181h594v-147z" />
    <glyph glyph-name="gdotaccent" unicode="&#x121;" horiz-adv-x="1192" 
d="M574 1262q-55 0 -94.5 39t-39.5 93q0 55 39.5 94t94.5 39t94 -39t39 -94q0 -54 -39 -93t-94 -39zM572 183q132 0 212.5 99.5t80.5 263.5q0 165 -80.5 266t-212.5 101q-131 0 -209.5 -100t-78.5 -267q0 -166 78.5 -264.5t209.5 -98.5zM573 -391q-196 0 -324 84t-144 223
h219q18 -63 88 -100t170 -37q129 0 206 63t77 169v179h-5q-47 -88 -138.5 -137.5t-206.5 -49.5q-204 0 -328.5 148.5t-124.5 395.5q0 251 124.5 400.5t333.5 149.5q115 0 206 -50.5t141 -140.5h4v180h210v-1058q0 -194 -136.5 -306.5t-371.5 -112.5z" />
    <glyph glyph-name="Gcommaaccent" unicode="&#x122;" horiz-adv-x="1462" 
d="M730 -526h-159l102 360h190zM1376 600q0 -293 -164.5 -458.5t-457.5 -165.5q-310 0 -491.5 202.5t-181.5 549.5q0 341 180.5 540t489.5 199q241 0 408.5 -131t205.5 -347h-230q-40 134 -141 208t-242 74q-207 0 -324.5 -143.5t-117.5 -397.5q0 -259 120 -408.5
t326 -149.5q175 0 286 102.5t113 266.5v25h-373v181h594v-147z" />
    <glyph glyph-name="gcommaaccent" unicode="&#x123;" horiz-adv-x="1192" 
d="M559 -898h-159l102 360h190zM572 183q132 0 212.5 99.5t80.5 263.5q0 165 -80.5 266t-212.5 101q-131 0 -209.5 -100t-78.5 -267q0 -166 78.5 -264.5t209.5 -98.5zM573 -391q-196 0 -324 84t-144 223h219q18 -63 88 -100t170 -37q129 0 206 63t77 169v179h-5
q-47 -88 -138.5 -137.5t-206.5 -49.5q-204 0 -328.5 148.5t-124.5 395.5q0 251 124.5 400.5t333.5 149.5q115 0 206 -50.5t141 -140.5h4v180h210v-1058q0 -194 -136.5 -306.5t-371.5 -112.5z" />
    <glyph glyph-name="Hcircumflex" unicode="&#x124;" horiz-adv-x="1454" 
d="M1322 0h-224v639h-741v-639h-224v1443h224v-610h741v610h224v-1443zM641 1853h172l286 -306h-188l-182 200h-4l-182 -200h-188z" />
    <glyph glyph-name="hcircumflex" unicode="&#x125;" horiz-adv-x="1171" 
d="M120 0v1508h215v-605h5q99 195 343 195q178 0 280 -109.5t102 -294.5v-694h-217v652q0 123 -61 191.5t-179 68.5q-126 0 -198.5 -79t-72.5 -211v-622h-217zM143 1918h172l286 -306h-188l-182 200h-4l-182 -200h-188z" />
    <glyph glyph-name="Hbar" unicode="&#x126;" horiz-adv-x="1464" 
d="M1103 833v234h-741v-234h741zM1451 1234v-167h-124v-1067h-224v639h-741v-639h-224v1067h-125v167h125v209h224v-209h741v209h224v-209h124z" />
    <glyph glyph-name="hbar" unicode="&#x127;" horiz-adv-x="1171" 
d="M335 903h5q99 195 343 195q178 0 280 -109.5t102 -294.5v-694h-217v652q0 123 -61 191.5t-179 68.5q-126 0 -198.5 -79t-72.5 -211v-622h-217v1262h-102v133h102v113h215v-113h256v-133h-256v-359z" />
    <glyph glyph-name="Itilde" unicode="&#x128;" horiz-adv-x="490" 
d="M357 0h-224v1443h224v-1443zM378 1537q-45 0 -84.5 23t-63 50t-52 50t-53.5 23q-33 0 -50.5 -34.5t-18.5 -95.5h-129q0 120 51.5 188.5t139.5 68.5q47 0 88 -23t65 -50t51.5 -50t51.5 -23q63 0 63 132h130q0 -118 -52.5 -188.5t-136.5 -70.5z" />
    <glyph glyph-name="itilde" unicode="&#x129;" horiz-adv-x="455" 
d="M119 0v1086h217v-1086h-217zM364 1258q-45 0 -84.5 23t-63 50t-52 50t-53.5 23q-33 0 -50.5 -34.5t-18.5 -95.5h-129q0 120 51.5 188.5t139.5 68.5q47 0 88 -23t65 -50t51.5 -50t51.5 -23q63 0 63 132h130q0 -118 -52.5 -188.5t-136.5 -70.5z" />
    <glyph glyph-name="Imacron" unicode="&#x12a;" horiz-adv-x="490" 
d="M357 0h-224v1443h224v-1443zM572 1755v-119h-654v119h654z" />
    <glyph glyph-name="imacron" unicode="&#x12b;" horiz-adv-x="455" 
d="M119 0v1086h217v-1086h-217zM551 1431v-119h-646v119h646z" />
    <glyph glyph-name="Ibreve" unicode="&#x12c;" horiz-adv-x="490" 
d="M357 0h-224v1443h224v-1443zM-80 1853h140q0 -80 52.5 -134t132.5 -54t132.5 54t52.5 134h140q-1 -134 -90.5 -220t-234.5 -86t-234.5 86t-90.5 220z" />
    <glyph glyph-name="ibreve" unicode="&#x12d;" horiz-adv-x="455" 
d="M119 0v1086h217v-1086h-217zM-108 1557h143q1 -82 55.5 -137.5t136.5 -55.5t136.5 55.5t55.5 137.5h143q-1 -139 -93 -226.5t-242 -87.5t-242 87.5t-93 226.5z" />
    <glyph glyph-name="Iogonek" unicode="&#x12e;" horiz-adv-x="490" 
d="M133 -10v1453h224v-1443l-12 -4q-156 -84 -156 -185q0 -44 32.5 -71t84.5 -27q43 0 67 6v-144q-47 -18 -118 -18q-112 0 -182.5 59t-70.5 151q0 138 131 223z" />
    <glyph glyph-name="iogonek" unicode="&#x12f;" horiz-adv-x="455" 
d="M228 1241q-53 0 -90 36.5t-37 88.5q0 53 37 89t90 36t90 -36t37 -89q0 -52 -37 -88.5t-90 -36.5zM119 -4v1090h217v-1086l-15 -4q-152 -80 -152 -184q0 -44 32 -71.5t84 -27.5q41 0 67 6v-144q-48 -18 -115 -18q-113 0 -184.5 59.5t-71.5 152.5q0 66 36.5 126t101.5 101z
" />
    <glyph glyph-name="Idotaccent" unicode="&#x130;" horiz-adv-x="490" 
d="M357 0h-224v1443h224v-1443zM245 1576q-55 0 -93 38.5t-38 92.5q0 55 38 93t93 38t93 -38t38 -93q0 -54 -38 -92.5t-93 -38.5z" />
    <glyph glyph-name="dotlessi" unicode="&#x131;" horiz-adv-x="455" 
d="M119 0v1086h217v-1086h-217z" />
    <glyph glyph-name="u0132" unicode="&#x132;" horiz-adv-x="1550" 
d="M357 0h-224v1443h224v-1443zM528 370h220q2 -90 61.5 -146t153.5 -56q110 0 168.5 64.5t58.5 188.5v1022h224v-1023q0 -214 -119 -333t-330 -119q-195 0 -316 111t-121 291z" />
    <glyph glyph-name="u0133" unicode="&#x133;" horiz-adv-x="910" 
d="M119 0v1086h217v-1086h-217zM228 1241q-53 0 -90 36.5t-37 88.5q0 53 37 89t90 36t90 -36t37 -89q0 -52 -37 -88.5t-90 -36.5zM791 1086v-1133q0 -166 -87 -245.5t-266 -79.5q-5 0 -25.5 0.5t-22.5 0.5v172h31q84 0 118.5 35t34.5 118v1132h217zM683 1241q-53 0 -90 36.5
t-37 88.5q0 53 37 89t90 36t90 -36t37 -89q0 -52 -37 -88.5t-90 -36.5z" />
    <glyph glyph-name="Jcircumflex" unicode="&#x134;" horiz-adv-x="1060" 
d="M38 370h220q2 -90 61.5 -146t153.5 -56q110 0 168.5 64.5t58.5 188.5v1022h224v-1023q0 -214 -119 -333t-330 -119q-195 0 -316 111t-121 291zM727 1853h172l286 -306h-188l-182 200h-4l-182 -200h-188z" />
    <glyph glyph-name="jcircumflex" unicode="&#x135;" horiz-adv-x="454" 
d="M336 1086v-1133q0 -166 -87 -245.5t-266 -79.5q-5 0 -25.5 0.5t-22.5 0.5v172h31q84 0 118.5 35t34.5 118v1132h217zM306 1558l273 -307h-185l-164 194h-6l-164 -194h-185l273 307h158z" />
    <glyph glyph-name="Kcommaaccent" unicode="&#x136;" horiz-adv-x="1293" 
d="M357 0h-224v1443h224v-687h9l603 687h266l-572 -639l620 -804h-278l-500 650l-148 -169v-481zM612 -526h-159l102 360h190z" />
    <glyph glyph-name="kcommaaccent" unicode="&#x137;" horiz-adv-x="1062" 
d="M338 617l447 469h255l-454 -468l470 -618h-250l-375 486l-94 -92v-394h-217v1508h217v-891h1zM549 -526h-159l102 360h190z" />
    <glyph glyph-name="Lacute" unicode="&#x139;" horiz-adv-x="1088" 
d="M333 1551h-176l231 303h225zM1029 194v-194h-896v1443h224v-1249h672z" />
    <glyph glyph-name="lacute" unicode="&#x13a;" horiz-adv-x="457" 
d="M317 1616h-176l231 303h225zM120 0v1508h217v-1508h-217z" />
    <glyph glyph-name="Lcommaaccent" unicode="&#x13b;" horiz-adv-x="1088" 
d="M560 -526h-159l102 360h190zM1029 194v-194h-896v1443h224v-1249h672z" />
    <glyph glyph-name="lcommaaccent" unicode="&#x13c;" horiz-adv-x="457" 
d="M212 -526h-159l102 360h190zM120 0v1508h217v-1508h-217z" />
    <glyph glyph-name="Lcaron" unicode="&#x13d;" horiz-adv-x="1088" 
d="M620 1443h197l-50 -493h-147v493zM1029 194v-194h-896v1443h224v-1249h672z" />
    <glyph glyph-name="lcaron" unicode="&#x13e;" horiz-adv-x="619" 
d="M488 1506h168l-34 -493h-134v493zM120 0v1508h217v-1508h-217z" />
    <glyph glyph-name="Lslash" unicode="&#x141;" horiz-adv-x="1092" 
d="M362 194h672v-194h-896v677l-114 -54v164l114 54v602h224v-496l320 151v-163l-320 -152v-589z" />
    <glyph glyph-name="lslash" unicode="&#x142;" horiz-adv-x="487" 
d="M472 1025v-163l-120 -60v-802h-217v692l-120 -60v163l120 60v653h217v-543z" />
    <glyph glyph-name="Nacute" unicode="&#x143;" horiz-adv-x="1443" 
d="M810 1551h-176l231 303h225zM351 0h-218v1443h203l748 -1064h8v1064h218v-1443h-202l-748 1063h-9v-1063z" />
    <glyph glyph-name="nacute" unicode="&#x144;" horiz-adv-x="1148" 
d="M663 1255h-178l215 303h225zM111 0v1086h207v-183h4q101 195 343 195q179 0 278 -106.5t99 -295.5v-696h-217v655q0 257 -235 257q-122 0 -192 -77.5t-70 -207.5v-627h-217z" />
    <glyph glyph-name="Ncommaaccent" unicode="&#x145;" horiz-adv-x="1443" 
d="M705 -526h-159l102 360h190zM351 0h-218v1443h203l748 -1064h8v1064h218v-1443h-202l-748 1063h-9v-1063z" />
    <glyph glyph-name="ncommaaccent" unicode="&#x146;" horiz-adv-x="1148" 
d="M568 -526h-159l102 360h190zM111 0v1086h207v-183h4q101 195 343 195q179 0 278 -106.5t99 -295.5v-696h-217v655q0 257 -235 257q-122 0 -192 -77.5t-70 -207.5v-627h-217z" />
    <glyph glyph-name="Ncaron" unicode="&#x147;" horiz-adv-x="1443" 
d="M636 1547l-286 306h188l182 -199h4l182 199h188l-286 -306h-172zM351 0h-218v1443h203l748 -1064h8v1064h218v-1443h-202l-748 1063h-9v-1063z" />
    <glyph glyph-name="ncaron" unicode="&#x148;" horiz-adv-x="1148" 
d="M655 1251h-158l-273 307h185l164 -194h6l164 194h185zM111 0v1086h207v-183h4q101 195 343 195q179 0 278 -106.5t99 -295.5v-696h-217v655q0 257 -235 257q-122 0 -192 -77.5t-70 -207.5v-627h-217z" />
    <glyph glyph-name="Omacron" unicode="&#x14c;" horiz-adv-x="1513" 
d="M757 1467q311 0 493.5 -201t182.5 -545t-182 -544.5t-494 -200.5t-494 200.5t-182 544.5t182 545t494 201zM757 1270q-206 0 -326.5 -148t-120.5 -401q0 -252 120.5 -400t326.5 -148q205 0 325.5 148t120.5 400q0 253 -120.5 401t-325.5 148zM1084 1755v-119h-654v119
h654z" />
    <glyph glyph-name="omacron" unicode="&#x14d;" horiz-adv-x="1152" 
d="M899 1431v-119h-646v119h646zM576 -13q-236 0 -375 150t-139 406q0 255 139.5 406t374.5 151t374 -150.5t139 -406.5t-138.5 -406t-374.5 -150zM576 167q138 0 215.5 99t77.5 277t-77.5 277.5t-215.5 99.5t-216 -100t-78 -277t78 -276.5t216 -99.5z" />
    <glyph glyph-name="Obreve" unicode="&#x14e;" horiz-adv-x="1513" 
d="M757 1467q311 0 493.5 -201t182.5 -545t-182 -544.5t-494 -200.5t-494 200.5t-182 544.5t182 545t494 201zM757 1270q-206 0 -326.5 -148t-120.5 -401q0 -252 120.5 -400t326.5 -148q205 0 325.5 148t120.5 400q0 253 -120.5 401t-325.5 148zM432 1853h140
q0 -80 52.5 -134t132.5 -54t132.5 54t52.5 134h140q-1 -134 -90.5 -220t-234.5 -86t-234.5 86t-90.5 220z" />
    <glyph glyph-name="obreve" unicode="&#x14f;" horiz-adv-x="1152" 
d="M240 1557h143q1 -82 55.5 -137.5t136.5 -55.5t136.5 55.5t55.5 137.5h143q-1 -139 -93 -226.5t-242 -87.5t-242 87.5t-93 226.5zM576 -13q-236 0 -375 150t-139 406q0 255 139.5 406t374.5 151t374 -150.5t139 -406.5t-138.5 -406t-374.5 -150zM576 167q138 0 215.5 99
t77.5 277t-77.5 277.5t-215.5 99.5t-216 -100t-78 -277t78 -276.5t216 -99.5z" />
    <glyph glyph-name="Ohungarumlaut" unicode="&#x150;" horiz-adv-x="1513" 
d="M1010 1551h-168l231 303h217zM670 1551h-169l231 303h217zM757 1467q311 0 493.5 -201t182.5 -545t-182 -544.5t-494 -200.5t-494 200.5t-182 544.5t182 545t494 201zM757 1270q-206 0 -326.5 -148t-120.5 -401q0 -252 120.5 -400t326.5 -148q205 0 325.5 148t120.5 400
q0 253 -120.5 401t-325.5 148z" />
    <glyph glyph-name="ohungarumlaut" unicode="&#x151;" horiz-adv-x="1152" 
d="M660 1255l194 303h215l-247 -303h-162zM325 1255l194 303h215l-247 -303h-162zM576 -13q-236 0 -375 150t-139 406q0 255 139.5 406t374.5 151t374 -150.5t139 -406.5t-138.5 -406t-374.5 -150zM576 167q138 0 215.5 99t77.5 277t-77.5 277.5t-215.5 99.5t-216 -100
t-78 -277t78 -276.5t216 -99.5z" />
    <glyph glyph-name="OE" unicode="&#x152;" horiz-adv-x="2216" 
d="M764 1271q-208 0 -330 -148.5t-122 -401.5q0 -252 122 -400.5t330 -148.5t330 148.5t122 400.5t-122.5 401t-329.5 149zM1230 0v231q-67 -121 -196 -189.5t-287 -68.5q-303 0 -484 203t-181 545t181.5 545.5t484.5 203.5q160 0 285.5 -66.5t196.5 -189.5v229h889v-193
h-676v-422h638v-186h-638v-448h676v-194h-889z" />
    <glyph glyph-name="oe" unicode="&#x153;" horiz-adv-x="1916" 
d="M1385 -13q-132 0 -238.5 54.5t-164.5 151.5h-10q-70 -106 -167 -156t-233 -50q-233 0 -371.5 150.5t-138.5 404.5q0 255 138.5 406.5t370.5 151.5q136 0 233.5 -51.5t167.5 -158.5h10q58 98 162 154t231 56q220 0 349.5 -145.5t129.5 -390.5v-76h-765v-16
q0 -140 81 -224.5t215 -84.5q94 0 161.5 41t89.5 110h207q-23 -143 -152 -235t-306 -92zM1636 642q-4 127 -77 204t-191 77q-117 0 -194 -78t-85 -203h547zM280 543q0 -176 77.5 -275t214.5 -99q139 0 216 99t77 275t-77.5 275t-215.5 99q-137 0 -214.5 -99t-77.5 -275z" />
    <glyph glyph-name="Racute" unicode="&#x154;" horiz-adv-x="1265" 
d="M652 1551h-176l231 303h225zM357 1255v-519h322q130 0 201.5 68t71.5 192q0 121 -74.5 190t-204.5 69h-316zM357 555v-555h-224v1443h567q222 0 352 -119.5t130 -321.5q0 -147 -74.5 -257.5t-205.5 -154.5l324 -590h-259l-294 555h-316z" />
    <glyph glyph-name="racute" unicode="&#x155;" horiz-adv-x="688" 
d="M466 1255h-178l215 303h225zM111 0v1086h207v-183h4q25 91 95.5 142.5t166.5 51.5q46 0 76 -7v-203q-33 13 -99 13q-107 0 -170 -68.5t-63 -183.5v-648h-217z" />
    <glyph glyph-name="Rcommaaccent" unicode="&#x156;" horiz-adv-x="1265" 
d="M357 1255v-519h322q130 0 201.5 68t71.5 192q0 121 -74.5 190t-204.5 69h-316zM357 555v-555h-224v1443h567q222 0 352 -119.5t130 -321.5q0 -147 -74.5 -257.5t-205.5 -154.5l324 -590h-259l-294 555h-316zM547 -526h-159l102 360h190z" />
    <glyph glyph-name="rcommaaccent" unicode="&#x157;" horiz-adv-x="688" 
d="M111 0v1086h207v-183h4q25 91 95.5 142.5t166.5 51.5q46 0 76 -7v-203q-33 13 -99 13q-107 0 -170 -68.5t-63 -183.5v-648h-217zM203 -526h-159l102 360h190z" />
    <glyph glyph-name="Rcaron" unicode="&#x158;" horiz-adv-x="1265" 
d="M357 1255v-519h322q130 0 201.5 68t71.5 192q0 121 -74.5 190t-204.5 69h-316zM357 555v-555h-224v1443h567q222 0 352 -119.5t130 -321.5q0 -147 -74.5 -257.5t-205.5 -154.5l324 -590h-259l-294 555h-316zM478 1547l-286 306h188l182 -199h4l182 199h188l-286 -306
h-172z" />
    <glyph glyph-name="rcaron" unicode="&#x159;" horiz-adv-x="688" 
d="M458 1251h-158l-273 307h185l164 -194h6l164 194h185zM111 0v1086h207v-183h4q25 91 95.5 142.5t166.5 51.5q46 0 76 -7v-203q-33 13 -99 13q-107 0 -170 -68.5t-63 -183.5v-648h-217z" />
    <glyph glyph-name="Sacute" unicode="&#x15a;" horiz-adv-x="1244" 
d="M721 1551h-176l231 303h225zM69 402h221q12 -107 107 -172t238 -65q136 0 224.5 63t88.5 160q0 84 -63 137.5t-203 87.5l-187 45q-199 48 -293.5 143t-94.5 246q0 186 146.5 303t378.5 117q228 0 372 -116.5t149 -303.5h-218q-10 107 -92.5 169t-213.5 62
q-130 0 -211.5 -60t-81.5 -156q0 -76 61 -124.5t201 -83.5l159 -39q222 -52 320.5 -146.5t98.5 -253.5q0 -202 -150 -320.5t-407 -118.5q-241 0 -390.5 115.5t-159.5 310.5z" />
    <glyph glyph-name="sacute" unicode="&#x15b;" horiz-adv-x="1018" 
d="M93 777q0 143 117 232.5t304 89.5q178 0 294.5 -90.5t120.5 -232.5h-204q-7 72 -65 114t-151 42q-92 0 -148.5 -39.5t-56.5 -103.5q0 -98 169 -139l180 -43q164 -40 232 -106t68 -186q0 -145 -125 -236.5t-322 -91.5q-189 0 -309.5 89.5t-132.5 237.5h214
q13 -78 74.5 -119.5t164.5 -41.5q101 0 160.5 39t59.5 105q0 52 -35.5 82t-121.5 52l-194 48q-293 72 -293 298zM602 1255h-178l215 303h225z" />
    <glyph glyph-name="Scircumflex" unicode="&#x15c;" horiz-adv-x="1244" 
d="M69 402h221q12 -107 107 -172t238 -65q136 0 224.5 63t88.5 160q0 84 -63 137.5t-203 87.5l-187 45q-199 48 -293.5 143t-94.5 246q0 186 146.5 303t378.5 117q228 0 372 -116.5t149 -303.5h-218q-10 107 -92.5 169t-213.5 62q-130 0 -211.5 -60t-81.5 -156
q0 -76 61 -124.5t201 -83.5l159 -39q222 -52 320.5 -146.5t98.5 -253.5q0 -202 -150 -320.5t-407 -118.5q-241 0 -390.5 115.5t-159.5 310.5zM547 1853h172l286 -306h-188l-182 200h-4l-182 -200h-188z" />
    <glyph glyph-name="scircumflex" unicode="&#x15d;" horiz-adv-x="1018" 
d="M594 1558l273 -307h-185l-164 194h-6l-164 -194h-185l273 307h158zM93 777q0 143 117 232.5t304 89.5q178 0 294.5 -90.5t120.5 -232.5h-204q-7 72 -65 114t-151 42q-92 0 -148.5 -39.5t-56.5 -103.5q0 -98 169 -139l180 -43q164 -40 232 -106t68 -186
q0 -145 -125 -236.5t-322 -91.5q-189 0 -309.5 89.5t-132.5 237.5h214q13 -78 74.5 -119.5t164.5 -41.5q101 0 160.5 39t59.5 105q0 52 -35.5 82t-121.5 52l-194 48q-293 72 -293 298z" />
    <glyph glyph-name="Scedilla" unicode="&#x15e;" horiz-adv-x="1244" 
d="M598 854l159 -39q222 -52 320.5 -146.5t98.5 -253.5q0 -188 -130.5 -304t-356.5 -133l-43 -110q97 0 148.5 -39.5t51.5 -114.5q0 -80 -62.5 -129.5t-163.5 -50.5q-85 -2 -145 17v105q37 -14 118 -14q115 0 115 66q0 34 -32.5 48.5t-108.5 14.5h-55v83l50 124
q-217 14 -350 127.5t-143 296.5h221q12 -107 107 -172t238 -65q136 0 224.5 63t88.5 160q0 84 -63 137.5t-203 87.5l-187 45q-199 48 -293.5 143t-94.5 246q0 186 146.5 303t378.5 117q228 0 372 -116.5t149 -303.5h-218q-10 107 -92.5 169t-213.5 62q-130 0 -211.5 -60
t-81.5 -156q0 -76 61 -124.5t201 -83.5z" />
    <glyph glyph-name="scedilla" unicode="&#x15f;" horiz-adv-x="1018" 
d="M473 650l180 -43q164 -40 232 -106t68 -186q0 -131 -103 -219t-272 -105l-47 -123q97 0 148.5 -39.5t51.5 -114.5q0 -80 -62.5 -129.5t-163.5 -50.5q-85 -2 -145 17v105q37 -14 118 -14q115 0 115 66q0 34 -32.5 48.5t-108.5 14.5h-55v83l55 135q-167 13 -272 100.5
t-116 224.5h214q13 -78 74.5 -119.5t164.5 -41.5q101 0 160.5 39t59.5 105q0 52 -35.5 82t-121.5 52l-194 48q-293 72 -293 298q0 143 117 232.5t304 89.5q178 0 294.5 -90.5t120.5 -232.5h-204q-7 72 -65 114t-151 42q-92 0 -148.5 -39.5t-56.5 -103.5q0 -98 169 -139z" />
    <glyph glyph-name="Scaron" unicode="&#x160;" horiz-adv-x="1244" 
d="M69 402h221q12 -107 107 -172t238 -65q136 0 224.5 63t88.5 160q0 84 -63 137.5t-203 87.5l-187 45q-199 48 -293.5 143t-94.5 246q0 186 146.5 303t378.5 117q228 0 372 -116.5t149 -303.5h-218q-10 107 -92.5 169t-213.5 62q-130 0 -211.5 -60t-81.5 -156
q0 -76 61 -124.5t201 -83.5l159 -39q222 -52 320.5 -146.5t98.5 -253.5q0 -202 -150 -320.5t-407 -118.5q-241 0 -390.5 115.5t-159.5 310.5zM547 1547l-286 306h188l182 -199h4l182 199h188l-286 -306h-172z" />
    <glyph glyph-name="scaron" unicode="&#x161;" horiz-adv-x="1018" 
d="M594 1251h-158l-273 307h185l164 -194h6l164 194h185zM93 777q0 143 117 232.5t304 89.5q178 0 294.5 -90.5t120.5 -232.5h-204q-7 72 -65 114t-151 42q-92 0 -148.5 -39.5t-56.5 -103.5q0 -98 169 -139l180 -43q164 -40 232 -106t68 -186q0 -145 -125 -236.5t-322 -91.5
q-189 0 -309.5 89.5t-132.5 237.5h214q13 -78 74.5 -119.5t164.5 -41.5q101 0 160.5 39t59.5 105q0 52 -35.5 82t-121.5 52l-194 48q-293 72 -293 298z" />
    <glyph glyph-name="Tcedilla" unicode="&#x162;" horiz-adv-x="1222" 
d="M723 0h-35l-51 -132q97 0 148.5 -39.5t51.5 -114.5q0 -80 -62.5 -129.5t-163.5 -50.5q-85 -2 -145 17v105q37 -14 118 -14q115 0 115 66q0 34 -32.5 48.5t-108.5 14.5h-55v83l59 146h-63v1250h-450v193h1123v-193h-449v-1250z" />
    <glyph glyph-name="tcedilla" unicode="&#x163;" horiz-adv-x="672" 
d="M465 -7l-48 -125q97 0 148.5 -39.5t51.5 -114.5q0 -80 -62.5 -129.5t-163.5 -50.5q-85 -2 -145 17v105q37 -14 118 -14q115 0 115 66q0 34 -32.5 48.5t-108.5 14.5h-55v83l62 153q-89 24 -129 90.5t-40 188.5v629h-150v171h150v244h216v-244h208v-171h-208v-607
q0 -71 32.5 -104.5t100.5 -33.5q39 0 74 5v-171q-44 -11 -122 -11h-12z" />
    <glyph glyph-name="Tcaron" unicode="&#x164;" horiz-adv-x="1222" 
d="M525 1547l-286 306h188l182 -199h4l182 199h188l-286 -306h-172zM723 0h-224v1250h-450v193h1123v-193h-449v-1250z" />
    <glyph glyph-name="tcaron" unicode="&#x165;" horiz-adv-x="763" 
d="M542 1729h168l-34 -494h-134v494zM176 1330h216v-244h208v-171h-208v-607q0 -71 32.5 -104.5t100.5 -33.5q39 0 74 5v-171q-44 -11 -122 -11q-163 0 -232 67.5t-69 225.5v629h-150v171h150v244z" />
    <glyph glyph-name="Tbar" unicode="&#x166;" horiz-adv-x="1267" 
d="M1176 1250h-449v-454h316v-168h-316v-628h-224v628h-278v168h278v454h-450v193h1123v-193z" />
    <glyph glyph-name="tbar" unicode="&#x167;" horiz-adv-x="692" 
d="M611 494h-219v-186q0 -71 32.5 -104.5t100.5 -33.5q39 0 74 5v-171q-44 -11 -122 -11q-163 0 -232 67.5t-69 225.5v208h-146v150h146v271h-150v171h150v244h216v-244h208v-171h-208v-271h219v-150z" />
    <glyph glyph-name="Utilde" unicode="&#x168;" horiz-adv-x="1434" 
d="M357 1443v-917q0 -158 95.5 -254.5t264.5 -96.5t265 96.5t96 254.5v917h223v-936q0 -237 -158 -384t-426 -147t-426 147t-158 384v936h224zM850 1537q-45 0 -84.5 23t-63 50t-52 50t-53.5 23q-33 0 -50.5 -34.5t-18.5 -95.5h-129q0 120 51.5 188.5t139.5 68.5
q47 0 88 -23t65 -50t51.5 -50t51.5 -23q63 0 63 132h130q0 -118 -52.5 -188.5t-136.5 -70.5z" />
    <glyph glyph-name="utilde" unicode="&#x169;" horiz-adv-x="1148" 
d="M1037 1086v-1086h-207v186h-4q-97 -198 -339 -198q-178 0 -279.5 107.5t-101.5 294.5v696h217v-655q0 -126 59.5 -191t176.5 -65q121 0 191 77.5t70 207.5v626h217zM708 1258q-45 0 -84.5 23t-63 50t-52 50t-53.5 23q-33 0 -50.5 -34.5t-18.5 -95.5h-129
q0 120 51.5 188.5t139.5 68.5q47 0 88 -23t65 -50t51.5 -50t51.5 -23q63 0 63 132h130q0 -118 -52.5 -188.5t-136.5 -70.5z" />
    <glyph glyph-name="Umacron" unicode="&#x16a;" horiz-adv-x="1434" 
d="M357 1443v-917q0 -158 95.5 -254.5t264.5 -96.5t265 96.5t96 254.5v917h223v-936q0 -237 -158 -384t-426 -147t-426 147t-158 384v936h224zM1044 1755v-119h-654v119h654z" />
    <glyph glyph-name="umacron" unicode="&#x16b;" horiz-adv-x="1148" 
d="M1037 1086v-1086h-207v186h-4q-97 -198 -339 -198q-178 0 -279.5 107.5t-101.5 294.5v696h217v-655q0 -126 59.5 -191t176.5 -65q121 0 191 77.5t70 207.5v626h217zM895 1431v-119h-646v119h646z" />
    <glyph glyph-name="Ubreve" unicode="&#x16c;" horiz-adv-x="1434" 
d="M357 1443v-917q0 -158 95.5 -254.5t264.5 -96.5t265 96.5t96 254.5v917h223v-936q0 -237 -158 -384t-426 -147t-426 147t-158 384v936h224zM392 1853h140q0 -80 52.5 -134t132.5 -54t132.5 54t52.5 134h140q-1 -134 -90.5 -220t-234.5 -86t-234.5 86t-90.5 220z" />
    <glyph glyph-name="ubreve" unicode="&#x16d;" horiz-adv-x="1148" 
d="M1037 1086v-1086h-207v186h-4q-97 -198 -339 -198q-178 0 -279.5 107.5t-101.5 294.5v696h217v-655q0 -126 59.5 -191t176.5 -65q121 0 191 77.5t70 207.5v626h217zM236 1557h143q1 -82 55.5 -137.5t136.5 -55.5t136.5 55.5t55.5 137.5h143q-1 -139 -93 -226.5
t-242 -87.5t-242 87.5t-93 226.5z" />
    <glyph glyph-name="Uring" unicode="&#x16e;" horiz-adv-x="1434" 
d="M717 1509q-83 0 -143 59.5t-60 142.5q0 82 60 141.5t143 59.5t143 -59.5t60 -141.5q0 -83 -60 -142.5t-143 -59.5zM717 1602q45 0 77.5 32t32.5 77t-32.5 77t-77.5 32t-77.5 -32t-32.5 -77t32.5 -77t77.5 -32zM357 1443v-917q0 -158 95.5 -254.5t264.5 -96.5t265 96.5
t96 254.5v917h223v-936q0 -237 -158 -384t-426 -147t-426 147t-158 384v936h224z" />
    <glyph glyph-name="uring" unicode="&#x16f;" horiz-adv-x="1148" 
d="M1037 1086v-1086h-207v186h-4q-97 -198 -339 -198q-178 0 -279.5 107.5t-101.5 294.5v696h217v-655q0 -126 59.5 -191t176.5 -65q121 0 191 77.5t70 207.5v626h217zM572 1193q-85 0 -146 60.5t-61 144.5q0 85 61 145.5t146 60.5t146 -60.5t61 -145.5q0 -84 -61 -144.5
t-146 -60.5zM572 1288q46 0 78.5 32.5t32.5 77.5q0 46 -32.5 78.5t-78.5 32.5t-78.5 -32.5t-32.5 -78.5q0 -45 32.5 -77.5t78.5 -32.5z" />
    <glyph glyph-name="Uhungarumlaut" unicode="&#x170;" horiz-adv-x="1434" 
d="M357 1443v-917q0 -158 95.5 -254.5t264.5 -96.5t265 96.5t96 254.5v917h223v-936q0 -237 -158 -384t-426 -147t-426 147t-158 384v936h224zM970 1551h-168l231 303h217zM630 1551h-169l231 303h217z" />
    <glyph glyph-name="uhungarumlaut" unicode="&#x171;" horiz-adv-x="1148" 
d="M656 1255l194 303h215l-247 -303h-162zM321 1255l194 303h215l-247 -303h-162zM1037 1086v-1086h-207v186h-4q-97 -198 -339 -198q-178 0 -279.5 107.5t-101.5 294.5v696h217v-655q0 -126 59.5 -191t176.5 -65q121 0 191 77.5t70 207.5v626h217z" />
    <glyph glyph-name="Uogonek" unicode="&#x172;" horiz-adv-x="1434" 
d="M966 -443q-112 0 -183 58.5t-71 150.5q0 123 135 226v4q-58 -20 -130 -20q-264 0 -424 145t-160 386v936h224v-917q0 -161 97.5 -256t262.5 -95q166 0 263.5 95t97.5 256v917h223v-936q0 -140 -60 -253t-190 -218q-150 -120 -150 -224q0 -44 31.5 -71.5t83.5 -27.5
q48 0 67 6v-144q-48 -18 -117 -18z" />
    <glyph glyph-name="uogonek" unicode="&#x173;" horiz-adv-x="1148" 
d="M1019 -425q-47 -18 -116 -18q-112 0 -183.5 59t-71.5 151q0 76 50 141.5t132 97.5v180h-4q-97 -198 -339 -198q-178 0 -279.5 107.5t-101.5 294.5v696h217v-655q0 -126 59.5 -191t176.5 -65q121 0 191 77.5t70 207.5v626h217v-1086l-21 -6q-82 -29 -130 -78.5t-48 -105.5
q0 -43 31 -70t83 -27q48 0 67 6v-144z" />
    <glyph glyph-name="Wcircumflex" unicode="&#x174;" horiz-adv-x="1923" 
d="M875 1853h172l286 -306h-188l-182 200h-4l-182 -200h-188zM956 1088l-311 -1088h-212l-389 1443h233l267 -1130h8l305 1130h208l306 -1130h8l267 1130h233l-390 -1443h-211l-312 1088h-10z" />
    <glyph glyph-name="wcircumflex" unicode="&#x175;" horiz-adv-x="1563" 
d="M861 1558l273 -307h-185l-164 194h-6l-164 -194h-185l273 307h158zM1537 1086l-299 -1086h-224l-231 818h-5l-229 -818h-223l-300 1086h216l202 -860h4l230 860h208l231 -860h4l202 860h214z" />
    <glyph glyph-name="Ycircumflex" unicode="&#x176;" horiz-adv-x="1293" 
d="M758 0h-224v591l-508 852h250l368 -637h7l368 637h248l-509 -852v-591zM560 1853h172l286 -306h-188l-182 200h-4l-182 -200h-188z" />
    <glyph glyph-name="ycircumflex" unicode="&#x177;" horiz-adv-x="1066" 
d="M220 -395q-54 0 -88 6v176q20 -5 69 -5q78 0 123.5 36.5t73.5 122.5l17 56l-394 1089h233l279 -888h5l279 888h228l-407 -1136q-70 -195 -160.5 -270t-257.5 -75zM613 1558l273 -307h-185l-164 194h-6l-164 -194h-185l273 307h158z" />
    <glyph glyph-name="Ydieresis" unicode="&#x178;" horiz-adv-x="1293" 
d="M758 0h-224v591l-508 852h250l368 -637h7l368 637h248l-509 -852v-591zM445 1576q-50 0 -85.5 35t-35.5 84t35.5 84t85.5 35t85 -34.5t35 -84.5q0 -49 -35 -84t-85 -35zM848 1576q-50 0 -85.5 35t-35.5 84t35.5 84t85.5 35t85 -34.5t35 -84.5q0 -49 -35 -84t-85 -35z" />
    <glyph glyph-name="Zacute" unicode="&#x179;" horiz-adv-x="1273" 
d="M725 1551h-176l231 303h225zM95 0v153l790 1089v8h-766v193h1041v-153l-787 -1089v-7h806v-194h-1084z" />
    <glyph glyph-name="zacute" unicode="&#x17a;" horiz-adv-x="1015" 
d="M594 1255h-178l215 303h225zM89 0v141l584 769v3h-581v173h828v-149l-570 -760v-4h576v-173h-837z" />
    <glyph glyph-name="Zdotaccent" unicode="&#x17b;" horiz-adv-x="1273" 
d="M637 1576q-55 0 -93 38.5t-38 92.5q0 55 38 93t93 38t93 -38t38 -93q0 -54 -38 -92.5t-93 -38.5zM95 0v153l790 1089v8h-766v193h1041v-153l-787 -1089v-7h806v-194h-1084z" />
    <glyph glyph-name="zdotaccent" unicode="&#x17c;" horiz-adv-x="1015" 
d="M507 1262q-55 0 -94.5 39t-39.5 93q0 55 39.5 94t94.5 39t94 -39t39 -94q0 -54 -39 -93t-94 -39zM89 0v141l584 769v3h-581v173h828v-149l-570 -760v-4h576v-173h-837z" />
    <glyph glyph-name="Zcaron" unicode="&#x17d;" horiz-adv-x="1273" 
d="M95 0v153l790 1089v8h-766v193h1041v-153l-787 -1089v-7h806v-194h-1084zM551 1547l-286 306h188l182 -199h4l182 199h188l-286 -306h-172z" />
    <glyph glyph-name="zcaron" unicode="&#x17e;" horiz-adv-x="1015" 
d="M586 1251h-158l-273 307h185l164 -194h6l164 194h185zM89 0v141l584 769v3h-581v173h828v-149l-570 -760v-4h576v-173h-837z" />
    <glyph glyph-name="florin" unicode="&#x192;" horiz-adv-x="1270" 
d="M1224 1425v-184q-83 39 -183 39q-111 0 -170 -49.5t-75 -156.5l-30 -201h362v-167h-386l-52 -349q-28 -194 -133 -287.5t-292 -93.5q-124 0 -217 44v193q37 -22 91 -36t102 -14q107 0 161.5 51t71.5 168l48 324h-330v167h355l32 219q55 372 436 372q123 0 209 -39z" />
    <glyph glyph-name="Ohorn" unicode="&#x1a0;" horiz-adv-x="1534" 
d="M757 -24q-312 0 -494 200.5t-182 544.5t182 545t494 201q80 0 212.5 -21.5t208.5 -21.5q59 0 84 21t25 70v148h185v-206q0 -83 -52 -133t-139 -50h-60v-6q91 -66 151.5 -222.5t60.5 -324.5q0 -344 -182 -544.5t-494 -200.5zM757 173q205 0 325.5 148t120.5 400
q0 253 -120.5 401t-325.5 148q-206 0 -326.5 -148t-120.5 -401q0 -252 120.5 -400t326.5 -148z" />
    <glyph glyph-name="ohorn" unicode="&#x1a1;" horiz-adv-x="1210" 
d="M576 167q138 0 215.5 99.5t77.5 276.5q0 178 -77.5 277.5t-215.5 99.5t-216 -100t-78 -277t78 -276.5t216 -99.5zM1089 537q0 -250 -139 -400t-372 -150q-238 0 -377 150t-139 406t139 406.5t375 150.5q69 0 149.5 -15t130.5 -15q62 0 86 20t24 71v140h185v-201
q0 -77 -43.5 -123.5t-114.5 -46.5h-52v-5q70 -53 109 -154.5t39 -233.5z" />
    <glyph glyph-name="Uhorn" unicode="&#x1af;" horiz-adv-x="1609" 
d="M717 -24q-264 0 -424 145t-160 386v936h224v-917q0 -161 97.5 -256t262.5 -95q166 0 263.5 94.5t97.5 256.5v917h229q87 0 87 84v167h185v-207q0 -92 -56 -144t-155 -52h-67v-784q0 -241 -160 -386t-424 -145z" />
    <glyph glyph-name="uhorn" unicode="&#x1b0;" horiz-adv-x="1282" 
d="M826 186q-97 -198 -339 -198q-176 0 -278.5 107t-102.5 295v696h217v-655q0 -126 60 -191t176 -65q120 0 190.5 77t70.5 208v626h199q87 0 87 84v155h185v-195q0 -91 -56 -143t-155 -52h-43v-935h-207v186h-4z" />
    <glyph glyph-name="u01C4" unicode="&#x1c4;" horiz-adv-x="2686" 
d="M133 1443h517q323 0 503 -189t180 -530q0 -342 -180 -533t-503 -191h-517v1443zM357 1250v-1056h272q230 0 353 136.5t123 391.5t-123 391.5t-353 136.5h-272zM1508 0v153l790 1089v8h-766v193h1041v-153l-787 -1089v-7h806v-194h-1084zM1964 1547l-286 306h188l182 -199
h4l182 199h188l-286 -306h-172z" />
    <glyph glyph-name="u01C5" unicode="&#x1c5;" horiz-adv-x="2428" 
d="M133 1443h517q323 0 503 -189t180 -530q0 -342 -180 -533t-503 -191h-517v1443zM357 1250v-1056h272q230 0 353 136.5t123 391.5t-123 391.5t-353 136.5h-272zM1999 1251h-158l-273 307h185l164 -194h6l164 194h185zM1502 0v141l584 769v3h-581v173h828v-149l-570 -760
v-4h576v-173h-837z" />
    <glyph glyph-name="u01C6" unicode="&#x1c6;" horiz-adv-x="2215" 
d="M520 -11q-205 0 -331.5 152t-126.5 403q0 249 126.5 401t329.5 152q116 0 205.5 -50.5t136.5 -140.5h5v602h216v-1508h-210v184h-4q-48 -93 -138.5 -144t-208.5 -51zM575 913q-131 0 -211 -101t-80 -269q0 -169 79.5 -269.5t211.5 -100.5q131 0 211 102t80 268t-80.5 268
t-210.5 102zM1786 1251h-158l-273 307h185l164 -194h6l164 194h185zM1289 0v141l584 769v3h-581v173h828v-149l-570 -760v-4h576v-173h-837z" />
    <glyph glyph-name="u01C7" unicode="&#x1c7;" horiz-adv-x="2148" 
d="M1126 370h220q2 -90 61.5 -146t153.5 -56q110 0 168.5 64.5t58.5 188.5v1022h224v-1023q0 -214 -119 -333t-330 -119q-195 0 -316 111t-121 291zM1029 194v-194h-896v1443h224v-1249h672z" />
    <glyph glyph-name="u01C8" unicode="&#x1c8;" horiz-adv-x="1543" 
d="M1424 1086v-1133q0 -166 -87 -245.5t-266 -79.5q-5 0 -25.5 0.5t-22.5 0.5v172h31q84 0 118.5 35t34.5 118v1132h217zM1316 1241q-53 0 -90 36.5t-37 88.5q0 53 37 89t90 36t90 -36t37 -89q0 -52 -37 -88.5t-90 -36.5zM1029 194v-194h-896v1443h224v-1249h672z" />
    <glyph glyph-name="u01C9" unicode="&#x1c9;" horiz-adv-x="912" 
d="M793 1086v-1133q0 -166 -87 -245.5t-266 -79.5q-5 0 -25.5 0.5t-22.5 0.5v172h31q84 0 118.5 35t34.5 118v1132h217zM685 1241q-53 0 -90 36.5t-37 88.5q0 53 37 89t90 36t90 -36t37 -89q0 -52 -37 -88.5t-90 -36.5zM120 0v1508h217v-1508h-217z" />
    <glyph glyph-name="u01CA" unicode="&#x1ca;" horiz-adv-x="2503" 
d="M1481 370h220q2 -90 61.5 -146t153.5 -56q110 0 168.5 64.5t58.5 188.5v1022h224v-1023q0 -214 -119 -333t-330 -119q-195 0 -316 111t-121 291zM351 0h-218v1443h203l748 -1064h8v1064h218v-1443h-202l-748 1063h-9v-1063z" />
    <glyph glyph-name="u01CB" unicode="&#x1cb;" horiz-adv-x="1898" 
d="M1779 1086v-1133q0 -166 -87 -245.5t-266 -79.5q-5 0 -25.5 0.5t-22.5 0.5v172h31q84 0 118.5 35t34.5 118v1132h217zM1671 1241q-53 0 -90 36.5t-37 88.5q0 53 37 89t90 36t90 -36t37 -89q0 -52 -37 -88.5t-90 -36.5zM351 0h-218v1443h203l748 -1064h8v1064h218v-1443
h-202l-748 1063h-9v-1063z" />
    <glyph glyph-name="u01CC" unicode="&#x1cc;" horiz-adv-x="1603" 
d="M1484 1086v-1133q0 -166 -87 -245.5t-266 -79.5q-5 0 -25.5 0.5t-22.5 0.5v172h31q84 0 118.5 35t34.5 118v1132h217zM1376 1241q-53 0 -90 36.5t-37 88.5q0 53 37 89t90 36t90 -36t37 -89q0 -52 -37 -88.5t-90 -36.5zM111 0v1086h207v-183h4q101 195 343 195
q179 0 278 -106.5t99 -295.5v-696h-217v655q0 257 -235 257q-122 0 -192 -77.5t-70 -207.5v-627h-217z" />
    <glyph glyph-name="Acaron" unicode="&#x1cd;" horiz-adv-x="1336" 
d="M1073 0l-132 390h-550l-132 -390h-233l521 1443h242l521 -1443h-237zM663 1203l-215 -633h436l-215 633h-6zM582 1547l-286 306h188l182 -199h4l182 199h188l-286 -306h-172z" />
    <glyph glyph-name="acaron" unicode="&#x1ce;" horiz-adv-x="1092" 
d="M488 162q121 0 202 69.5t81 176.5v85l-264 -18q-225 -14 -225 -160q0 -70 56 -111.5t150 -41.5zM430 -11q-163 0 -265 88.5t-102 233.5q0 142 106.5 223t308.5 94l293 17v84q0 93 -59.5 142.5t-168.5 49.5q-88 0 -148.5 -42t-74.5 -113h-203q5 144 127 239t305 95
q199 0 317.5 -97t118.5 -258v-745h-207v181h-5q-45 -88 -138 -140t-205 -52zM624 1251h-158l-273 307h185l164 -194h6l164 194h185z" />
    <glyph glyph-name="Icaron" unicode="&#x1cf;" horiz-adv-x="490" 
d="M357 0h-224v1443h224v-1443zM159 1547l-286 306h188l182 -199h4l182 199h188l-286 -306h-172z" />
    <glyph glyph-name="icaron" unicode="&#x1d0;" horiz-adv-x="455" 
d="M307 1251h-158l-273 307h185l164 -194h6l164 194h185zM119 0v1086h217v-1086h-217z" />
    <glyph glyph-name="Ocaron" unicode="&#x1d1;" horiz-adv-x="1513" 
d="M671 1547l-286 306h188l182 -199h4l182 199h188l-286 -306h-172zM757 1467q311 0 493.5 -201t182.5 -545t-182 -544.5t-494 -200.5t-494 200.5t-182 544.5t182 545t494 201zM757 1270q-206 0 -326.5 -148t-120.5 -401q0 -252 120.5 -400t326.5 -148q205 0 325.5 148
t120.5 400q0 253 -120.5 401t-325.5 148z" />
    <glyph glyph-name="ocaron" unicode="&#x1d2;" horiz-adv-x="1152" 
d="M655 1251h-158l-273 307h185l164 -194h6l164 194h185zM576 -13q-236 0 -375 150t-139 406q0 255 139.5 406t374.5 151t374 -150.5t139 -406.5t-138.5 -406t-374.5 -150zM576 167q138 0 215.5 99t77.5 277t-77.5 277.5t-215.5 99.5t-216 -100t-78 -277t78 -276.5
t216 -99.5z" />
    <glyph glyph-name="Ucaron" unicode="&#x1d3;" horiz-adv-x="1434" 
d="M631 1547l-286 306h188l182 -199h4l182 199h188l-286 -306h-172zM357 1443v-917q0 -158 95.5 -254.5t264.5 -96.5t265 96.5t96 254.5v917h223v-936q0 -237 -158 -384t-426 -147t-426 147t-158 384v936h224z" />
    <glyph glyph-name="ucaron" unicode="&#x1d4;" horiz-adv-x="1148" 
d="M651 1251h-158l-273 307h185l164 -194h6l164 194h185zM1037 1086v-1086h-207v186h-4q-97 -198 -339 -198q-178 0 -279.5 107.5t-101.5 294.5v696h217v-655q0 -126 59.5 -191t176.5 -65q121 0 191 77.5t70 207.5v626h217z" />
    <glyph glyph-name="Udieresismacron" unicode="&#x1d5;" horiz-adv-x="1434" 
d="M357 1443v-917q0 -158 95.5 -254.5t264.5 -96.5t265 96.5t96 254.5v917h223v-936q0 -237 -158 -384t-426 -147t-426 147t-158 384v936h224zM525 1798q45 0 76.5 -32t31.5 -76q0 -45 -31.5 -76.5t-76.5 -31.5q-46 0 -78 31.5t-32 76.5t32 76.5t78 31.5zM390 2042h654v-119
h-654v119zM909 1798q46 0 78 -31.5t32 -76.5t-32 -76.5t-78 -31.5q-45 0 -76.5 31.5t-31.5 76.5q0 44 31.5 76t76.5 32z" />
    <glyph glyph-name="udieresismacron" unicode="&#x1d6;" horiz-adv-x="1148" 
d="M1037 1086v-1086h-207v186h-4q-97 -198 -339 -198q-178 0 -279.5 107.5t-101.5 294.5v696h217v-655q0 -126 59.5 -191t176.5 -65q121 0 191 77.5t70 207.5v626h217zM373 1260q-48 0 -81.5 33t-33.5 80t33.5 80t81.5 33q49 0 81.5 -33t32.5 -80t-33 -80t-81 -33zM771 1260
q-48 0 -81 33t-33 80t33 80t81 33q49 0 82 -33t33 -80t-33.5 -80t-81.5 -33zM895 1777v-119h-646v119h646z" />
    <glyph glyph-name="Udieresisacute" unicode="&#x1d7;" horiz-adv-x="1434" 
d="M633 1863l188 218h212l-237 -218h-163zM525 1582q-46 0 -78 31.5t-32 76.5t32 76.5t78 31.5q45 0 76.5 -32t31.5 -76q0 -45 -31.5 -76.5t-76.5 -31.5zM909 1582q-45 0 -76.5 31.5t-31.5 76.5q0 44 31.5 76t76.5 32q46 0 78 -31.5t32 -76.5t-32 -76.5t-78 -31.5zM357 1443
v-917q0 -158 95.5 -254.5t264.5 -96.5t265 96.5t96 254.5v917h223v-936q0 -237 -158 -384t-426 -147t-426 147t-158 384v936h224z" />
    <glyph glyph-name="udieresisacute" unicode="&#x1d8;" horiz-adv-x="1148" 
d="M485 1603l168 261h212l-206 -261h-174zM371 1260q-50 0 -85.5 35t-35.5 84t35.5 84t85.5 35t85 -34.5t35 -84.5q0 -49 -35 -84t-85 -35zM774 1260q-50 0 -85.5 35t-35.5 84t35.5 84t85.5 35t85 -34.5t35 -84.5q0 -49 -35 -84t-85 -35zM1037 1086v-1086h-207v186h-4
q-97 -198 -339 -198q-178 0 -279.5 107.5t-101.5 294.5v696h217v-655q0 -126 59.5 -191t176.5 -65q121 0 191 77.5t70 207.5v626h217z" />
    <glyph glyph-name="Udieresiscaron" unicode="&#x1d9;" horiz-adv-x="1434" 
d="M628 1863l-263 222h198l146 -125h16l146 125h198l-263 -222h-178zM525 1798q45 0 76.5 -32t31.5 -76q0 -45 -31.5 -76.5t-76.5 -31.5q-46 0 -78 31.5t-32 76.5t32 76.5t78 31.5zM909 1798q46 0 78 -31.5t32 -76.5t-32 -76.5t-78 -31.5q-45 0 -76.5 31.5t-31.5 76.5
q0 44 31.5 76t76.5 32zM357 1443v-917q0 -158 95.5 -254.5t264.5 -96.5t265 96.5t96 254.5v917h223v-936q0 -237 -158 -384t-426 -147t-426 147t-158 384v936h224z" />
    <glyph glyph-name="udieresiscaron" unicode="&#x1da;" horiz-adv-x="1148" 
d="M373 1260q-49 0 -84 34.5t-35 82.5q0 49 34.5 83t84.5 34q49 0 83.5 -34t34.5 -83q0 -48 -34.5 -82.5t-83.5 -34.5zM771 1260q-49 0 -83.5 34.5t-34.5 82.5q0 49 34.5 83t83.5 34q50 0 84.5 -34t34.5 -83q0 -48 -35 -82.5t-84 -34.5zM670 1596h-196l-260 271h183
l172 -180h6l172 180h183zM1037 1086v-1086h-207v186h-4q-97 -198 -339 -198q-178 0 -279.5 107.5t-101.5 294.5v696h217v-655q0 -126 59.5 -191t176.5 -65q121 0 191 77.5t70 207.5v626h217z" />
    <glyph glyph-name="Udieresisgrave" unicode="&#x1db;" horiz-adv-x="1434" 
d="M801 1863h-163l-237 218h212zM525 1582q-46 0 -78 31.5t-32 76.5t32 76.5t78 31.5q45 0 76.5 -32t31.5 -76q0 -45 -31.5 -76.5t-76.5 -31.5zM909 1582q-45 0 -76.5 31.5t-31.5 76.5q0 44 31.5 76t76.5 32q46 0 78 -31.5t32 -76.5t-32 -76.5t-78 -31.5zM357 1443v-917
q0 -158 95.5 -254.5t264.5 -96.5t265 96.5t96 254.5v917h223v-936q0 -237 -158 -384t-426 -147t-426 147t-158 384v936h224z" />
    <glyph glyph-name="udieresisgrave" unicode="&#x1dc;" horiz-adv-x="1148" 
d="M661 1607h-174l-207 260h216zM371 1260q-50 0 -85.5 35t-35.5 84t35.5 84t85.5 35t85 -34.5t35 -84.5q0 -49 -35 -84t-85 -35zM774 1260q-50 0 -85.5 35t-35.5 84t35.5 84t85.5 35t85 -34.5t35 -84.5q0 -49 -35 -84t-85 -35zM1037 1086v-1086h-207v186h-4
q-97 -198 -339 -198q-178 0 -279.5 107.5t-101.5 294.5v696h217v-655q0 -126 59.5 -191t176.5 -65q121 0 191 77.5t70 207.5v626h217z" />
    <glyph glyph-name="Adieresismacron" unicode="&#x1de;" horiz-adv-x="1336" 
d="M1073 0l-132 390h-550l-132 -390h-233l521 1443h242l521 -1443h-237zM663 1203l-215 -633h436l-215 633h-6zM476 1798q45 0 76.5 -32t31.5 -76q0 -45 -31.5 -76.5t-76.5 -31.5q-46 0 -78 31.5t-32 76.5t32 76.5t78 31.5zM341 2042h654v-119h-654v119zM860 1798
q46 0 78 -31.5t32 -76.5t-32 -76.5t-78 -31.5q-45 0 -76.5 31.5t-31.5 76.5q0 44 31.5 76t76.5 32z" />
    <glyph glyph-name="adieresismacron" unicode="&#x1df;" horiz-adv-x="1092" 
d="M488 162q121 0 202 69.5t81 176.5v85l-264 -18q-225 -14 -225 -160q0 -70 56 -111.5t150 -41.5zM430 -11q-163 0 -265 88.5t-102 233.5q0 142 106.5 223t308.5 94l293 17v84q0 93 -59.5 142.5t-168.5 49.5q-88 0 -148.5 -42t-74.5 -113h-203q5 144 127 239t305 95
q199 0 317.5 -97t118.5 -258v-745h-207v181h-5q-45 -88 -138 -140t-205 -52zM346 1260q-48 0 -81.5 33t-33.5 80t33.5 80t81.5 33t81 -33t33 -80t-33 -80t-81 -33zM744 1260q-48 0 -81 33t-33 80t33 80t81 33q49 0 82 -33t33 -80t-33.5 -80t-81.5 -33zM868 1777v-119h-646
v119h646z" />
    <glyph glyph-name="Adotmacron" unicode="&#x1e0;" horiz-adv-x="1336" 
d="M1073 0l-132 390h-550l-132 -390h-233l521 1443h242l521 -1443h-237zM663 1203l-215 -633h436l-215 633h-6zM668 1567q-52 0 -88 36t-36 87q0 50 36 85.5t88 35.5t88 -35.5t36 -85.5q0 -51 -36 -87t-88 -36zM995 2042v-119h-654v119h654z" />
    <glyph glyph-name="adotmacron" unicode="&#x1e1;" horiz-adv-x="1092" 
d="M488 162q121 0 202 69.5t81 176.5v85l-264 -18q-225 -14 -225 -160q0 -70 56 -111.5t150 -41.5zM430 -11q-163 0 -265 88.5t-102 233.5q0 142 106.5 223t308.5 94l293 17v84q0 93 -59.5 142.5t-168.5 49.5q-88 0 -148.5 -42t-74.5 -113h-203q5 144 127 239t305 95
q199 0 317.5 -97t118.5 -258v-745h-207v181h-5q-45 -88 -138 -140t-205 -52zM545 1258q-54 0 -93 38.5t-39 92.5q0 53 39 92t93 39t93 -39t39 -92q0 -54 -39 -92.5t-93 -38.5zM868 1779v-119h-646v119h646z" />
    <glyph glyph-name="AEmacron" unicode="&#x1e2;" horiz-adv-x="1997" 
d="M812 1263l-298 -656h449v656h-151zM963 0v428h-527l-196 -428h-227l661 1443h1189v-193h-685v-430h648v-186h-648v-441h685v-193h-900zM1744 1755v-119h-654v119h654z" />
    <glyph glyph-name="aemacron" unicode="&#x1e3;" horiz-adv-x="1796" 
d="M1269 -13q-134 0 -237 56.5t-156 160.5h-9q-131 -215 -405 -215q-183 0 -291 86.5t-108 231.5q0 143 107 225.5t307 92.5l293 15v72q0 92 -65.5 150.5t-168.5 58.5q-97 0 -157.5 -42t-67.5 -113h-204q8 147 124.5 240.5t297.5 93.5q133 0 231.5 -52.5t139.5 -144.5h8
q115 197 365 197q211 0 336 -144.5t125 -391.5v-75h-755v-14q0 -142 80 -227t214 -85q91 0 155 41t87 114h207q-24 -149 -149 -240t-304 -91zM1258 923q-117 0 -193 -77t-85 -204h536q-3 130 -72.5 205.5t-185.5 75.5zM479 161q122 0 206.5 71.5t84.5 175.5v80l-269 -16
q-107 -5 -165 -46t-58 -111t55.5 -112t145.5 -42zM1223 1431v-119h-646v119h646z" />
    <glyph glyph-name="Gcaron" unicode="&#x1e6;" horiz-adv-x="1462" 
d="M661 1547l-286 306h188l182 -199h4l182 199h188l-286 -306h-172zM1376 600q0 -293 -164.5 -458.5t-457.5 -165.5q-310 0 -491.5 202.5t-181.5 549.5q0 341 180.5 540t489.5 199q241 0 408.5 -131t205.5 -347h-230q-40 134 -141 208t-242 74q-207 0 -324.5 -143.5
t-117.5 -397.5q0 -259 120 -408.5t326 -149.5q175 0 286 102.5t113 266.5v25h-373v181h594v-147z" />
    <glyph glyph-name="gcaron" unicode="&#x1e7;" horiz-adv-x="1192" 
d="M653 1251h-158l-273 307h185l164 -194h6l164 194h185zM572 183q132 0 212.5 99.5t80.5 263.5q0 165 -80.5 266t-212.5 101q-131 0 -209.5 -100t-78.5 -267q0 -166 78.5 -264.5t209.5 -98.5zM573 -391q-196 0 -324 84t-144 223h219q18 -63 88 -100t170 -37q129 0 206 63
t77 169v179h-5q-47 -88 -138.5 -137.5t-206.5 -49.5q-204 0 -328.5 148.5t-124.5 395.5q0 251 124.5 400.5t333.5 149.5q115 0 206 -50.5t141 -140.5h4v180h210v-1058q0 -194 -136.5 -306.5t-371.5 -112.5z" />
    <glyph glyph-name="Kcaron" unicode="&#x1e8;" horiz-adv-x="1293" 
d="M357 0h-224v1443h224v-687h9l603 687h266l-572 -639l620 -804h-278l-500 650l-148 -169v-481zM543 1547l-286 306h188l182 -199h4l182 199h188l-286 -306h-172z" />
    <glyph glyph-name="kcaron" unicode="&#x1e9;" horiz-adv-x="1062" 
d="M338 617l447 469h255l-454 -468l470 -618h-250l-375 486l-94 -92v-394h-217v1508h217v-891h1zM142 1612l-286 306h188l182 -199h4l182 199h188l-286 -306h-172z" />
    <glyph glyph-name="Oogonek" unicode="&#x1ea;" horiz-adv-x="1513" 
d="M1024 -443q-112 0 -183 58.5t-71 150.5q0 125 135 226v4q-65 -20 -148 -20q-312 0 -494 200.5t-182 544.5t182 545t494 201t494 -201t182 -545q0 -216 -77.5 -381t-244.5 -304q-152 -122 -152 -224q0 -44 31.5 -71.5t82.5 -27.5q47 0 67 6v-144q-47 -18 -116 -18z
M757 1270q-206 0 -326.5 -148t-120.5 -401q0 -252 120.5 -400t326.5 -148q205 0 325.5 148t120.5 400q0 253 -120.5 401t-325.5 148z" />
    <glyph glyph-name="oogonek" unicode="&#x1eb;" horiz-adv-x="1152" 
d="M784 -443q-112 0 -182 59t-70 151q0 125 122 220v5q-30 -5 -78 -5q-236 0 -375 150t-139 406q0 255 139.5 406t374.5 151t374 -150.5t139 -406.5q0 -158 -59 -286.5t-168 -212.5q-143 -113 -143 -232q0 -44 31 -71.5t83 -27.5q47 0 67 6v-144q-46 -18 -116 -18zM576 167
q138 0 215.5 99t77.5 277t-77.5 277.5t-215.5 99.5t-216 -100t-78 -277t78 -276.5t216 -99.5z" />
    <glyph glyph-name="Oogonekmacron" unicode="&#x1ec;" horiz-adv-x="1513" 
d="M1024 -443q-112 0 -183 58.5t-71 150.5q0 125 135 226v4q-65 -20 -148 -20q-312 0 -494 200.5t-182 544.5t182 545t494 201t494 -201t182 -545q0 -216 -77.5 -381t-244.5 -304q-152 -122 -152 -224q0 -44 31.5 -71.5t82.5 -27.5q47 0 67 6v-144q-47 -18 -116 -18z
M757 1270q-206 0 -326.5 -148t-120.5 -401q0 -252 120.5 -400t326.5 -148q205 0 325.5 148t120.5 400q0 253 -120.5 401t-325.5 148zM1084 1755v-119h-654v119h654z" />
    <glyph glyph-name="oogonekmacron" unicode="&#x1ed;" horiz-adv-x="1152" 
d="M899 1431v-119h-646v119h646zM784 -443q-112 0 -182 59t-70 151q0 125 122 220v5q-30 -5 -78 -5q-236 0 -375 150t-139 406q0 255 139.5 406t374.5 151t374 -150.5t139 -406.5q0 -158 -59 -286.5t-168 -212.5q-143 -113 -143 -232q0 -44 31 -71.5t83 -27.5q47 0 67 6
v-144q-46 -18 -116 -18zM576 167q138 0 215.5 99t77.5 277t-77.5 277.5t-215.5 99.5t-216 -100t-78 -277t78 -276.5t216 -99.5z" />
    <glyph glyph-name="u01F1" unicode="&#x1f1;" horiz-adv-x="2686" 
d="M1508 0v153l790 1089v8h-766v193h1041v-153l-787 -1089v-7h806v-194h-1084zM133 1443h517q323 0 503 -189t180 -530q0 -342 -180 -533t-503 -191h-517v1443zM357 1250v-1056h272q230 0 353 136.5t123 391.5t-123 391.5t-353 136.5h-272z" />
    <glyph glyph-name="u01F2" unicode="&#x1f2;" horiz-adv-x="2428" 
d="M1502 0v141l584 769v3h-581v173h828v-149l-570 -760v-4h576v-173h-837zM133 1443h517q323 0 503 -189t180 -530q0 -342 -180 -533t-503 -191h-517v1443zM357 1250v-1056h272q230 0 353 136.5t123 391.5t-123 391.5t-353 136.5h-272z" />
    <glyph glyph-name="u01F3" unicode="&#x1f3;" horiz-adv-x="2215" 
d="M1289 0v141l584 769v3h-581v173h828v-149l-570 -760v-4h576v-173h-837zM520 -11q-205 0 -331.5 152t-126.5 403q0 249 126.5 401t329.5 152q116 0 205.5 -50.5t136.5 -140.5h5v602h216v-1508h-210v184h-4q-48 -93 -138.5 -144t-208.5 -51zM575 913q-131 0 -211 -101
t-80 -269q0 -169 79.5 -269.5t211.5 -100.5q131 0 211 102t80 268t-80.5 268t-210.5 102z" />
    <glyph glyph-name="Gacute" unicode="&#x1f4;" horiz-adv-x="1462" 
d="M835 1551h-176l231 303h225zM1376 600q0 -293 -164.5 -458.5t-457.5 -165.5q-310 0 -491.5 202.5t-181.5 549.5q0 341 180.5 540t489.5 199q241 0 408.5 -131t205.5 -347h-230q-40 134 -141 208t-242 74q-207 0 -324.5 -143.5t-117.5 -397.5q0 -259 120 -408.5
t326 -149.5q175 0 286 102.5t113 266.5v25h-373v181h594v-147z" />
    <glyph glyph-name="gacute" unicode="&#x1f5;" horiz-adv-x="1192" 
d="M661 1255h-178l215 303h225zM572 183q132 0 212.5 99.5t80.5 263.5q0 165 -80.5 266t-212.5 101q-131 0 -209.5 -100t-78.5 -267q0 -166 78.5 -264.5t209.5 -98.5zM573 -391q-196 0 -324 84t-144 223h219q18 -63 88 -100t170 -37q129 0 206 63t77 169v179h-5
q-47 -88 -138.5 -137.5t-206.5 -49.5q-204 0 -328.5 148.5t-124.5 395.5q0 251 124.5 400.5t333.5 149.5q115 0 206 -50.5t141 -140.5h4v180h210v-1058q0 -194 -136.5 -306.5t-371.5 -112.5z" />
    <glyph glyph-name="Ngrave" unicode="&#x1f8;" horiz-adv-x="1443" 
d="M635 1553l-280 303h225l231 -303h-176zM351 0h-218v1443h203l748 -1064h8v1064h218v-1443h-202l-748 1063h-9v-1063z" />
    <glyph glyph-name="ngrave" unicode="&#x1f9;" horiz-adv-x="1148" 
d="M661 1255h-178l-262 303h225zM111 0v1086h207v-183h4q101 195 343 195q179 0 278 -106.5t99 -295.5v-696h-217v655q0 257 -235 257q-122 0 -192 -77.5t-70 -207.5v-627h-217z" />
    <glyph glyph-name="Aringacute" unicode="&#x1fa;" horiz-adv-x="1336" 
d="M1073 0l-132 390h-550l-132 -390h-233l521 1443h242l521 -1443h-237zM663 1203l-215 -633h436l-215 633h-6zM668 1484q-84 0 -143 58.5t-59 141.5t59 141.5t143 58.5t143 -58.5t59 -141.5t-59 -141.5t-143 -58.5zM668 1575q46 0 77.5 31.5t31.5 77.5q0 45 -31.5 76.5
t-77.5 31.5t-77.5 -31.5t-31.5 -76.5q0 -46 31.5 -77.5t77.5 -31.5zM718 2114h202l-175 -188h-146z" />
    <glyph glyph-name="aringacute" unicode="&#x1fb;" horiz-adv-x="1092" 
d="M488 162q121 0 202 69.5t81 176.5v85l-264 -18q-225 -14 -225 -160q0 -70 56 -111.5t150 -41.5zM430 -11q-163 0 -265 88.5t-102 233.5q0 142 106.5 223t308.5 94l293 17v84q0 93 -59.5 142.5t-168.5 49.5q-88 0 -148.5 -42t-74.5 -113h-203q5 144 127 239t305 95
q199 0 317.5 -97t118.5 -258v-745h-207v181h-5q-45 -88 -138 -140t-205 -52zM546 1193q-86 0 -146 59.5t-60 144.5q0 86 60 145.5t146 59.5t145.5 -60t59.5 -145t-60 -144.5t-145 -59.5zM436 1397q0 -45 32 -77t78 -32q45 0 77 32t32 77q0 46 -32 78t-77 32q-46 0 -78 -32
t-32 -78zM471 1673l125 203h186l-165 -203h-146z" />
    <glyph glyph-name="AEacute" unicode="&#x1fc;" horiz-adv-x="1997" 
d="M1505 1551h-176l231 303h225zM812 1263l-298 -656h449v656h-151zM963 0v428h-527l-196 -428h-227l661 1443h1189v-193h-685v-430h648v-186h-648v-441h685v-193h-900z" />
    <glyph glyph-name="aeacute" unicode="&#x1fd;" horiz-adv-x="1796" 
d="M987 1255h-178l215 303h225zM1269 -13q-134 0 -237 56.5t-156 160.5h-9q-131 -215 -405 -215q-183 0 -291 86.5t-108 231.5q0 143 107 225.5t307 92.5l293 15v72q0 92 -65.5 150.5t-168.5 58.5q-97 0 -157.5 -42t-67.5 -113h-204q8 147 124.5 240.5t297.5 93.5
q133 0 231.5 -52.5t139.5 -144.5h8q115 197 365 197q211 0 336 -144.5t125 -391.5v-75h-755v-14q0 -142 80 -227t214 -85q91 0 155 41t87 114h207q-24 -149 -149 -240t-304 -91zM1258 923q-117 0 -193 -77t-85 -204h536q-3 130 -72.5 205.5t-185.5 75.5zM479 161
q122 0 206.5 71.5t84.5 175.5v80l-269 -16q-107 -5 -165 -46t-58 -111t55.5 -112t145.5 -42z" />
    <glyph glyph-name="Oslashacute" unicode="&#x1fe;" horiz-adv-x="1513" 
d="M1151 1854l-280 -303h-176l231 303h225zM1114 1078l-605 -830q104 -75 248 -75q205 0 325.5 148t120.5 400q0 216 -89 357zM420 335l614 838q-112 97 -277 97q-206 0 -326.5 -148t-120.5 -401q0 -240 110 -386zM1370 1429l-119 -163q182 -201 182 -545t-182 -544.5
t-494 -200.5q-215 0 -374 99l-94 -129l-101 73l98 134q-205 202 -205 568q0 344 182 545t494 201q238 0 404 -120l108 147z" />
    <glyph glyph-name="oslashacute" unicode="&#x1ff;" horiz-adv-x="1152" 
d="M925 1558l-262 -303h-178l215 303h225zM814 787l-384 -583q63 -37 146 -37q138 0 215.5 99t77.5 277q0 149 -55 244zM341 293l389 585q-67 42 -154 42q-138 0 -216 -100t-78 -277q0 -154 59 -250zM1003 1074l-70 -107q156 -150 156 -424q0 -256 -138.5 -406t-374.5 -150
q-141 0 -252 57l-61 -93l-104 67l64 97q-161 150 -161 428q0 255 139.5 406t374.5 151q150 0 260 -62l65 98z" />
    <glyph glyph-name="Adblgrave" unicode="&#x200;" horiz-adv-x="1336" 
d="M1073 0l-132 390h-550l-132 -390h-233l521 1443h242l521 -1443h-237zM663 1203l-215 -633h436l-215 633h-6zM755 1551l-279 303h217l231 -303h-169zM415 1551l-280 303h217l231 -303h-168z" />
    <glyph glyph-name="adblgrave" unicode="&#x201;" horiz-adv-x="1092" 
d="M488 162q121 0 202 69.5t81 176.5v85l-264 -18q-225 -14 -225 -160q0 -70 56 -111.5t150 -41.5zM430 -11q-163 0 -265 88.5t-102 233.5q0 142 106.5 223t308.5 94l293 17v84q0 93 -59.5 142.5t-168.5 49.5q-88 0 -148.5 -42t-74.5 -113h-203q5 144 127 239t305 95
q199 0 317.5 -97t118.5 -258v-745h-207v181h-5q-45 -88 -138 -140t-205 -52zM461 1255h-162l-247 303h215zM796 1255h-162l-247 303h216z" />
    <glyph glyph-name="Ainvertedbreve" unicode="&#x202;" horiz-adv-x="1336" 
d="M1073 0l-132 390h-550l-132 -390h-233l521 1443h242l521 -1443h-237zM663 1203l-215 -633h436l-215 633h-6zM343 1547q1 134 90.5 220t234.5 86t234.5 -86t90.5 -220h-140q0 80 -52.5 134t-132.5 54t-132.5 -54t-52.5 -134h-140z" />
    <glyph glyph-name="ainvertedbreve" unicode="&#x203;" horiz-adv-x="1092" 
d="M488 162q121 0 202 69.5t81 176.5v85l-264 -18q-225 -14 -225 -160q0 -70 56 -111.5t150 -41.5zM430 -11q-163 0 -265 88.5t-102 233.5q0 142 106.5 223t308.5 94l293 17v84q0 93 -59.5 142.5t-168.5 49.5q-88 0 -148.5 -42t-74.5 -113h-203q5 144 127 239t305 95
q199 0 317.5 -97t118.5 -258v-745h-207v181h-5q-45 -88 -138 -140t-205 -52zM210 1251q1 139 93 226.5t242 87.5t242 -87.5t93 -226.5h-143q-1 82 -55.5 137.5t-136.5 55.5t-136.5 -55.5t-55.5 -137.5h-143z" />
    <glyph glyph-name="Edblgrave" unicode="&#x204;" horiz-adv-x="1146" 
d="M678 1551l-279 303h217l231 -303h-169zM338 1551l-280 303h217l231 -303h-168zM1049 194v-194h-916v1443h916v-193h-692v-422h655v-186h-655v-448h692z" />
    <glyph glyph-name="edblgrave" unicode="&#x205;" horiz-adv-x="1113" 
d="M563 923q-117 0 -194.5 -78t-86.5 -203h551q-4 127 -78 204t-192 77zM832 318h207q-23 -146 -153 -238.5t-313 -92.5q-236 0 -373.5 148.5t-137.5 403.5t137 408t365 153q224 0 355 -144.5t131 -391.5v-76h-769v-13q0 -141 81 -226.5t215 -85.5q95 0 164 42t91 113z
M480 1255h-162l-247 303h215zM815 1255h-162l-247 303h216z" />
    <glyph glyph-name="Einvertedbreve" unicode="&#x206;" horiz-adv-x="1146" 
d="M1049 194v-194h-916v1443h916v-193h-692v-422h655v-186h-655v-448h692zM266 1547q1 134 90.5 220t234.5 86t234.5 -86t90.5 -220h-140q0 80 -52.5 134t-132.5 54t-132.5 -54t-52.5 -134h-140z" />
    <glyph glyph-name="einvertedbreve" unicode="&#x207;" horiz-adv-x="1113" 
d="M563 923q-117 0 -194.5 -78t-86.5 -203h551q-4 127 -78 204t-192 77zM832 318h207q-23 -146 -153 -238.5t-313 -92.5q-236 0 -373.5 148.5t-137.5 403.5t137 408t365 153q224 0 355 -144.5t131 -391.5v-76h-769v-13q0 -141 81 -226.5t215 -85.5q95 0 164 42t91 113z
M229 1251q1 139 93 226.5t242 87.5t242 -87.5t93 -226.5h-143q-1 82 -55.5 137.5t-136.5 55.5t-136.5 -55.5t-55.5 -137.5h-143z" />
    <glyph glyph-name="Idblgrave" unicode="&#x208;" horiz-adv-x="490" 
d="M357 0h-224v1443h224v-1443zM332 1551l-279 303h217l231 -303h-169zM-8 1551l-280 303h217l231 -303h-168z" />
    <glyph glyph-name="idblgrave" unicode="&#x209;" horiz-adv-x="455" 
d="M119 0v1086h217v-1086h-217zM144 1255h-162l-247 303h215zM479 1255h-162l-247 303h216z" />
    <glyph glyph-name="Iinvertedbreve" unicode="&#x20a;" horiz-adv-x="490" 
d="M357 0h-224v1443h224v-1443zM-80 1547q1 134 90.5 220t234.5 86t234.5 -86t90.5 -220h-140q0 80 -52.5 134t-132.5 54t-132.5 -54t-52.5 -134h-140z" />
    <glyph glyph-name="iinvertedbreve" unicode="&#x20b;" horiz-adv-x="455" 
d="M119 0v1086h217v-1086h-217zM-107 1251q1 139 93 226.5t242 87.5t242 -87.5t93 -226.5h-143q-1 82 -55.5 137.5t-136.5 55.5t-136.5 -55.5t-55.5 -137.5h-143z" />
    <glyph glyph-name="Odblgrave" unicode="&#x20c;" horiz-adv-x="1513" 
d="M844 1551l-279 303h217l231 -303h-169zM504 1551l-280 303h217l231 -303h-168zM757 1467q311 0 493.5 -201t182.5 -545t-182 -544.5t-494 -200.5t-494 200.5t-182 544.5t182 545t494 201zM757 1270q-206 0 -326.5 -148t-120.5 -401q0 -252 120.5 -400t326.5 -148
q205 0 325.5 148t120.5 400q0 253 -120.5 401t-325.5 148z" />
    <glyph glyph-name="odblgrave" unicode="&#x20d;" horiz-adv-x="1152" 
d="M576 -13q-236 0 -375 150t-139 406q0 255 139.5 406t374.5 151t374 -150.5t139 -406.5t-138.5 -406t-374.5 -150zM576 167q138 0 215.5 99t77.5 277t-77.5 277.5t-215.5 99.5t-216 -100t-78 -277t78 -276.5t216 -99.5zM492 1255h-162l-247 303h215zM827 1255h-162
l-247 303h216z" />
    <glyph glyph-name="Oinvertedbreve" unicode="&#x20e;" horiz-adv-x="1513" 
d="M432 1547q1 134 90.5 220t234.5 86t234.5 -86t90.5 -220h-140q0 80 -52.5 134t-132.5 54t-132.5 -54t-52.5 -134h-140zM757 1467q311 0 493.5 -201t182.5 -545t-182 -544.5t-494 -200.5t-494 200.5t-182 544.5t182 545t494 201zM757 1270q-206 0 -326.5 -148t-120.5 -401
q0 -252 120.5 -400t326.5 -148q205 0 325.5 148t120.5 400q0 253 -120.5 401t-325.5 148z" />
    <glyph glyph-name="oinvertedbreve" unicode="&#x20f;" horiz-adv-x="1152" 
d="M576 -13q-236 0 -375 150t-139 406q0 255 139.5 406t374.5 151t374 -150.5t139 -406.5t-138.5 -406t-374.5 -150zM576 167q138 0 215.5 99t77.5 277t-77.5 277.5t-215.5 99.5t-216 -100t-78 -277t78 -276.5t216 -99.5zM241 1251q1 139 93 226.5t242 87.5t242 -87.5
t93 -226.5h-143q-1 82 -55.5 137.5t-136.5 55.5t-136.5 -55.5t-55.5 -137.5h-143z" />
    <glyph glyph-name="Rdblgrave" unicode="&#x210;" horiz-adv-x="1265" 
d="M651 1551l-279 303h217l231 -303h-169zM311 1551l-280 303h217l231 -303h-168zM357 1255v-519h322q130 0 201.5 68t71.5 192q0 121 -74.5 190t-204.5 69h-316zM357 555v-555h-224v1443h567q222 0 352 -119.5t130 -321.5q0 -147 -74.5 -257.5t-205.5 -154.5l324 -590h-259
l-294 555h-316z" />
    <glyph glyph-name="rdblgrave" unicode="&#x211;" horiz-adv-x="688" 
d="M111 0v1086h207v-183h4q25 91 95.5 142.5t166.5 51.5q46 0 76 -7v-203q-33 13 -99 13q-107 0 -170 -68.5t-63 -183.5v-648h-217zM295 1255h-162l-247 303h215zM630 1255h-162l-247 303h216z" />
    <glyph glyph-name="Rinvertedbreve" unicode="&#x212;" horiz-adv-x="1265" 
d="M357 1255v-519h322q130 0 201.5 68t71.5 192q0 121 -74.5 190t-204.5 69h-316zM357 555v-555h-224v1443h567q222 0 352 -119.5t130 -321.5q0 -147 -74.5 -257.5t-205.5 -154.5l324 -590h-259l-294 555h-316zM239 1547q1 134 90.5 220t234.5 86t234.5 -86t90.5 -220h-140
q0 80 -52.5 134t-132.5 54t-132.5 -54t-52.5 -134h-140z" />
    <glyph glyph-name="rinvertedbreve" unicode="&#x213;" horiz-adv-x="688" 
d="M111 0v1086h207v-183h4q25 91 95.5 142.5t166.5 51.5q46 0 76 -7v-203q-33 13 -99 13q-107 0 -170 -68.5t-63 -183.5v-648h-217zM44 1251q1 139 93 226.5t242 87.5t242 -87.5t93 -226.5h-143q-1 82 -55.5 137.5t-136.5 55.5t-136.5 -55.5t-55.5 -137.5h-143z" />
    <glyph glyph-name="Udblgrave" unicode="&#x214;" horiz-adv-x="1434" 
d="M804 1551l-279 303h217l231 -303h-169zM464 1551l-280 303h217l231 -303h-168zM357 1443v-917q0 -158 95.5 -254.5t264.5 -96.5t265 96.5t96 254.5v917h223v-936q0 -237 -158 -384t-426 -147t-426 147t-158 384v936h224z" />
    <glyph glyph-name="udblgrave" unicode="&#x215;" horiz-adv-x="1148" 
d="M1037 1086v-1086h-207v186h-4q-97 -198 -339 -198q-178 0 -279.5 107.5t-101.5 294.5v696h217v-655q0 -126 59.5 -191t176.5 -65q121 0 191 77.5t70 207.5v626h217zM488 1255h-162l-247 303h215zM823 1255h-162l-247 303h216z" />
    <glyph glyph-name="Uinvertedbreve" unicode="&#x216;" horiz-adv-x="1434" 
d="M357 1443v-917q0 -158 95.5 -254.5t264.5 -96.5t265 96.5t96 254.5v917h223v-936q0 -237 -158 -384t-426 -147t-426 147t-158 384v936h224zM392 1547q1 134 90.5 220t234.5 86t234.5 -86t90.5 -220h-140q0 80 -52.5 134t-132.5 54t-132.5 -54t-52.5 -134h-140z" />
    <glyph glyph-name="uinvertedbreve" unicode="&#x217;" horiz-adv-x="1148" 
d="M1037 1086v-1086h-207v186h-4q-97 -198 -339 -198q-178 0 -279.5 107.5t-101.5 294.5v696h217v-655q0 -126 59.5 -191t176.5 -65q121 0 191 77.5t70 207.5v626h217zM237 1251q1 139 93 226.5t242 87.5t242 -87.5t93 -226.5h-143q-1 82 -55.5 137.5t-136.5 55.5
t-136.5 -55.5t-55.5 -137.5h-143z" />
    <glyph glyph-name="Scommaaccent" unicode="&#x218;" horiz-adv-x="1244" 
d="M69 402h221q12 -107 107 -172t238 -65q136 0 224.5 63t88.5 160q0 84 -63 137.5t-203 87.5l-187 45q-199 48 -293.5 143t-94.5 246q0 186 146.5 303t378.5 117q228 0 372 -116.5t149 -303.5h-218q-10 107 -92.5 169t-213.5 62q-130 0 -211.5 -60t-81.5 -156
q0 -76 61 -124.5t201 -83.5l159 -39q222 -52 320.5 -146.5t98.5 -253.5q0 -202 -150 -320.5t-407 -118.5q-241 0 -390.5 115.5t-159.5 310.5zM603 -526h-159l102 360h190z" />
    <glyph glyph-name="scommaaccent" unicode="&#x219;" horiz-adv-x="1018" 
d="M93 777q0 143 117 232.5t304 89.5q178 0 294.5 -90.5t120.5 -232.5h-204q-7 72 -65 114t-151 42q-92 0 -148.5 -39.5t-56.5 -103.5q0 -98 169 -139l180 -43q164 -40 232 -106t68 -186q0 -145 -125 -236.5t-322 -91.5q-189 0 -309.5 89.5t-132.5 237.5h214
q13 -78 74.5 -119.5t164.5 -41.5q101 0 160.5 39t59.5 105q0 52 -35.5 82t-121.5 52l-194 48q-293 72 -293 298zM488 -526h-159l102 360h190z" />
    <glyph glyph-name="Tcommaaccent" unicode="&#x21a;" horiz-adv-x="1222" 
d="M594 -526h-159l102 360h190zM723 0h-224v1250h-450v193h1123v-193h-449v-1250z" />
    <glyph glyph-name="tcommaaccent" unicode="&#x21b;" horiz-adv-x="672" 
d="M371 -526h-159l102 360h190zM176 1330h216v-244h208v-171h-208v-607q0 -71 32.5 -104.5t100.5 -33.5q39 0 74 5v-171q-44 -11 -122 -11q-163 0 -232 67.5t-69 225.5v629h-150v171h150v244z" />
    <glyph glyph-name="Hcaron" unicode="&#x21e;" horiz-adv-x="1454" 
d="M1322 0h-224v639h-741v-639h-224v1443h224v-610h741v610h224v-1443zM641 1547l-286 306h188l182 -199h4l182 199h188l-286 -306h-172z" />
    <glyph glyph-name="hcaron" unicode="&#x21f;" horiz-adv-x="1171" 
d="M120 0v1508h215v-605h5q99 195 343 195q178 0 280 -109.5t102 -294.5v-694h-217v652q0 123 -61 191.5t-179 68.5q-126 0 -198.5 -79t-72.5 -211v-622h-217zM143 1612l-286 306h188l182 -199h4l182 199h188l-286 -306h-172z" />
    <glyph glyph-name="Adotaccent" unicode="&#x226;" horiz-adv-x="1336" 
d="M1073 0l-132 390h-550l-132 -390h-233l521 1443h242l521 -1443h-237zM663 1203l-215 -633h436l-215 633h-6zM668 1576q-55 0 -93 38.5t-38 92.5q0 55 38 93t93 38t93 -38t38 -93q0 -54 -38 -92.5t-93 -38.5z" />
    <glyph glyph-name="adotaccent" unicode="&#x227;" horiz-adv-x="1092" 
d="M488 162q121 0 202 69.5t81 176.5v85l-264 -18q-225 -14 -225 -160q0 -70 56 -111.5t150 -41.5zM430 -11q-163 0 -265 88.5t-102 233.5q0 142 106.5 223t308.5 94l293 17v84q0 93 -59.5 142.5t-168.5 49.5q-88 0 -148.5 -42t-74.5 -113h-203q5 144 127 239t305 95
q199 0 317.5 -97t118.5 -258v-745h-207v181h-5q-45 -88 -138 -140t-205 -52zM545 1262q-55 0 -94.5 39t-39.5 93q0 55 39.5 94t94.5 39t94 -39t39 -94q0 -54 -39 -93t-94 -39z" />
    <glyph glyph-name="Ecedilla" unicode="&#x228;" horiz-adv-x="1146" 
d="M1049 1250h-692v-422h655v-186h-655v-448h692v-194h-381l-51 -132q97 0 148.5 -39.5t51.5 -114.5q0 -80 -62.5 -129.5t-163.5 -50.5q-85 -2 -145 17v105q37 -14 118 -14q115 0 115 66q0 34 -32.5 48.5t-108.5 14.5h-55v83l59 146h-409v1443h916v-193z" />
    <glyph glyph-name="ecedilla" unicode="&#x229;" horiz-adv-x="1113" 
d="M282 642h551q-4 127 -78 204t-192 77q-117 0 -194.5 -78t-86.5 -203zM1050 488h-769v-13q0 -141 81 -226.5t215 -85.5q95 0 164 42t91 113h207q-21 -131 -129.5 -220.5t-266.5 -106.5l-47 -123q97 0 148.5 -39.5t51.5 -114.5q0 -80 -62.5 -129.5t-163.5 -50.5
q-85 -2 -145 17v105q37 -14 118 -14q115 0 115 66q0 34 -32.5 48.5t-108.5 14.5h-55v83l55 135q-212 18 -333.5 164.5t-121.5 385.5q0 255 137 408t365 153q224 0 355 -144.5t131 -391.5v-76z" />
    <glyph glyph-name="Odieresismacron" unicode="&#x22a;" horiz-adv-x="1513" 
d="M757 1467q311 0 493.5 -201t182.5 -545t-182 -544.5t-494 -200.5t-494 200.5t-182 544.5t182 545t494 201zM757 1270q-206 0 -326.5 -148t-120.5 -401q0 -252 120.5 -400t326.5 -148q205 0 325.5 148t120.5 400q0 253 -120.5 401t-325.5 148zM565 1798q45 0 76.5 -32
t31.5 -76q0 -45 -31.5 -76.5t-76.5 -31.5q-46 0 -78 31.5t-32 76.5t32 76.5t78 31.5zM430 2042h654v-119h-654v119zM949 1798q46 0 78 -31.5t32 -76.5t-32 -76.5t-78 -31.5q-45 0 -76.5 31.5t-31.5 76.5q0 44 31.5 76t76.5 32z" />
    <glyph glyph-name="odieresismacron" unicode="&#x22b;" horiz-adv-x="1152" 
d="M377 1260q-48 0 -81.5 33t-33.5 80t33.5 80t81.5 33q49 0 81.5 -33t32.5 -80t-33 -80t-81 -33zM775 1260q-48 0 -81 33t-33 80t33 80t81 33q49 0 82 -33t33 -80t-33.5 -80t-81.5 -33zM899 1777v-119h-646v119h646zM576 -13q-236 0 -375 150t-139 406q0 255 139.5 406
t374.5 151t374 -150.5t139 -406.5t-138.5 -406t-374.5 -150zM576 167q138 0 215.5 99t77.5 277t-77.5 277.5t-215.5 99.5t-216 -100t-78 -277t78 -276.5t216 -99.5z" />
    <glyph glyph-name="Otildemacron" unicode="&#x22c;" horiz-adv-x="1513" 
d="M885 1535q-37 0 -69 15t-55.5 36.5t-44 43.5t-42 37t-42.5 15q-67 0 -69 -131h-130q0 121 51.5 189.5t139.5 68.5q47 0 88.5 -23t65.5 -50.5t51.5 -50.5t51.5 -23q63 0 63 133h130q0 -118 -52 -189t-137 -71zM1084 2042v-119h-654v119h654zM757 1467q311 0 493.5 -201
t182.5 -545t-182 -544.5t-494 -200.5t-494 200.5t-182 544.5t182 545t494 201zM757 1270q-206 0 -326.5 -148t-120.5 -401q0 -252 120.5 -400t326.5 -148q205 0 325.5 148t120.5 400q0 253 -120.5 401t-325.5 148z" />
    <glyph glyph-name="otildemacron" unicode="&#x22d;" horiz-adv-x="1152" 
d="M712 1248q-45 0 -84.5 23t-63 50t-52 50t-53.5 23q-33 0 -50.5 -34.5t-18.5 -95.5h-129q0 120 51.5 188.5t139.5 68.5q47 0 88 -23t65 -50t51.5 -50t51.5 -23q63 0 63 132h130q0 -118 -52.5 -188.5t-136.5 -70.5zM899 1777v-119h-646v119h646zM576 -13q-236 0 -375 150
t-139 406q0 255 139.5 406t374.5 151t374 -150.5t139 -406.5t-138.5 -406t-374.5 -150zM576 167q138 0 215.5 99t77.5 277t-77.5 277.5t-215.5 99.5t-216 -100t-78 -277t78 -276.5t216 -99.5z" />
    <glyph glyph-name="Odotaccent" unicode="&#x22e;" horiz-adv-x="1513" 
d="M757 1576q-55 0 -93 38.5t-38 92.5q0 55 38 93t93 38t93 -38t38 -93q0 -54 -38 -92.5t-93 -38.5zM757 1467q311 0 493.5 -201t182.5 -545t-182 -544.5t-494 -200.5t-494 200.5t-182 544.5t182 545t494 201zM757 1270q-206 0 -326.5 -148t-120.5 -401q0 -252 120.5 -400
t326.5 -148q205 0 325.5 148t120.5 400q0 253 -120.5 401t-325.5 148z" />
    <glyph glyph-name="odotaccent" unicode="&#x22f;" horiz-adv-x="1152" 
d="M576 1262q-55 0 -94.5 39t-39.5 93q0 55 39.5 94t94.5 39t94 -39t39 -94q0 -54 -39 -93t-94 -39zM576 -13q-236 0 -375 150t-139 406q0 255 139.5 406t374.5 151t374 -150.5t139 -406.5t-138.5 -406t-374.5 -150zM576 167q138 0 215.5 99t77.5 277t-77.5 277.5
t-215.5 99.5t-216 -100t-78 -277t78 -276.5t216 -99.5z" />
    <glyph glyph-name="Odotaccentmacron" unicode="&#x230;" horiz-adv-x="1513" 
d="M757 1567q-52 0 -88 36t-36 87q0 50 36 85.5t88 35.5t88 -35.5t36 -85.5q0 -51 -36 -87t-88 -36zM1084 2042v-119h-654v119h654zM757 1467q311 0 493.5 -201t182.5 -545t-182 -544.5t-494 -200.5t-494 200.5t-182 544.5t182 545t494 201zM757 1270q-206 0 -326.5 -148
t-120.5 -401q0 -252 120.5 -400t326.5 -148q205 0 325.5 148t120.5 400q0 253 -120.5 401t-325.5 148z" />
    <glyph glyph-name="odotaccentmacron" unicode="&#x231;" horiz-adv-x="1152" 
d="M576 -13q-236 0 -375 150t-139 406q0 255 139.5 406t374.5 151t374 -150.5t139 -406.5t-138.5 -406t-374.5 -150zM576 167q138 0 215.5 99t77.5 277t-77.5 277.5t-215.5 99.5t-216 -100t-78 -277t78 -276.5t216 -99.5zM576 1258q-54 0 -93 38.5t-39 92.5q0 53 39 92
t93 39t93 -39t39 -92q0 -54 -39 -92.5t-93 -38.5zM899 1779v-119h-646v119h646z" />
    <glyph glyph-name="Ymacron" unicode="&#x232;" horiz-adv-x="1293" 
d="M758 0h-224v591l-508 852h250l368 -637h7l368 637h248l-509 -852v-591zM973 1755v-119h-654v119h654z" />
    <glyph glyph-name="ymacron" unicode="&#x233;" horiz-adv-x="1066" 
d="M220 -395q-54 0 -88 6v176q20 -5 69 -5q78 0 123.5 36.5t73.5 122.5l17 56l-394 1089h233l279 -888h5l279 888h228l-407 -1136q-70 -195 -160.5 -270t-257.5 -75zM857 1431v-119h-646v119h646z" />
    <glyph glyph-name="dotlessj" unicode="&#x237;" horiz-adv-x="454" 
d="M336 1086v-1133q0 -166 -87 -245.5t-266 -79.5q-5 0 -25.5 0.5t-22.5 0.5v172h31q84 0 118.5 35t34.5 118v1132h217z" />
    <glyph glyph-name="quoteright" unicode="&#x2bc;" horiz-adv-x="558" 
d="M330 915h-185l118 528h210z" />
    <glyph glyph-name="quoteright" unicode="&#x2019;" horiz-adv-x="558" 
d="M330 915h-185l118 528h210z" />
    <glyph glyph-name="circumflex" unicode="&#x2c6;" horiz-adv-x="1008" 
d="M583 1558l273 -307h-185l-164 194h-6l-164 -194h-185l273 307h158z" />
    <glyph glyph-name="caron" unicode="&#x2c7;" horiz-adv-x="1008" 
d="M583 1251h-158l-273 307h185l164 -194h6l164 194h185z" />
    <glyph glyph-name="breve" unicode="&#x2d8;" horiz-adv-x="1000" 
d="M165 1557h143q1 -82 55.5 -137.5t136.5 -55.5t136.5 55.5t55.5 137.5h143q-1 -139 -93 -226.5t-242 -87.5t-242 87.5t-93 226.5z" />
    <glyph glyph-name="dotaccent" unicode="&#x2d9;" horiz-adv-x="916" 
d="M458 1262q-55 0 -94.5 39t-39.5 93q0 55 39.5 94t94.5 39t94 -39t39 -94q0 -54 -39 -93t-94 -39z" />
    <glyph glyph-name="ring" unicode="&#x2da;" horiz-adv-x="1042" 
d="M521 1195q-85 0 -146 60.5t-61 144.5q0 85 61 145.5t146 60.5t146 -60.5t61 -145.5q0 -84 -61 -144.5t-146 -60.5zM521 1290q46 0 78.5 32.5t32.5 77.5q0 46 -32.5 78.5t-78.5 32.5t-78.5 -32.5t-32.5 -78.5q0 -45 32.5 -77.5t78.5 -32.5z" />
    <glyph glyph-name="ogonek" unicode="&#x2db;" horiz-adv-x="1000" 
d="M678 -315v-134q-54 -18 -125 -18q-100 0 -161 53t-61 141q0 154 170 273h128q-72 -58 -104.5 -110.5t-32.5 -109.5q0 -47 31.5 -75.5t83.5 -28.5q33 0 71 9z" />
    <glyph glyph-name="tilde" unicode="&#x2dc;" horiz-adv-x="1008" 
d="M635 1258q-45 0 -84.5 23t-63 50t-52 50t-53.5 23q-33 0 -50.5 -34.5t-18.5 -95.5h-129q0 120 51.5 188.5t139.5 68.5q47 0 88 -23t65 -50t51.5 -50t51.5 -23q63 0 63 132h130q0 -118 -52.5 -188.5t-136.5 -70.5z" />
    <glyph glyph-name="hungarumlaut" unicode="&#x2dd;" horiz-adv-x="1000" 
d="M469 1255l194 303h215l-247 -303h-162zM134 1255l194 303h215l-247 -303h-162z" />
    <glyph glyph-name="gravecmb" unicode="&#x300;" 
d="M85 1255h-178l-262 303h225z" />
    <glyph glyph-name="acutecmb" unicode="&#x301;" 
d="M87 1255h-178l215 303h225z" />
    <glyph glyph-name="circumflexcmb" unicode="&#x302;" 
d="M79 1558l273 -307h-185l-164 194h-6l-164 -194h-185l273 307h158z" />
    <glyph glyph-name="tildecmb" unicode="&#x303;" 
d="M136 1258q-45 0 -84.5 23t-63 50t-52 50t-53.5 23q-33 0 -50.5 -34.5t-18.5 -95.5h-129q0 120 51.5 188.5t139.5 68.5q47 0 88 -23t65 -50t51.5 -50t51.5 -23q63 0 63 132h130q0 -118 -52.5 -188.5t-136.5 -70.5z" />
    <glyph glyph-name="macroncmb" unicode="&#x304;" 
d="M323 1431v-119h-646v119h646z" />
    <glyph glyph-name="brevecmb" unicode="&#x306;" 
d="M-336 1557h143q1 -82 55.5 -137.5t136.5 -55.5t136.5 55.5t55.5 137.5h143q-1 -139 -93 -226.5t-242 -87.5t-242 87.5t-93 226.5z" />
    <glyph glyph-name="dotaccentcmb" unicode="&#x307;" 
d="M0 1262q-55 0 -94.5 39t-39.5 93q0 55 39.5 94t94.5 39t94 -39t39 -94q0 -54 -39 -93t-94 -39z" />
    <glyph glyph-name="dieresiscmb" unicode="&#x308;" 
d="M-201 1260q-50 0 -85.5 35t-35.5 84t35.5 84t85.5 35t85 -34.5t35 -84.5q0 -49 -35 -84t-85 -35zM202 1260q-50 0 -85.5 35t-35.5 84t35.5 84t85.5 35t85 -34.5t35 -84.5q0 -49 -35 -84t-85 -35z" />
    <glyph glyph-name="hookabovecmb" unicode="&#x309;" 
d="M-128 1449v116q61 26 139 26q93 0 148.5 -50.5t55.5 -135.5q0 -66 -46 -122.5t-125 -86.5l-70 91q94 35 94 108q0 33 -27 55t-67 22q-50 0 -102 -23z" />
    <glyph glyph-name="ringcmb" unicode="&#x30a;" 
d="M0 1193q-85 0 -146 60.5t-61 144.5q0 85 61 145.5t146 60.5t146 -60.5t61 -145.5q0 -84 -61 -144.5t-146 -60.5zM0 1288q46 0 78.5 32.5t32.5 77.5q0 46 -32.5 78.5t-78.5 32.5t-78.5 -32.5t-32.5 -78.5q0 -45 32.5 -77.5t78.5 -32.5z" />
    <glyph glyph-name="hungarumlautcmb" unicode="&#x30b;" 
d="M84 1255l194 303h215l-247 -303h-162zM-251 1255l194 303h215l-247 -303h-162z" />
    <glyph glyph-name="caroncmb" unicode="&#x30c;" 
d="M79 1251h-158l-273 307h185l164 -194h6l164 194h185z" />
    <glyph glyph-name="dblgravecmb" unicode="&#x30f;" 
d="M-84 1255h-162l-247 303h215zM251 1255h-162l-247 303h216z" />
    <glyph glyph-name="invertedbrevecmb" unicode="&#x311;" 
d="M-335 1251q1 139 93 226.5t242 87.5t242 -87.5t93 -226.5h-143q-1 82 -55.5 137.5t-136.5 55.5t-136.5 -55.5t-55.5 -137.5h-143z" />
    <glyph glyph-name="horncmb" unicode="&#x31b;" 
d="M0 955v158q37 -35 91 -35q57 1 82 37.5t25 118.5v155h182v-205q0 -121 -68 -194.5t-178 -73.5q-84 0 -134 39z" />
    <glyph glyph-name="dotbelowcmb" unicode="&#x323;" 
d="M0 -416q-55 0 -93 38.5t-38 92.5q0 55 38 93t93 38t93 -38t38 -93q0 -54 -38 -92.5t-93 -38.5z" />
    <glyph glyph-name="dieresisbelowcmb" unicode="&#x324;" 
d="M-201 -401q-50 0 -85.5 35t-35.5 84t35.5 84t85.5 35t85 -34.5t35 -84.5q0 -49 -35 -84t-85 -35zM202 -401q-50 0 -85.5 35t-35.5 84t35.5 84t85.5 35t85 -34.5t35 -84.5q0 -49 -35 -84t-85 -35z" />
    <glyph glyph-name="ringbelowcmb" unicode="&#x325;" 
d="M0 -566q-85 0 -146 60.5t-61 144.5q0 85 61 145.5t146 60.5t146 -60.5t61 -145.5q0 -84 -61 -144.5t-146 -60.5zM0 -471q46 0 78.5 32.5t32.5 77.5q0 46 -32.5 78.5t-78.5 32.5t-78.5 -32.5t-32.5 -78.5q0 -45 32.5 -77.5t78.5 -32.5z" />
    <glyph glyph-name="commabelowcmb" unicode="&#x326;" 
d="M-17 -526h-159l102 360h190z" />
    <glyph glyph-name="cedillacmb" unicode="&#x327;" 
d="M-108 -229v83l63 155l122 -9l-51 -132q97 0 148.5 -39.5t51.5 -114.5q0 -80 -62.5 -129.5t-163.5 -50.5q-85 -2 -145 17v105q37 -14 118 -14q115 0 115 66q0 34 -32.5 48.5t-108.5 14.5h-55z" />
    <glyph glyph-name="ogonekcmb" unicode="&#x328;" 
d="M137 -315v-134q-54 -18 -125 -18q-100 0 -161 53t-61 141q0 154 170 273h128q-72 -58 -104.5 -110.5t-32.5 -109.5q0 -47 31.5 -75.5t83.5 -28.5q33 0 71 9z" />
    <glyph glyph-name="circumflexbelowcmb" unicode="&#x32d;" 
d="M-86 -164h172l286 -306h-188l-182 200h-4l-182 -200h-188z" />
    <glyph glyph-name="brevebelowcmb" unicode="&#x32e;" 
d="M-325 -189h140q0 -80 52.5 -134t132.5 -54t132.5 54t52.5 134h140q-1 -134 -90.5 -220t-234.5 -86t-234.5 86t-90.5 220z" />
    <glyph glyph-name="tildebelowcmb" unicode="&#x330;" 
d="M133 -422q-45 0 -84.5 23t-63 50t-52 50t-53.5 23q-33 0 -50.5 -34.5t-18.5 -95.5h-129q0 120 51.5 188.5t139.5 68.5q47 0 88 -23t65 -50t51.5 -50t51.5 -23q63 0 63 132h130q0 -118 -52.5 -188.5t-136.5 -70.5z" />
    <glyph glyph-name="macronbelowcmb" unicode="&#x331;" 
d="M327 -223v-119h-654v119h654z" />
    <glyph glyph-name="greekquestionmark" unicode="&#x37e;" horiz-adv-x="538" 
d="M269 718q-55 0 -93 38t-38 93t38 93t93 38t93 -38t38 -93t-38 -93t-93 -38zM225 -262h-166l93 488h219z" />
    <glyph glyph-name="tonosgreek" unicode="&#x384;" horiz-adv-x="898" 
d="M284 1255l80 315h251l-155 -315h-176z" />
    <glyph glyph-name="dieresistonosgreek" unicode="&#x385;" horiz-adv-x="1243" 
d="M320 1260q-50 0 -85 35t-35 84q0 50 35 84.5t85 34.5t85 -34.5t35 -84.5q0 -49 -35 -84t-85 -35zM924 1260q-50 0 -85.5 35t-35.5 84t35.5 84t85.5 35t85 -34.5t35 -84.5q0 -49 -35 -84t-85 -35zM660 1255h-155l29 315h240z" />
    <glyph glyph-name="Alphatonosgreek" unicode="&#x386;" horiz-adv-x="1367" 
d="M1105 0l-132 390h-550l-132 -390h-233l521 1443h242l521 -1443h-237zM695 1203l-215 -633h436l-215 633h-6zM271 1127h-173l78 316h251z" />
    <glyph glyph-name="anoteleia" unicode="&#x387;" horiz-adv-x="560" 
d="M280 824q-55 0 -93 38t-38 93t38 93t93 38q56 0 93.5 -38t37.5 -93t-38 -93t-93 -38z" />
    <glyph glyph-name="Epsilontonosgreek" unicode="&#x388;" horiz-adv-x="1519" 
d="M225 1127h-173l78 316h251zM1421 194v-194h-916v1443h916v-193h-692v-422h655v-186h-655v-448h692z" />
    <glyph glyph-name="Etatonosgreek" unicode="&#x389;" horiz-adv-x="1827" 
d="M225 1127h-173l78 316h251zM1694 0h-224v639h-741v-639h-224v1443h224v-610h741v610h224v-1443z" />
    <glyph glyph-name="Iotatonosgreek" unicode="&#x38a;" horiz-adv-x="862" 
d="M729 0h-224v1443h224v-1443zM225 1127h-173l78 316h251z" />
    <glyph glyph-name="Omicrontonosgreek" unicode="&#x38c;" horiz-adv-x="1720" 
d="M964 1467q311 0 493.5 -201t182.5 -545t-182 -544.5t-494 -200.5t-494 200.5t-182 544.5t182 545t494 201zM964 1270q-206 0 -326.5 -148t-120.5 -401q0 -252 120.5 -400t326.5 -148q205 0 325.5 148t120.5 400q0 253 -120.5 401t-325.5 148zM206 1127h-173l78 316h251z
" />
    <glyph glyph-name="Upsilontonosgreek" unicode="&#x38e;" horiz-adv-x="1691" 
d="M209 1127h-173l78 316h251zM1157 0h-224v591l-508 852h250l368 -637h7l368 637h248l-509 -852v-591z" />
    <glyph glyph-name="Omegatonosgreek" unicode="&#x38f;" horiz-adv-x="1754" 
d="M1429 791q0 221 -120 350t-326 129t-326 -129t-120 -350q0 -184 77 -319t239 -241v-231h-544v190h304v7q-144 95 -224 253t-80 352q0 296 186.5 480.5t487.5 184.5t487.5 -184.5t186.5 -480.5q0 -194 -80 -352t-224 -253v-7h304v-190h-545v231q162 106 239.5 241
t77.5 319zM230 1127h-173l78 316h251z" />
    <glyph glyph-name="iotadieresistonosgreek" unicode="&#x390;" horiz-adv-x="585" 
d="M114 1086h216v-778q0 -71 32.5 -104.5t100.5 -33.5q37 0 74 5l10 -171q-46 -11 -132 -11q-162 0 -231.5 67.5t-69.5 225.5v800zM-50 1260q-50 0 -85 35t-35 84q0 50 35 84.5t85 34.5t85 -34.5t35 -84.5q0 -49 -35 -84t-85 -35zM554 1260q-50 0 -85.5 35t-35.5 84t35.5 84
t85.5 35t85 -34.5t35 -84.5q0 -49 -35 -84t-85 -35zM290 1255h-155l29 315h240z" />
    <glyph glyph-name="Alphagreek" unicode="&#x391;" horiz-adv-x="1336" 
d="M1073 0l-132 390h-550l-132 -390h-233l521 1443h242l521 -1443h-237zM663 1203l-215 -633h436l-215 633h-6z" />
    <glyph glyph-name="Betagreek" unicode="&#x392;" horiz-adv-x="1279" 
d="M726 0h-593v1443h591q191 0 307 -98.5t116 -261.5q0 -115 -74 -205.5t-182 -108.5v-8q147 -17 237.5 -113.5t90.5 -239.5q0 -191 -131 -299.5t-362 -108.5zM357 1260v-431h265q146 0 224 58t78 165q0 100 -66.5 154t-188.5 54h-312zM357 183h324q151 0 230 61t79 178
t-81.5 176.5t-240.5 59.5h-311v-475z" />
    <glyph glyph-name="Gammagreek" unicode="&#x393;" horiz-adv-x="1076" 
d="M357 0h-224v1443h881v-193h-657v-1250z" />
    <glyph glyph-name="Deltagreek" unicode="&#x394;" horiz-adv-x="1333" 
d="M1278 0h-1224v143l491 1300h242l491 -1300v-143zM297 201v-8h731v8l-362 1012h-6z" />
    <glyph glyph-name="Epsilongreek" unicode="&#x395;" horiz-adv-x="1146" 
d="M1049 194v-194h-916v1443h916v-193h-692v-422h655v-186h-655v-448h692z" />
    <glyph glyph-name="Zetagreek" unicode="&#x396;" horiz-adv-x="1273" 
d="M95 0v153l790 1089v8h-766v193h1041v-153l-787 -1089v-7h806v-194h-1084z" />
    <glyph glyph-name="Etagreek" unicode="&#x397;" horiz-adv-x="1454" 
d="M1322 0h-224v639h-741v-639h-224v1443h224v-610h741v610h224v-1443z" />
    <glyph glyph-name="Thetagreek" unicode="&#x398;" horiz-adv-x="1536" 
d="M1054 625h-572v186h572v-186zM768 1467q322 0 504.5 -200.5t182.5 -545.5q0 -344 -183 -544.5t-504 -200.5q-320 0 -503.5 200.5t-183.5 544.5q0 345 183 545.5t504 200.5zM768 1270q-214 0 -336.5 -147t-122.5 -402q0 -254 122.5 -401t336.5 -147q215 0 337 146.5
t122 401.5t-121.5 402t-337.5 147z" />
    <glyph glyph-name="Iotagreek" unicode="&#x399;" horiz-adv-x="490" 
d="M357 0h-224v1443h224v-1443z" />
    <glyph glyph-name="Kappagreek" unicode="&#x39a;" horiz-adv-x="1293" 
d="M357 0h-224v1443h224v-687h9l603 687h266l-572 -639l620 -804h-278l-500 650l-148 -169v-481z" />
    <glyph glyph-name="Lambdagreek" unicode="&#x39b;" horiz-adv-x="1299" 
d="M1033 0l-382 1192h-6l-383 -1192h-236l503 1443h241l503 -1443h-240z" />
    <glyph glyph-name="Mugreek" unicode="&#x39c;" horiz-adv-x="1726" 
d="M1593 1443v-1443h-205v1062h-7l-435 -1051h-166l-436 1051h-7v-1062h-204v1443h259l467 -1139h8l466 1139h260z" />
    <glyph glyph-name="Nugreek" unicode="&#x39d;" horiz-adv-x="1443" 
d="M351 0h-218v1443h203l748 -1064h8v1064h218v-1443h-202l-748 1063h-9v-1063z" />
    <glyph glyph-name="Xigreek" unicode="&#x39e;" horiz-adv-x="1264" 
d="M97 1443h1069v-197h-1069v197zM1079 638h-895v189h895v-189zM97 197h1069v-197h-1069v197z" />
    <glyph glyph-name="Omicrongreek" unicode="&#x39f;" horiz-adv-x="1513" 
d="M757 1467q311 0 493.5 -201t182.5 -545t-182 -544.5t-494 -200.5t-494 200.5t-182 544.5t182 545t494 201zM757 1270q-206 0 -326.5 -148t-120.5 -401q0 -252 120.5 -400t326.5 -148q205 0 325.5 148t120.5 400q0 253 -120.5 401t-325.5 148z" />
    <glyph glyph-name="Pigreek" unicode="&#x3a0;" horiz-adv-x="1434" 
d="M1302 0h-224v1250h-721v-1250h-224v1443h1169v-1443z" />
    <glyph glyph-name="Rhogreek" unicode="&#x3a1;" horiz-adv-x="1237" 
d="M133 1443h565q210 0 343 -132t133 -342q0 -211 -135 -343.5t-348 -132.5h-334v-493h-224v1443zM357 1254v-573h282q146 0 226 75.5t80 211.5q0 137 -80 211.5t-226 74.5h-282z" />
    <glyph glyph-name="Sigmagreek" unicode="&#x3a3;" horiz-adv-x="1245" 
d="M367 201v-7h783v-194h-1055v148l405 576l-387 551v168h1010v-193h-731v-8l350 -502v-7z" />
    <glyph glyph-name="Taugreek" unicode="&#x3a4;" horiz-adv-x="1222" 
d="M723 0h-224v1250h-450v193h1123v-193h-449v-1250z" />
    <glyph glyph-name="Upsilongreek" unicode="&#x3a5;" horiz-adv-x="1293" 
d="M758 0h-224v591l-508 852h250l368 -637h7l368 637h248l-509 -852v-591z" />
    <glyph glyph-name="Phigreek" unicode="&#x3a6;" horiz-adv-x="1685" 
d="M1391 717q0 204 -117 325t-324 131v-913q207 11 324 131.5t117 325.5zM294 717q0 -205 117 -325.5t324 -131.5v913q-207 -10 -324 -131t-117 -325zM950 -75h-215v146q-303 14 -484 189.5t-181 456.5q0 280 181 456t484 190v148h215v-148q303 -14 484.5 -190t181.5 -456
q0 -281 -181.5 -456.5t-484.5 -189.5v-146z" />
    <glyph glyph-name="Chigreek" unicode="&#x3a7;" horiz-adv-x="1337" 
d="M44 0l479 723v7l-474 713h267l356 -558h8l360 558h253l-489 -721v-6l480 -716h-262l-359 550h-7l-364 -550h-248z" />
    <glyph glyph-name="Psigreek" unicode="&#x3a8;" horiz-adv-x="1616" 
d="M917 0h-218v328q-267 2 -426.5 158t-159.5 414v543h218v-540q0 -178 94.5 -275.5t273.5 -104.5v920h218v-920q179 7 273.5 104.5t94.5 275.5v540h218v-543q0 -170 -72 -299.5t-205 -200.5t-309 -72v-328z" />
    <glyph glyph-name="Omegagreek" unicode="&#x3a9;" horiz-adv-x="1542" 
d="M1217 791q0 221 -120 350t-326 129t-326 -129t-120 -350q0 -184 77 -319t239 -241v-231h-544v190h304v7q-144 95 -224 253t-80 352q0 296 186.5 480.5t487.5 184.5t487.5 -184.5t186.5 -480.5q0 -194 -80 -352t-224 -253v-7h304v-190h-545v231q162 106 239.5 241
t77.5 319z" />
    <glyph glyph-name="Iotadieresisgreek" unicode="&#x3aa;" horiz-adv-x="490" 
d="M357 0h-224v1443h224v-1443zM44 1576q-50 0 -85.5 35t-35.5 84t35.5 84t85.5 35t85 -34.5t35 -84.5q0 -49 -35 -84t-85 -35zM447 1576q-50 0 -85.5 35t-35.5 84t35.5 84t85.5 35t85 -34.5t35 -84.5q0 -49 -35 -84t-85 -35z" />
    <glyph glyph-name="Upsilondieresisgreek" unicode="&#x3ab;" horiz-adv-x="1293" 
d="M758 0h-224v591l-508 852h250l368 -637h7l368 637h248l-509 -852v-591zM445 1576q-50 0 -85.5 35t-35.5 84t35.5 84t85.5 35t85 -34.5t35 -84.5q0 -49 -35 -84t-85 -35zM848 1576q-50 0 -85.5 35t-35.5 84t35.5 84t85.5 35t85 -34.5t35 -84.5q0 -49 -35 -84t-85 -35z" />
    <glyph glyph-name="alphatonosgreek" unicode="&#x3ac;" horiz-adv-x="1266" 
d="M553 174q132 0 213 101.5t81 268.5q0 164 -81 267t-209 103q-123 0 -198 -101.5t-75 -268.5q0 -170 72.5 -270t196.5 -100zM517 -10q-206 0 -330.5 152t-124.5 403q0 250 125 401.5t330 151.5q109 0 195.5 -50t136.5 -141h4v180h210v-782q0 -71 21.5 -101.5t71.5 -30.5
q28 0 55 9l10 -172q-47 -12 -112 -12q-214 0 -253 174q0 1 -2 3t-3 4h-3q-47 -86 -136.5 -137.5t-194.5 -51.5zM481 1255l80 315h251l-155 -315h-176z" />
    <glyph glyph-name="epsilontonosgreek" unicode="&#x3ad;" horiz-adv-x="1093" 
d="M470 1255l80 315h251l-155 -315h-176zM527 -13q-212 0 -334 83.5t-122 224.5q0 90 52 155t145 93v4q-86 31 -131.5 91.5t-45.5 145.5q0 142 123 229t332 87q220 0 343.5 -95.5t140.5 -266.5h-214q-19 96 -81 139t-202 43q-117 0 -174.5 -40.5t-57.5 -107.5
q0 -70 56 -104.5t176 -34.5h152v-170h-151q-115 0 -178 -39.5t-63 -107.5q0 -149 245 -149q250 0 291 182h219q-25 -166 -165 -264t-356 -98z" />
    <glyph glyph-name="etatonosgreek" unicode="&#x3ae;" horiz-adv-x="1266" 
d="M1157 -360h-216v1001q0 138 -54.5 204.5t-182.5 66.5q-116 0 -184.5 -78.5t-68.5 -205.5v-628h-216v782q0 70 -24 101t-74 31q-32 0 -62 -8v171q65 13 120 13q185 0 235 -145q6 -20 11 -42h5q51 98 130.5 146.5t199.5 48.5q186 0 283.5 -106t97.5 -298v-1054zM475 1255
l80 315h251l-155 -315h-176z" />
    <glyph glyph-name="iotatonosgreek" unicode="&#x3af;" horiz-adv-x="585" 
d="M114 1087h216v-778q0 -71 32.5 -104.5t100.5 -33.5q37 0 74 5l10 -171q-46 -11 -132 -11q-162 0 -231.5 67.5t-69.5 225.5v800zM128 1255l80 315h251l-155 -315h-176z" />
    <glyph glyph-name="upsilondieresistonosgreek" unicode="&#x3b0;" horiz-adv-x="1105" 
d="M235 1260q-50 0 -85 35t-35 84q0 50 35 84.5t85 34.5t85 -34.5t35 -84.5q0 -49 -35 -84t-85 -35zM839 1260q-50 0 -85.5 35t-35.5 84t35.5 84t85.5 35t85 -34.5t35 -84.5q0 -49 -35 -84t-85 -35zM575 1255h-155l29 315h240zM546 -12q-217 0 -328.5 115.5t-111.5 333.5
v649h211v-635q0 -141 55.5 -208t172.5 -67q262 0 262 385q0 170 -21 281.5t-77 243.5h216q44 -92 71 -227.5t27 -276.5q0 -286 -123 -440t-354 -154z" />
    <glyph glyph-name="alphagreek" unicode="&#x3b1;" horiz-adv-x="1266" 
d="M553 173q132 0 213 101.5t81 268.5q0 164 -81 267t-209 103q-123 0 -198 -101.5t-75 -268.5q0 -170 72.5 -270t196.5 -100zM517 -11q-206 0 -330.5 152t-124.5 403q0 250 125 401.5t330 151.5q109 0 195.5 -50t136.5 -141h4v180h210v-782q0 -71 21.5 -101.5t71.5 -30.5
q28 0 55 9l10 -172q-47 -12 -112 -12q-214 0 -253 174q0 1 -2 3t-3 4h-3q-47 -86 -136.5 -137.5t-194.5 -51.5z" />
    <glyph glyph-name="betagreek" unicode="&#x3b2;" horiz-adv-x="1190" 
d="M480 723v172h81q126 0 191.5 58.5t65.5 169.5q0 98 -65 155.5t-173 57.5q-254 0 -254 -324v-468q0 -178 78.5 -274.5t230.5 -96.5q126 0 199 72.5t73 190.5q0 138 -88.5 212.5t-258.5 74.5h-80zM111 1010q0 247 120 378t347 131q208 0 327 -99.5t119 -275.5
q0 -110 -58 -192t-164 -123v-4q161 -37 243.5 -137t82.5 -256q0 -196 -123.5 -319.5t-322.5 -123.5q-123 0 -212.5 49t-137.5 140h-4v-538h-217v1370z" />
    <glyph glyph-name="gammagreek" unicode="&#x3b3;" horiz-adv-x="1126" 
d="M1037 915q0 -124 -25 -237.5t-79 -230t-123.5 -226t-174.5 -252.5v-319h-213v315l-383 1121h227l282 -910h5q143 204 211 377t68 362q0 81 -10 171h205q10 -70 10 -171z" />
    <glyph glyph-name="deltagreek" unicode="&#x3b4;" horiz-adv-x="1139" 
d="M571 -13q-230 0 -369.5 139t-139.5 372q0 200 110.5 329.5t289.5 150.5v3q-229 104 -229 268q0 129 103.5 199.5t280.5 70.5q212 0 356 -71l-10 -174q-180 72 -338 72q-173 0 -173 -104q0 -42 38.5 -76t157.5 -94q233 -122 330 -253.5t97 -309.5q0 -238 -139 -380
t-365 -142zM566 160q132 0 210 91.5t78 252.5q0 168 -78 257t-207 89q-138 0 -213 -97t-75 -256q0 -154 77 -245.5t208 -91.5z" />
    <glyph glyph-name="epsilongreek" unicode="&#x3b5;" horiz-adv-x="1093" 
d="M527 -13q-212 0 -334 83.5t-122 224.5q0 90 52 155t145 93v4q-86 31 -131.5 91.5t-45.5 145.5q0 142 123 229t332 87q220 0 343.5 -95.5t140.5 -266.5h-214q-19 96 -81 139t-202 43q-117 0 -174.5 -40.5t-57.5 -107.5q0 -70 56 -104.5t176 -34.5h152v-170h-151
q-115 0 -178 -39.5t-63 -107.5q0 -149 245 -149q250 0 291 182h219q-25 -166 -165 -264t-356 -98z" />
    <glyph glyph-name="zetagreek" unicode="&#x3b6;" horiz-adv-x="918" 
d="M838 -362l-174 37q57 99 57 182q0 66 -43.5 106t-173.5 82q-244 78 -343.5 195.5t-99.5 318.5q0 207 136.5 405t381.5 357v5h-435v182h758v-170q-315 -187 -468.5 -372t-153.5 -388q0 -140 65.5 -214.5t246.5 -134.5q190 -63 261.5 -137.5t71.5 -195.5q0 -124 -87 -258z
" />
    <glyph glyph-name="etagreek" unicode="&#x3b7;" horiz-adv-x="1264" 
d="M1157 -360h-216v1001q0 138 -54.5 204.5t-182.5 66.5q-116 0 -184.5 -78.5t-68.5 -205.5v-628h-216v782q0 70 -24 101t-74 31q-32 0 -62 -8v171q65 13 120 13q185 0 235 -145q6 -20 11 -42h5q51 98 130.5 146.5t199.5 48.5q186 0 283.5 -106t97.5 -298v-1054z" />
    <glyph glyph-name="thetagreek" unicode="&#x3b8;" horiz-adv-x="1213" 
d="M607 -13q-256 0 -387 197t-131 572q0 373 133 568t385 195q251 0 384.5 -197t133.5 -568q0 -374 -132.5 -570.5t-385.5 -196.5zM607 164q148 0 220.5 124.5t78.5 388.5h-599q6 -264 79 -388.5t221 -124.5zM308 853h597q-18 488 -298 488q-281 0 -299 -488z" />
    <glyph glyph-name="iotagreek" unicode="&#x3b9;" horiz-adv-x="585" 
d="M114 1086h216v-778q0 -71 32.5 -104.5t100.5 -33.5q37 0 74 5l10 -171q-46 -11 -132 -11q-162 0 -231.5 67.5t-69.5 225.5v800z" />
    <glyph glyph-name="kappagreek" unicode="&#x3ba;" horiz-adv-x="1155" 
d="M120 0v1086h213v-552h3l321 373q92 108 153 145.5t147 37.5q59 0 109 -12v-172q-24 8 -75 8q-47 0 -85 -25t-104 -102l-123 -142l425 -645h-236l-326 506l-209 -227v-279h-213z" />
    <glyph glyph-name="lambdagreek" unicode="&#x3bb;" horiz-adv-x="1146" 
d="M33 0l428 1025l-47 128q-44 120 -81.5 155t-115.5 35q-36 0 -67 -9v171q61 14 108 14q139 0 210.5 -67t141.5 -264l317 -902q24 -66 52.5 -90t81.5 -24q27 0 56 9l10 -172q-43 -12 -111 -12q-112 0 -172 46.5t-105 177.5l-187 547h-3l-299 -768h-217z" />
    <glyph glyph-name="mugreek" unicode="&#x3bc;" horiz-adv-x="1251" 
d="M111 -360v1446h216v-650q0 -127 59.5 -193.5t174.5 -66.5q125 0 195 76t70 208v626h216v-783q0 -71 21 -101t69 -30q32 0 57 9l10 -172q-44 -12 -116 -12q-96 0 -154.5 37.5t-83.5 119.5q-2 5 -9 36h-3q-45 -95 -118.5 -148.5t-164.5 -53.5q-72 0 -132.5 32.5t-86.5 85.5
h-3v-466h-217z" />
    <glyph glyph-name="nugreek" unicode="&#x3bd;" horiz-adv-x="1109" 
d="M410 0l-371 1086h227l282 -910h5q137 197 197 370t60 369q0 82 -10 171h211q10 -80 10 -171q0 -234 -82 -440.5t-280 -474.5h-249z" />
    <glyph glyph-name="xigreek" unicode="&#x3be;" horiz-adv-x="956" 
d="M842 -362l-174 37q57 100 57 185q0 65 -47 105.5t-186 84.5q-165 53 -261 115t-132.5 129.5t-36.5 157.5q0 123 76.5 210.5t219.5 118.5v3q-120 42 -176.5 107.5t-56.5 170.5q0 198 234 261v3h-230v182h771v-161l-113 -12q-241 -27 -348 -87t-107 -174q0 -96 82 -137.5
t258 -41.5h154v-178h-161q-384 0 -384 -230q0 -86 67.5 -142t249.5 -116q184 -62 257.5 -136.5t73.5 -196.5t-87 -258z" />
    <glyph glyph-name="omicrongreek" unicode="&#x3bf;" horiz-adv-x="1144" 
d="M572 -13q-233 0 -371.5 151.5t-138.5 404.5q0 256 137.5 406.5t372.5 150.5q234 0 371.5 -150.5t137.5 -406.5q0 -253 -138.5 -404.5t-370.5 -151.5zM572 169q137 0 212.5 98t75.5 276q0 175 -77 274.5t-211 99.5t-211 -99.5t-77 -274.5q0 -178 75.5 -276t212.5 -98z" />
    <glyph glyph-name="pigreek" unicode="&#x3c0;" horiz-adv-x="1385" 
d="M280 0v908h-215v178h1237v-178h-220v-611q0 -66 24 -95.5t75 -29.5q25 0 54 9l10 -172q-49 -12 -114 -12q-136 0 -196 63.5t-60 209.5v638h-388v-908h-207z" />
    <glyph glyph-name="rhogreek" unicode="&#x3c1;" horiz-adv-x="1181" 
d="M597 173q141 0 220.5 99.5t79.5 273.5q0 175 -78.5 273t-214.5 98q-135 0 -211.5 -98.5t-76.5 -271.5q0 -169 79 -271.5t202 -102.5zM100 -360v895q0 259 137.5 412t368.5 153q232 0 372.5 -151t140.5 -402q0 -255 -125 -406.5t-338 -151.5q-111 0 -200 50.5t-135 138.5
h-4v-538h-217z" />
    <glyph glyph-name="sigmafinalgreek" unicode="&#x3c2;" horiz-adv-x="1072" 
d="M842 -362l-174 37q57 100 57 181q0 66 -43.5 106.5t-173.5 82.5q-245 79 -345.5 198.5t-100.5 331.5q0 238 134 381.5t360 143.5q205 0 325 -100t143 -284h-209q-18 97 -81.5 149.5t-167.5 52.5q-133 0 -208.5 -91.5t-75.5 -243.5q0 -142 67.5 -218t246.5 -135
q189 -64 261 -138.5t72 -195.5q0 -122 -87 -258z" />
    <glyph glyph-name="sigmagreek" unicode="&#x3c3;" horiz-adv-x="1291" 
d="M569 -12q-229 0 -368 149t-139 395q0 253 149.5 403.5t400.5 150.5h614v-178h-312v-4q73 -55 115 -155.5t42 -216.5q0 -244 -137 -394t-365 -150zM568 168q134 0 213 99.5t79 268.5t-73.5 267t-201.5 98q-138 0 -219.5 -99.5t-81.5 -268.5q0 -168 77 -266.5t207 -98.5z
" />
    <glyph glyph-name="taugreek" unicode="&#x3c4;" horiz-adv-x="1050" 
d="M688 -7q-167 0 -234.5 69.5t-67.5 230.5v615h-330v178h912v-178h-366v-597q0 -71 31.5 -106t105.5 -35q25 0 70 5l10 -171q-48 -11 -131 -11z" />
    <glyph glyph-name="upsilongreek" unicode="&#x3c5;" horiz-adv-x="1105" 
d="M546 -12q-217 0 -328.5 115.5t-111.5 333.5v649h211v-635q0 -141 55.5 -208t172.5 -67q262 0 262 385q0 170 -21 281.5t-77 243.5h216q44 -92 71 -227.5t27 -276.5q0 -286 -123 -440t-354 -154z" />
    <glyph glyph-name="phigreek" unicode="&#x3c6;" horiz-adv-x="1481" 
d="M639 -360v347q-264 11 -423.5 161.5t-159.5 394.5q0 248 158 400t425 156v231h202v-231q267 -4 425 -156t158 -400q0 -244 -159 -394.5t-424 -161.5v-347h-202zM840 161q173 12 272.5 114t99.5 268q0 170 -97.5 273t-274.5 110v-765zM641 161v765q-177 -7 -274.5 -110
t-97.5 -273q0 -166 99.5 -268t272.5 -114z" />
    <glyph glyph-name="chigreek" unicode="&#x3c7;" horiz-adv-x="1177" 
d="M87 -360l405 721l-221 439q-36 69 -68 91.5t-89 22.5q-31 0 -59 -8v172q63 12 112 12q102 0 161 -41t118 -158l172 -346h4l283 541h222l-411 -734l216 -424q36 -70 64.5 -93t79.5 -23q33 0 57 9l10 -172q-46 -12 -102 -12q-111 0 -165.5 36t-110.5 147l-177 349h-3
l-276 -529h-222z" />
    <glyph glyph-name="psigreek" unicode="&#x3c8;" horiz-adv-x="1459" 
d="M620 -360v348q-244 2 -379 119.5t-135 329.5v649h211v-614q0 -150 75 -222.5t228 -72.5v1153h206v-1153q161 2 248 99t87 285q0 168 -21.5 280t-77.5 245h216q44 -92 71 -225.5t27 -274.5q0 -284 -144.5 -441t-405.5 -157v-348h-206z" />
    <glyph glyph-name="omegagreek" unicode="&#x3c9;" horiz-adv-x="1559" 
d="M467 -13q-190 0 -288 135t-98 389q0 152 42.5 309t113.5 266h225q-165 -272 -165 -576q0 -172 47 -253.5t145 -81.5q86 0 136.5 69t50.5 188v343h206v-343q0 -119 50.5 -188t137.5 -69q98 0 145 82t47 253q0 303 -166 576h226q71 -109 113.5 -266t42.5 -309
q0 -254 -98.5 -389t-288.5 -135q-220 0 -309 238h-6q-89 -238 -309 -238z" />
    <glyph glyph-name="iotadieresisgreek" unicode="&#x3ca;" horiz-adv-x="585" 
d="M27 1260q-50 0 -85.5 35t-35.5 84t35.5 84t85.5 35t85 -34.5t35 -84.5q0 -49 -35 -84t-85 -35zM430 1260q-50 0 -85.5 35t-35.5 84t35.5 84t85.5 35t85 -34.5t35 -84.5q0 -49 -35 -84t-85 -35zM114 1086h216v-778q0 -71 32.5 -104.5t100.5 -33.5q37 0 74 5l10 -171
q-46 -11 -132 -11q-162 0 -231.5 67.5t-69.5 225.5v800z" />
    <glyph glyph-name="upsilondieresisgreek" unicode="&#x3cb;" horiz-adv-x="1105" 
d="M342 1260q-50 0 -85.5 35t-35.5 84t35.5 84t85.5 35t85 -34.5t35 -84.5q0 -49 -35 -84t-85 -35zM745 1260q-50 0 -85.5 35t-35.5 84t35.5 84t85.5 35t85 -34.5t35 -84.5q0 -49 -35 -84t-85 -35zM546 -12q-217 0 -328.5 115.5t-111.5 333.5v649h211v-635q0 -141 55.5 -208
t172.5 -67q262 0 262 385q0 170 -21 281.5t-77 243.5h216q44 -92 71 -227.5t27 -276.5q0 -286 -123 -440t-354 -154z" />
    <glyph glyph-name="omicrontonosgreek" unicode="&#x3cc;" horiz-adv-x="1144" 
d="M572 -13q-233 0 -371.5 151.5t-138.5 404.5q0 256 137.5 406.5t372.5 150.5q234 0 371.5 -150.5t137.5 -406.5q0 -253 -138.5 -404.5t-370.5 -151.5zM572 169q137 0 212.5 98t75.5 276q0 175 -77 274.5t-211 99.5t-211 -99.5t-77 -274.5q0 -178 75.5 -276t212.5 -98z
M492 1255l80 315h251l-155 -315h-176z" />
    <glyph glyph-name="upsilontonosgreek" unicode="&#x3cd;" horiz-adv-x="1105" 
d="M438 1255l80 315h251l-155 -315h-176zM546 -12q-217 0 -328.5 115.5t-111.5 333.5v649h211v-635q0 -141 55.5 -208t172.5 -67q262 0 262 385q0 170 -21 281.5t-77 243.5h216q44 -92 71 -227.5t27 -276.5q0 -286 -123 -440t-354 -154z" />
    <glyph glyph-name="omegatonosgreek" unicode="&#x3ce;" horiz-adv-x="1559" 
d="M467 -13q-190 0 -288 135t-98 389q0 152 42.5 309t113.5 266h225q-165 -272 -165 -576q0 -172 47 -253.5t145 -81.5q86 0 136.5 69t50.5 188v343h206v-343q0 -119 50.5 -188t137.5 -69q98 0 145 82t47 253q0 303 -166 576h226q71 -109 113.5 -266t42.5 -309
q0 -254 -98.5 -389t-288.5 -135q-220 0 -309 238h-6q-89 -238 -309 -238zM693 1255l80 315h251l-155 -315h-176z" />
    <glyph glyph-name="Iocyrillic" unicode="&#x401;" horiz-adv-x="1167" 
d="M400 1576q-50 0 -85.5 35t-35.5 84t35.5 84t85.5 35t85 -34.5t35 -84.5q0 -49 -35 -84t-85 -35zM803 1576q-50 0 -85.5 35t-35.5 84t35.5 84t85.5 35t85 -34.5t35 -84.5q0 -49 -35 -84t-85 -35zM1059 194v-194h-916v1443h916v-193h-692v-422h655v-186h-655v-448h692z" />
    <glyph glyph-name="Djecyrillic" unicode="&#x402;" horiz-adv-x="1701" 
d="M1122 -34q-94 0 -136 17v189q38 -15 124 -15q118 0 186 72.5t68 200.5t-79 204.5t-211 76.5q-108 0 -204 -54.5t-135 -138.5v-518h-224v1250h-450v193h1124v-193h-450v-480h8q132 137 359 137q222 0 354 -130t132 -340q0 -214 -126.5 -342.5t-339.5 -128.5z" />
    <glyph glyph-name="Gjecyrillic" unicode="&#x403;" horiz-adv-x="1090" 
d="M684 1546h-176l231 303h225zM368 0h-225v1443h882v-195h-657v-1248z" />
    <glyph glyph-name="Ecyrillic" unicode="&#x404;" horiz-adv-x="1441" 
d="M1361 427q-47 -215 -206.5 -334.5t-402.5 -119.5q-304 0 -482.5 202t-178.5 547q0 343 179.5 545.5t481.5 202.5q238 0 405.5 -132.5t203.5 -348.5h-225q-35 128 -139.5 205t-244.5 77q-176 0 -292.5 -119.5t-133.5 -321.5h613v-188h-616q10 -216 128 -343t302 -127
q144 0 244.5 67t138.5 188h225z" />
    <glyph glyph-name="Dzecyrillic" unicode="&#x405;" horiz-adv-x="1263" 
d="M78 402h221q12 -107 107 -172t238 -65q136 0 224.5 63t88.5 160q0 84 -63 137.5t-203 87.5l-187 45q-199 48 -293.5 143t-94.5 246q0 186 146.5 303t378.5 117q228 0 372 -116.5t149 -303.5h-218q-10 107 -92.5 169t-213.5 62q-130 0 -211.5 -60t-81.5 -156
q0 -76 61 -124.5t201 -83.5l159 -39q222 -52 320.5 -146.5t98.5 -253.5q0 -202 -150 -320.5t-407 -118.5q-241 0 -390.5 115.5t-159.5 310.5z" />
    <glyph glyph-name="Icyrillic" unicode="&#x406;" horiz-adv-x="510" 
d="M367 0h-224v1443h224v-1443z" />
    <glyph glyph-name="Yicyrillic" unicode="&#x407;" horiz-adv-x="510" 
d="M367 0h-224v1443h224v-1443zM54 1576q-50 0 -85.5 35t-35.5 84t35.5 84t85.5 35t85 -34.5t35 -84.5q0 -49 -35 -84t-85 -35zM457 1576q-50 0 -85.5 35t-35.5 84t35.5 84t85.5 35t85 -34.5t35 -84.5q0 -49 -35 -84t-85 -35z" />
    <glyph glyph-name="Jecyrillic" unicode="&#x408;" horiz-adv-x="1080" 
d="M48 370h220q2 -90 61.5 -146t153.5 -56q110 0 168.5 64.5t58.5 188.5v1022h224v-1023q0 -214 -119 -333t-330 -119q-195 0 -316 111t-121 291z" />
    <glyph glyph-name="Ljecyrillic" unicode="&#x409;" horiz-adv-x="2179" 
d="M527 551q-8 -136 -32 -236t-69 -175t-117 -112.5t-172 -37.5q-52 0 -83 11v198q28 -7 58 -7q57 0 96.5 26.5t61.5 80t32.5 114.5t15.5 149l49 881h915v-517h326q213 0 347.5 -129t134.5 -334q0 -206 -132.5 -334.5t-342.5 -128.5h-557v1250h-489zM1282 190h274
q146 0 225.5 71t79.5 202q0 132 -80 203t-226 71h-273v-547z" />
    <glyph glyph-name="Njecyrillic" unicode="&#x40a;" horiz-adv-x="2176" 
d="M1295 190h280q144 0 222.5 61.5t78.5 174.5q0 106 -78.5 164t-222.5 58h-280v-458zM367 645v-645h-224v1443h224v-607h704v607h224v-607h327q213 0 347.5 -114t134.5 -296q0 -189 -132.5 -307.5t-342.5 -118.5h-558v645h-704z" />
    <glyph glyph-name="Tshecyrillic" unicode="&#x40b;" horiz-adv-x="1717" 
d="M1063 711q-105 0 -197 -54.5t-131 -138.5v-518h-224v1250h-450v193h1124v-193h-450v-479h8q63 65 154.5 100.5t199.5 35.5q225 0 355.5 -138t130.5 -369v-400h-224v385q0 155 -77.5 240.5t-218.5 85.5z" />
    <glyph glyph-name="Kjecyrillic" unicode="&#x40c;" horiz-adv-x="1307" 
d="M1003 1849l-280 -303h-176l231 303h225zM596 755l694 -755h-293l-622 677h-8v-677h-224v1443h224v-646h8l588 646h268z" />
    <glyph glyph-name="Ushortcyrillic" unicode="&#x40e;" horiz-adv-x="1262" 
d="M319 1846h142q1 -82 51.5 -135t129.5 -53t129.5 53t51.5 135h142q0 -135 -90 -219t-233 -84t-233 84t-90 219zM313 -11q-68 0 -96 13v193q36 -9 83 -9q76 0 129.5 32t94.5 103l-488 1122h238l365 -887h8l353 887h234l-442 -1030q-101 -236 -205.5 -330t-273.5 -94z" />
    <glyph glyph-name="Dzhecyrillic" unicode="&#x40f;" horiz-adv-x="1455" 
d="M623 0h-480v1443h224v-1250h722v1250h224v-1443h-481v-285h-209v285z" />
    <glyph glyph-name="Acyrillic" unicode="&#x410;" horiz-adv-x="1356" 
d="M1083 0l-132 390h-550l-132 -390h-233l521 1443h242l521 -1443h-237zM673 1203l-215 -633h436l-215 633h-6z" />
    <glyph glyph-name="Becyrillic" unicode="&#x411;" horiz-adv-x="1275" 
d="M1167 441q0 -196 -132.5 -318.5t-342.5 -122.5h-549v1443h884v-193h-660v-370h320q212 0 346 -122t134 -317zM367 190h268q145 0 224 65t79 186t-79.5 186.5t-224.5 65.5h-267v-503z" />
    <glyph glyph-name="Vecyrillic" unicode="&#x412;" horiz-adv-x="1299" 
d="M736 0h-593v1443h591q191 0 307 -98.5t116 -261.5q0 -115 -74 -205.5t-182 -108.5v-8q147 -17 237.5 -113.5t90.5 -239.5q0 -191 -131 -299.5t-362 -108.5zM367 1260v-431h265q146 0 224 58t78 165q0 100 -66.5 154t-188.5 54h-312zM367 183h324q151 0 230 61t79 178
t-81.5 176.5t-240.5 59.5h-311v-475z" />
    <glyph glyph-name="Gecyrillic" unicode="&#x413;" horiz-adv-x="1090" 
d="M368 0h-225v1443h882v-195h-657v-1248z" />
    <glyph glyph-name="Decyrillic" unicode="&#x414;" horiz-adv-x="1509" 
d="M491 558q-8 -134 -29 -216.5t-70 -139.5v-8h660v1056h-517zM234 0v-285h-206v479h105q74 43 107.5 133t42.5 241l53 875h940v-1249h180v-479h-205v285h-1017z" />
    <glyph glyph-name="Iecyrillic" unicode="&#x415;" horiz-adv-x="1167" 
d="M1059 194v-194h-916v1443h916v-193h-692v-422h655v-186h-655v-448h692z" />
    <glyph glyph-name="Zhecyrillic" unicode="&#x416;" horiz-adv-x="2002" 
d="M1332 755l651 -755h-288l-578 677h-8v-677h-221v677h-8l-582 -677h-279l645 751l-596 692h269l543 -646h8v646h221v-646h8l545 646h264z" />
    <glyph glyph-name="Zecyrillic" unicode="&#x417;" horiz-adv-x="1222" 
d="M410 644v187h194q124 0 201.5 66t77.5 170t-72.5 164t-196.5 60q-126 0 -203.5 -61.5t-87.5 -169.5h-212q11 194 148 306t362 112q213 0 348 -108.5t135 -279.5q0 -121 -74.5 -212.5t-194.5 -120.5v-8q145 -18 229 -114t84 -243q0 -182 -152 -304.5t-379 -122.5
q-235 0 -384 116t-159 307h216q10 -106 98.5 -169.5t227.5 -63.5q135 0 218.5 69t83.5 179q0 113 -81.5 177t-226.5 64h-200z" />
    <glyph glyph-name="Iicyrillic" unicode="&#x418;" horiz-adv-x="1476" 
d="M1111 0v1086h-15l-735 -1086h-218v1443h222v-1089h15l735 1089h218v-1443h-222z" />
    <glyph glyph-name="Iishortcyrillic" unicode="&#x419;" horiz-adv-x="1476" 
d="M416 1846h142q1 -82 51.5 -135t129.5 -53t129.5 53t51.5 135h142q0 -135 -90 -219t-233 -84t-233 84t-90 219zM1111 0v1086h-15l-735 -1086h-218v1443h222v-1089h15l735 1089h218v-1443h-222z" />
    <glyph glyph-name="Kacyrillic" unicode="&#x41a;" horiz-adv-x="1315" 
d="M596 755l694 -755h-293l-622 677h-8v-677h-224v1443h224v-646h8l588 646h268z" />
    <glyph glyph-name="Elcyrillic" unicode="&#x41b;" horiz-adv-x="1419" 
d="M1276 0h-224v1250h-488l-43 -699q-17 -289 -109 -425t-280 -136q-49 0 -84 11v198q28 -7 59 -7q100 0 147.5 87.5t58.5 282.5l48 881h915v-1443z" />
    <glyph glyph-name="Emcyrillic" unicode="&#x41c;" horiz-adv-x="1746" 
d="M1603 1443v-1443h-205v1062h-7l-435 -1051h-166l-436 1051h-7v-1062h-204v1443h259l467 -1139h8l466 1139h260z" />
    <glyph glyph-name="Encyrillic" unicode="&#x41d;" horiz-adv-x="1474" 
d="M1332 0h-224v639h-741v-639h-224v1443h224v-610h741v610h224v-1443z" />
    <glyph glyph-name="Ocyrillic" unicode="&#x41e;" horiz-adv-x="1533" 
d="M767 1467q311 0 493.5 -201t182.5 -545t-182 -544.5t-494 -200.5t-494 200.5t-182 544.5t182 545t494 201zM767 1270q-206 0 -326.5 -148t-120.5 -401q0 -252 120.5 -400t326.5 -148q205 0 325.5 148t120.5 400q0 253 -120.5 401t-325.5 148z" />
    <glyph glyph-name="Pecyrillic" unicode="&#x41f;" horiz-adv-x="1455" 
d="M1313 0h-223v1248h-722v-1248h-225v1443h1170v-1443z" />
    <glyph glyph-name="Ercyrillic" unicode="&#x420;" horiz-adv-x="1260" 
d="M143 1443h565q210 0 343 -132t133 -342q0 -211 -135 -343.5t-348 -132.5h-334v-493h-224v1443zM367 1254v-573h282q146 0 226 75.5t80 211.5q0 137 -80 211.5t-226 74.5h-282z" />
    <glyph glyph-name="Escyrillic" unicode="&#x421;" horiz-adv-x="1441" 
d="M752 -27q-304 0 -482.5 202t-178.5 547q0 343 179.5 545.5t481.5 202.5q238 0 405.5 -132.5t203.5 -348.5h-225q-35 128 -139.5 205t-244.5 77q-197 0 -314.5 -149.5t-117.5 -399.5q0 -253 117 -401.5t316 -148.5q144 0 244.5 67t138.5 188h225q-47 -215 -206.5 -334.5
t-402.5 -119.5z" />
    <glyph glyph-name="Tecyrillic" unicode="&#x422;" horiz-adv-x="1247" 
d="M733 0h-224v1250h-450v193h1123v-193h-449v-1250z" />
    <glyph glyph-name="Ucyrillic" unicode="&#x423;" horiz-adv-x="1262" 
d="M313 -11q-68 0 -96 13v193q36 -9 83 -9q76 0 129.5 32t94.5 103l-488 1122h238l365 -887h8l353 887h234l-442 -1030q-101 -236 -205.5 -330t-273.5 -94z" />
    <glyph glyph-name="Efcyrillic" unicode="&#x424;" horiz-adv-x="1678" 
d="M730 319v813q-195 -8 -309 -117t-114 -289q0 -182 113.5 -291t309.5 -116zM1371 725q0 182 -113.5 291t-308.5 116v-813q195 8 308.5 117t113.5 289zM729 128q-298 8 -473 168.5t-175 429.5q0 267 175.5 427.5t472.5 169.5v144h221v-144q297 -8 472 -168.5t175 -429.5
q0 -267 -175 -427.5t-472 -169.5v-152h-221v152z" />
    <glyph glyph-name="Xacyrillic" unicode="&#x425;" horiz-adv-x="1357" 
d="M54 0l479 723v7l-474 713h267l356 -558h8l360 558h253l-489 -721v-6l480 -716h-262l-359 550h-7l-364 -550h-248z" />
    <glyph glyph-name="Tsecyrillic" unicode="&#x426;" horiz-adv-x="1546" 
d="M1493 -285h-205v285h-1145v1443h224v-1250h722v1250h224v-1250h180v-478z" />
    <glyph glyph-name="Checyrillic" unicode="&#x427;" horiz-adv-x="1397" 
d="M1255 0h-224v661h-8q-142 -139 -370 -139q-238 0 -383.5 146t-145.5 386v389h224v-371q0 -163 87 -256.5t239 -93.5q121 0 217.5 53.5t139.5 144.5v523h224v-1443z" />
    <glyph glyph-name="Shacyrillic" unicode="&#x428;" horiz-adv-x="1921" 
d="M143 0v1443h224v-1250h481v1250h224v-1250h482v1250h224v-1443h-1635z" />
    <glyph glyph-name="Shchacyrillic" unicode="&#x429;" horiz-adv-x="2011" 
d="M1958 -285h-205v285h-1610v1443h224v-1250h481v1250h224v-1250h482v1250h224v-1250h180v-478z" />
    <glyph glyph-name="Hardsigncyrillic" unicode="&#x42a;" horiz-adv-x="1530" 
d="M982 0h-557v1250h-332v193h556v-517h326q213 0 347.5 -129t134.5 -334q0 -206 -132.5 -334.5t-342.5 -128.5zM649 190h274q146 0 225.5 71t79.5 202q0 132 -80 203t-225 71h-274v-547z" />
    <glyph glyph-name="Yericyrillic" unicode="&#x42b;" horiz-adv-x="1723" 
d="M1580 0h-224v1443h224v-1443zM143 0v1443h224v-517h326q213 0 348 -129t135 -334t-132.5 -334t-343.5 -129h-557zM367 190h274q146 0 225.5 71t79.5 202q0 132 -80 203t-225 71h-274v-547z" />
    <glyph glyph-name="Softsigncyrillic" unicode="&#x42c;" horiz-adv-x="1248" 
d="M143 0v1443h224v-517h326q213 0 348 -129t135 -334t-132.5 -334t-343.5 -129h-557zM367 190h274q146 0 225.5 71t79.5 202q0 132 -80 203t-225 71h-274v-547z" />
    <glyph glyph-name="Ereversedcyrillic" unicode="&#x42d;" horiz-adv-x="1441" 
d="M694 -27q-243 0 -405.5 120t-208.5 334h225q38 -121 140.5 -188t247.5 -67q183 0 299 127t126 343h-616v188h613q-16 202 -131 321.5t-290 119.5q-141 0 -247.5 -77t-141.5 -205h-225q36 216 205.5 348.5t408.5 132.5q301 0 478.5 -202.5t177.5 -545.5
q0 -345 -176.5 -547t-479.5 -202z" />
    <glyph glyph-name="IUcyrillic" unicode="&#x42e;" horiz-adv-x="2026" 
d="M1274 -35q-289 0 -464.5 180.5t-196.5 493.5h-246v-639h-224v1443h224v-610h248q29 301 204 473t455 172q306 0 484 -203.5t178 -552.5t-177.5 -553t-484.5 -204zM1273 1280q-200 0 -317.5 -151t-117.5 -407t116.5 -407.5t318.5 -151.5q200 0 316.5 151.5t116.5 407.5
q0 257 -116 407.5t-317 150.5z" />
    <glyph glyph-name="IAcyrillic" unicode="&#x42f;" horiz-adv-x="1316" 
d="M951 727v527h-294q-143 0 -221.5 -69t-78.5 -194q0 -126 78.5 -195t221.5 -69h294zM690 543l-378 -543h-257l402 572q-150 39 -240 151.5t-90 268.5q0 201 134.5 326t350.5 125h562v-1443h-223v543h-261z" />
    <glyph glyph-name="acyrillic" unicode="&#x430;" horiz-adv-x="1112" 
d="M498 162q121 0 202 69.5t81 176.5v85l-264 -18q-225 -14 -225 -160q0 -70 56 -111.5t150 -41.5zM440 -11q-163 0 -265 88.5t-102 233.5q0 142 106.5 223t308.5 94l293 17v84q0 93 -59.5 142.5t-168.5 49.5q-88 0 -148.5 -42t-74.5 -113h-203q5 144 127 239t305 95
q199 0 317.5 -97t118.5 -258v-745h-207v181h-5q-45 -88 -138 -140t-205 -52z" />
    <glyph glyph-name="becyrillic" unicode="&#x431;" horiz-adv-x="1191" 
d="M602 -21q-255 0 -388 166t-133 488q0 307 61 495.5t189 279.5t338 99l94 3q196 9 284 54v-180q-23 -20 -100 -37.5t-172 -21.5l-93 -3q-110 -4 -184 -31t-122.5 -85.5t-75.5 -139.5t-43 -205h8q52 96 148 147t224 51q221 0 351.5 -143t130.5 -384q0 -256 -139 -404.5
t-378 -148.5zM600 162q141 0 219 96t78 272q0 167 -78 259t-219 92t-219 -92t-78 -259q0 -176 77.5 -272t219.5 -96z" />
    <glyph glyph-name="vecyrillic" unicode="&#x432;" horiz-adv-x="1075" 
d="M569 927h-235v-288h211q192 0 192 145q0 69 -43.5 106t-124.5 37zM560 485h-226v-325h253q95 0 145 41t50 120q0 164 -222 164zM121 0v1086h489q157 0 247.5 -74t90.5 -202q0 -85 -53 -152.5t-131 -82.5v-8q105 -14 169 -83t64 -171q0 -144 -103 -228.5t-279 -84.5h-494z
" />
    <glyph glyph-name="gecyrillic" unicode="&#x433;" horiz-adv-x="906" 
d="M838 914h-502v-914h-215v1086h717v-172z" />
    <glyph glyph-name="decyrillic" unicode="&#x434;" horiz-adv-x="1260" 
d="M844 172v743h-383l-31 -423q-15 -215 -86 -312v-8h500zM219 -285h-199v457h88q108 68 126 329l40 585h784v-914h170v-457h-200v285h-809v-285z" />
    <glyph glyph-name="iecyrillic" unicode="&#x435;" horiz-adv-x="1133" 
d="M573 923q-117 0 -194.5 -78t-86.5 -203h551q-4 127 -78 204t-192 77zM842 318h207q-23 -146 -153 -238.5t-313 -92.5q-236 0 -373.5 148.5t-137.5 403.5t137 408t365 153q224 0 355 -144.5t131 -391.5v-76h-769v-13q0 -141 81 -226.5t215 -85.5q95 0 164 42t91 113z" />
    <glyph glyph-name="zhecyrillic" unicode="&#x436;" horiz-adv-x="1617" 
d="M1127 575l469 -575h-269l-406 505h-8v-505h-213v505h-8l-406 -505h-265l465 572l-454 514h259l401 -467h8v467h213v-467h8l401 467h257z" />
    <glyph glyph-name="zecyrillic" unicode="&#x437;" horiz-adv-x="1025" 
d="M507 -20q-190 0 -311 86.5t-136 234.5h214q17 -71 77.5 -109t155.5 -38q107 0 166.5 45.5t59.5 120.5q0 161 -226 161h-159v161h156q195 0 195 147q0 66 -48.5 105.5t-141.5 39.5q-91 0 -149 -37t-69 -102h-208q17 144 131 228t294 84q192 0 297 -81t105 -218
q0 -83 -48 -147.5t-128 -83.5v-8q104 -25 158.5 -89t54.5 -158q0 -155 -120 -248.5t-320 -93.5z" />
    <glyph glyph-name="iicyrillic" unicode="&#x438;" horiz-adv-x="1186" 
d="M334 0h-213v1086h213v-768h8l509 768h213v-1086h-213v771h-8z" />
    <glyph glyph-name="iishortcyrillic" unicode="&#x439;" horiz-adv-x="1186" 
d="M263 1563h146q1 -86 52 -142t134 -56q84 0 135 56t52 142h146q0 -142 -92 -229.5t-241 -87.5q-148 0 -240 87.5t-92 229.5zM334 0h-213v1086h213v-768h8l509 768h213v-1086h-213v771h-8z" />
    <glyph glyph-name="kacyrillic" unicode="&#x43a;" horiz-adv-x="1074" 
d="M551 575l502 -575h-271l-438 505h-8v-505h-215v1086h215v-467h8l433 467h258z" />
    <glyph glyph-name="elcyrillic" unicode="&#x43b;" horiz-adv-x="1151" 
d="M443 492q-7 -96 -20.5 -170.5t-38.5 -138.5t-62 -105.5t-91.5 -64.5t-125.5 -23q-45 0 -74 11v191q27 -8 57 -8q76 0 111.5 81t45.5 236l39 585h745v-1086h-214v914h-341z" />
    <glyph glyph-name="emcyrillic" unicode="&#x43c;" horiz-adv-x="1494" 
d="M330 0h-209v1086h270l355 -804h8l357 804h262v-1086h-209v757h-8l-330 -716h-159l-329 716h-8v-757z" />
    <glyph glyph-name="encyrillic" unicode="&#x43d;" horiz-adv-x="1171" 
d="M835 0v476h-499v-476h-215v1086h215v-438h499v438h215v-1086h-215z" />
    <glyph glyph-name="ocyrillic" unicode="&#x43e;" horiz-adv-x="1172" 
d="M586 -13q-236 0 -375 150t-139 406q0 255 139.5 406t374.5 151t374 -150.5t139 -406.5t-138.5 -406t-374.5 -150zM586 167q138 0 215.5 99t77.5 277t-77.5 277.5t-215.5 99.5t-216 -100t-78 -277t78 -276.5t216 -99.5z" />
    <glyph glyph-name="pecyrillic" unicode="&#x43f;" horiz-adv-x="1161" 
d="M825 0v914h-489v-914h-215v1086h919v-1086h-215z" />
    <glyph glyph-name="ercyrillic" unicode="&#x440;" horiz-adv-x="1213" 
d="M681 1097q208 0 333.5 -151t125.5 -403q0 -251 -124.5 -402.5t-329.5 -151.5q-117 0 -206 49.5t-138 139.5h-4v-538h-217v1446h209v-180h5q46 88 139.5 139.5t206.5 51.5zM626 173q132 0 212 101t80 269t-80 269t-212 101q-129 0 -209 -102t-81 -268q1 -167 80.5 -268.5
t209.5 -101.5z" />
    <glyph glyph-name="escyrillic" unicode="&#x441;" horiz-adv-x="1105" 
d="M1044 740h-209q-21 80 -86.5 128.5t-166.5 48.5q-132 0 -211.5 -102t-79.5 -272q0 -174 80 -274t212 -100q99 0 164.5 45t89.5 129h209q-25 -161 -150.5 -258.5t-313.5 -97.5q-232 0 -371 149.5t-139 406.5q0 253 139 405t369 152q192 0 316.5 -102.5t147.5 -257.5z" />
    <glyph glyph-name="tecyrillic" unicode="&#x442;" horiz-adv-x="984" 
d="M942 1086v-172h-343v-914h-214v914h-343v172h900z" />
    <glyph glyph-name="ucyrillic" unicode="&#x443;" horiz-adv-x="1086" 
d="M230 -395q-54 0 -88 6v176q20 -5 69 -5q78 0 123.5 36.5t73.5 122.5l17 56l-394 1089h233l279 -888h5l279 888h228l-407 -1136q-70 -195 -160.5 -270t-257.5 -75z" />
    <glyph glyph-name="efcyrillic" unicode="&#x444;" horiz-adv-x="1494" 
d="M643 161v764q-162 -4 -257.5 -106t-95.5 -276t95 -275.5t258 -106.5zM1203 543q0 174 -95 275.5t-257 106.5v-764q162 4 257 106t95 276zM642 -14q-259 5 -414.5 155.5t-155.5 401.5t155.5 401.5t414.5 155.5v339h210v-339q260 -5 414.5 -155t154.5 -402
q0 -251 -155 -401.5t-414 -155.5v-346h-210v346z" />
    <glyph glyph-name="hacyrillic" unicode="&#x445;" horiz-adv-x="1052" 
d="M525 403h-5l-244 -403h-235l361 542l-357 544h243l241 -395h5l239 395h238l-358 -536l354 -550h-239z" />
    <glyph glyph-name="tsecyrillic" unicode="&#x446;" horiz-adv-x="1234" 
d="M1202 -285h-199v285h-882v1086h215v-914h481v914h215v-914h170v-457z" />
    <glyph glyph-name="checyrillic" unicode="&#x447;" horiz-adv-x="1111" 
d="M990 0h-215v487h-8q-113 -115 -295 -115q-175 0 -275.5 106.5t-100.5 286.5v321h214v-306q0 -103 54 -163t149 -60q55 0 102.5 14t79 36t50 40.5t30.5 37.5v401h215v-1086z" />
    <glyph glyph-name="shacyrillic" unicode="&#x448;" horiz-adv-x="1628" 
d="M121 0v1086h215v-914h371v914h215v-914h370v914h215v-1086h-1386z" />
    <glyph glyph-name="shchacyrillic" unicode="&#x449;" horiz-adv-x="1707" 
d="M1675 -285h-200v285h-1354v1086h215v-914h371v914h215v-914h370v914h215v-914h168v-457z" />
    <glyph glyph-name="hardsigncyrillic" unicode="&#x44a;" horiz-adv-x="1231" 
d="M752 0h-422v914h-288v172h503v-337h207q188 0 300 -101t112 -273t-111.5 -273.5t-300.5 -101.5zM735 579h-190v-408h190q98 0 156.5 56t58.5 148q0 93 -58.5 148.5t-156.5 55.5z" />
    <glyph glyph-name="yericyrillic" unicode="&#x44b;" horiz-adv-x="1418" 
d="M1082 0v1086h215v-1086h-215zM526 579h-190v-408h190q98 0 156.5 56t58.5 148q0 93 -58.5 148.5t-156.5 55.5zM121 0v1086h215v-337h207q189 0 301 -101t112 -273t-112 -273.5t-301 -101.5h-422z" />
    <glyph glyph-name="softsigncyrillic" unicode="&#x44c;" horiz-adv-x="1022" 
d="M526 579h-190v-408h190q98 0 156.5 56t58.5 148q0 93 -58.5 148.5t-156.5 55.5zM121 0v1086h215v-337h207q189 0 301 -101t112 -273t-112 -273.5t-301 -101.5h-422z" />
    <glyph glyph-name="ereversedcyrillic" unicode="&#x44d;" horiz-adv-x="1105" 
d="M268 343q24 -85 89.5 -129.5t165.5 -44.5q121 0 200.5 83.5t88.5 228.5h-461v161h456q-16 126 -93.5 200.5t-188.5 74.5q-101 0 -167.5 -48.5t-87.5 -128.5h-209q23 155 148 257.5t318 102.5q229 0 367.5 -152t138.5 -405q0 -257 -138 -406.5t-370 -149.5
q-189 0 -314.5 97t-151.5 259h209z" />
    <glyph glyph-name="iucyrillic" unicode="&#x44e;" horiz-adv-x="1600" 
d="M1022 -21q-218 0 -351.5 132t-150.5 365h-184v-476h-215v1086h215v-438h187q27 216 158.5 337.5t340.5 121.5q235 0 370 -150.5t135 -413.5q0 -264 -135 -414t-370 -150zM1022 162q136 0 210 99.5t74 281.5t-74 282t-210 100t-210.5 -100t-74.5 -282t74.5 -281.5
t210.5 -99.5z" />
    <glyph glyph-name="iacyrillic" unicode="&#x44f;" horiz-adv-x="1062" 
d="M530 542h199v373h-199q-98 0 -155.5 -51.5t-57.5 -140.5q0 -80 58.5 -130.5t154.5 -50.5zM729 0v376h-171l-264 -376h-245l297 412q-114 34 -178.5 115t-64.5 194q0 169 113 267t304 98h421v-1086h-212z" />
    <glyph glyph-name="iocyrillic" unicode="&#x451;" horiz-adv-x="1133" 
d="M573 923q-117 0 -194.5 -78t-86.5 -203h551q-4 127 -78 204t-192 77zM842 318h207q-23 -146 -153 -238.5t-313 -92.5q-236 0 -373.5 148.5t-137.5 403.5t137 408t365 153q224 0 355 -144.5t131 -391.5v-76h-769v-13q0 -141 81 -226.5t215 -85.5q95 0 164 42t91 113z
M373 1260q-50 0 -85.5 35t-35.5 84t35.5 84t85.5 35t85 -34.5t35 -84.5q0 -49 -35 -84t-85 -35zM776 1260q-50 0 -85.5 35t-35.5 84t35.5 84t85.5 35t85 -34.5t35 -84.5q0 -49 -35 -84t-85 -35z" />
    <glyph glyph-name="djecyrillic" unicode="&#x452;" horiz-adv-x="1191" 
d="M345 903h5q99 195 343 195q178 0 280 -109.5t102 -294.5v-743q0 -165 -87.5 -244t-266.5 -79q-5 0 -25 0.5t-22 0.5v172h29q86 0 120.5 35t34.5 118v698q0 123 -61 191.5t-179 68.5q-126 0 -198.5 -79t-72.5 -211v-622h-217v1262h-102v133h102v113h215v-113h256v-133
h-256v-359z" />
    <glyph glyph-name="gjecyrillic" unicode="&#x453;" horiz-adv-x="917" 
d="M552 1255h-178l215 303h225zM838 914h-502v-914h-215v1086h717v-172z" />
    <glyph glyph-name="ecyrillic" unicode="&#x454;" horiz-adv-x="1106" 
d="M838 343h209q-26 -162 -151 -259t-313 -97q-232 0 -371 149.5t-139 406.5q0 253 139 405t369 152q192 0 316.5 -102.5t147.5 -257.5h-209q-21 80 -87 128.5t-167 48.5q-112 0 -189.5 -74t-93.5 -201h456v-161h-461q9 -145 88.5 -228.5t200.5 -83.5q100 0 165.5 44.5
t89.5 129.5z" />
    <glyph glyph-name="dzecyrillic" unicode="&#x455;" horiz-adv-x="1037" 
d="M103 777q0 143 117 232.5t304 89.5q178 0 294.5 -90.5t120.5 -232.5h-204q-7 72 -65 114t-151 42q-92 0 -148.5 -39.5t-56.5 -103.5q0 -98 169 -139l180 -43q164 -40 232 -106t68 -186q0 -145 -125 -236.5t-322 -91.5q-189 0 -309.5 89.5t-132.5 237.5h214
q13 -78 74.5 -119.5t164.5 -41.5q101 0 160.5 39t59.5 105q0 52 -35.5 82t-121.5 52l-194 48q-293 72 -293 298z" />
    <glyph glyph-name="icyrillic" unicode="&#x456;" horiz-adv-x="475" 
d="M129 0v1086h217v-1086h-217zM238 1241q-53 0 -90 36.5t-37 88.5q0 53 37 89t90 36t90 -36t37 -89q0 -52 -37 -88.5t-90 -36.5z" />
    <glyph glyph-name="yicyrillic" unicode="&#x457;" horiz-adv-x="474" 
d="M66 1249q-50 0 -85.5 35.5t-35.5 85.5t35.5 85t85.5 35t85 -35t35 -85t-35 -85.5t-85 -35.5zM409 1249q-50 0 -85.5 35.5t-35.5 85.5t35.5 85t85.5 35t85 -35t35 -85t-35 -85.5t-85 -35.5zM119 0v1086h217v-1086h-217z" />
    <glyph glyph-name="jecyrillic" unicode="&#x458;" horiz-adv-x="486" 
d="M346 1086v-1133q0 -166 -87 -245.5t-266 -79.5q-5 0 -25.5 0.5t-22.5 0.5v172h31q84 0 118.5 35t34.5 118v1132h217zM238 1241q-53 0 -90 36.5t-37 88.5q0 53 37 89t90 36t90 -36t37 -89q0 -52 -37 -88.5t-90 -36.5z" />
    <glyph glyph-name="ljecyrillic" unicode="&#x459;" horiz-adv-x="1719" 
d="M443 492q-7 -96 -20.5 -170.5t-38.5 -138.5t-62 -105.5t-91.5 -64.5t-125.5 -23q-45 0 -74 11v191q27 -8 57 -8q76 0 111.5 81t45.5 236l39 585h750v-337h206q189 0 301 -101t112 -273t-112 -273.5t-301 -101.5h-421v914h-345zM1224 579h-190v-408h190q98 0 156.5 56
t58.5 148q0 93 -58.5 148.5t-156.5 55.5z" />
    <glyph glyph-name="njecyrillic" unicode="&#x45a;" horiz-adv-x="1718" 
d="M1236 512h-204v-342h204q92 0 147.5 47t55.5 124t-55.5 124t-147.5 47zM817 0v509h-481v-509h-215v1086h215v-407h481v407h215v-405h215q185 0 295 -92t110 -248q0 -157 -110 -249t-295 -92h-430z" />
    <glyph glyph-name="tshecyrillic" unicode="&#x45b;" horiz-adv-x="1191" 
d="M345 903h5q99 195 343 195q178 0 280 -109.5t102 -294.5v-694h-217v652q0 123 -61 191.5t-179 68.5q-126 0 -198.5 -79t-72.5 -211v-622h-217v1262h-102v133h102v113h215v-113h256v-133h-256v-359z" />
    <glyph glyph-name="kjecyrillic" unicode="&#x45c;" horiz-adv-x="1074" 
d="M893 1558l-262 -303h-178l215 303h225zM551 575l502 -575h-271l-438 505h-8v-505h-215v1086h215v-467h8l433 467h258z" />
    <glyph glyph-name="ushortcyrillic" unicode="&#x45e;" horiz-adv-x="1086" 
d="M212 1563h146q1 -86 52 -142t134 -56q84 0 135 56t52 142h146q0 -142 -92 -229.5t-241 -87.5q-148 0 -240 87.5t-92 229.5zM230 -395q-54 0 -88 6v176q20 -5 69 -5q78 0 123.5 36.5t73.5 122.5l17 56l-394 1089h233l279 -888h5l279 888h228l-407 -1136
q-70 -195 -160.5 -270t-257.5 -75z" />
    <glyph glyph-name="dzhecyrillic" unicode="&#x45f;" horiz-adv-x="1163" 
d="M1042 0h-361v-285h-199v285h-361v1086h215v-914h491v914h215v-1086z" />
    <glyph glyph-name="Geupturncyrillic" unicode="&#x490;" horiz-adv-x="1090" 
d="M368 1248v-1248h-225v1443h674v285h208v-480h-657z" />
    <glyph glyph-name="geupturncyrillic" unicode="&#x491;" horiz-adv-x="906" 
d="M838 914h-502v-914h-215v1086h517v285h200v-457z" />
    <glyph glyph-name="baht" unicode="&#xe3f;" horiz-adv-x="1270" 
d="M643 657v-474q281 11 281 239q0 221 -281 235zM339 183h167v475h-167v-475zM339 1260v-431h167v431h-167zM643 1258v-424q218 29 218 210q0 93 -57 148.5t-161 65.5zM828 773v-17q146 -16 235.5 -111t89.5 -237q0 -191 -131 -299.5t-361 -108.5h-18v-136h-137v136h-389
v1443h389v153h137v-153h4q203 0 319 -96.5t116 -263.5q0 -113 -73.5 -202.5t-180.5 -107.5z" />
    <glyph glyph-name="Aringbelow" unicode="&#x1e00;" horiz-adv-x="1336" 
d="M1073 0l-132 390h-550l-132 -390h-233l521 1443h242l521 -1443h-237zM663 1203l-215 -633h436l-215 633h-6zM668 -566q-85 0 -146 60.5t-61 144.5q0 85 61 145.5t146 60.5t146 -60.5t61 -145.5q0 -84 -61 -144.5t-146 -60.5zM668 -471q46 0 78.5 32.5t32.5 77.5
q0 46 -32.5 78.5t-78.5 32.5t-78.5 -32.5t-32.5 -78.5q0 -45 32.5 -77.5t78.5 -32.5z" />
    <glyph glyph-name="aringbelow" unicode="&#x1e01;" horiz-adv-x="1092" 
d="M488 162q121 0 202 69.5t81 176.5v85l-264 -18q-225 -14 -225 -160q0 -70 56 -111.5t150 -41.5zM430 -11q-163 0 -265 88.5t-102 233.5q0 142 106.5 223t308.5 94l293 17v84q0 93 -59.5 142.5t-168.5 49.5q-88 0 -148.5 -42t-74.5 -113h-203q5 144 127 239t305 95
q199 0 317.5 -97t118.5 -258v-745h-207v181h-5q-45 -88 -138 -140t-205 -52zM532 -566q-85 0 -146 60.5t-61 144.5q0 85 61 145.5t146 60.5t146 -60.5t61 -145.5q0 -84 -61 -144.5t-146 -60.5zM532 -471q46 0 78.5 32.5t32.5 77.5q0 46 -32.5 78.5t-78.5 32.5t-78.5 -32.5
t-32.5 -78.5q0 -45 32.5 -77.5t78.5 -32.5z" />
    <glyph glyph-name="Bdotaccent" unicode="&#x1e02;" horiz-adv-x="1279" 
d="M584 1576q-55 0 -93 38.5t-38 92.5q0 55 38 93t93 38t93 -38t38 -93q0 -54 -38 -92.5t-93 -38.5zM726 0h-593v1443h591q191 0 307 -98.5t116 -261.5q0 -115 -74 -205.5t-182 -108.5v-8q147 -17 237.5 -113.5t90.5 -239.5q0 -191 -131 -299.5t-362 -108.5zM357 1260v-431
h265q146 0 224 58t78 165q0 100 -66.5 154t-188.5 54h-312zM357 183h324q151 0 230 61t79 178t-81.5 176.5t-240.5 59.5h-311v-475z" />
    <glyph glyph-name="bdotaccent" unicode="&#x1e03;" horiz-adv-x="1201" 
d="M229 1641q-55 0 -93 38.5t-38 92.5q0 55 38 93t93 38t93 -38t38 -93q0 -54 -38 -92.5t-93 -38.5zM683 -11q-118 0 -208.5 50.5t-140.5 144.5h-5v-184h-209v1508h217v-602h4q50 92 139.5 141.5t204.5 49.5q206 0 330 -151t124 -403t-124.5 -403t-331.5 -151zM628 913
q-131 0 -211.5 -102.5t-80.5 -267.5q0 -166 80.5 -268t211.5 -102t210 100.5t79 269.5t-79 269.5t-210 100.5z" />
    <glyph glyph-name="Bdotbelow" unicode="&#x1e04;" horiz-adv-x="1279" 
d="M584 -416q-55 0 -93 38.5t-38 92.5q0 55 38 93t93 38t93 -38t38 -93q0 -54 -38 -92.5t-93 -38.5zM726 0h-593v1443h591q191 0 307 -98.5t116 -261.5q0 -115 -74 -205.5t-182 -108.5v-8q147 -17 237.5 -113.5t90.5 -239.5q0 -191 -131 -299.5t-362 -108.5zM357 1260v-431
h265q146 0 224 58t78 165q0 100 -66.5 154t-188.5 54h-312zM357 183h324q151 0 230 61t79 178t-81.5 176.5t-240.5 59.5h-311v-475z" />
    <glyph glyph-name="bdotbelow" unicode="&#x1e05;" horiz-adv-x="1201" 
d="M626 -416q-55 0 -93 38.5t-38 92.5q0 55 38 93t93 38t93 -38t38 -93q0 -54 -38 -92.5t-93 -38.5zM683 -11q-118 0 -208.5 50.5t-140.5 144.5h-5v-184h-209v1508h217v-602h4q50 92 139.5 141.5t204.5 49.5q206 0 330 -151t124 -403t-124.5 -403t-331.5 -151zM628 913
q-131 0 -211.5 -102.5t-80.5 -267.5q0 -166 80.5 -268t211.5 -102t210 100.5t79 269.5t-79 269.5t-210 100.5z" />
    <glyph glyph-name="Blinebelow" unicode="&#x1e06;" horiz-adv-x="1279" 
d="M726 0h-593v1443h591q191 0 307 -98.5t116 -261.5q0 -115 -74 -205.5t-182 -108.5v-8q147 -17 237.5 -113.5t90.5 -239.5q0 -191 -131 -299.5t-362 -108.5zM357 1260v-431h265q146 0 224 58t78 165q0 100 -66.5 154t-188.5 54h-312zM357 183h324q151 0 230 61t79 178
t-81.5 176.5t-240.5 59.5h-311v-475zM911 -223v-119h-654v119h654z" />
    <glyph glyph-name="blinebelow" unicode="&#x1e07;" horiz-adv-x="1201" 
d="M953 -223v-119h-654v119h654zM683 -11q-118 0 -208.5 50.5t-140.5 144.5h-5v-184h-209v1508h217v-602h4q50 92 139.5 141.5t204.5 49.5q206 0 330 -151t124 -403t-124.5 -403t-331.5 -151zM628 913q-131 0 -211.5 -102.5t-80.5 -267.5q0 -166 80.5 -268t211.5 -102
t210 100.5t79 269.5t-79 269.5t-210 100.5z" />
    <glyph glyph-name="Ccedillaacute" unicode="&#x1e08;" horiz-adv-x="1424" 
d="M1106 1856l-280 -303h-176l231 303h225zM1132 449h223q-38 -208 -182 -331t-366 -140l-43 -110q97 0 148.5 -39.5t51.5 -114.5q0 -80 -62.5 -129.5t-163.5 -50.5q-85 -2 -145 17v105q37 -14 118 -14q115 0 115 66q0 34 -32.5 48.5t-108.5 14.5h-55v83l51 124
q-278 21 -439 219.5t-161 524.5q0 342 179 543.5t482 201.5q246 0 415 -138.5t197 -363.5h-222q-30 139 -136.5 222.5t-253.5 83.5q-197 0 -314.5 -149.5t-117.5 -399.5q0 -253 117 -401.5t316 -148.5q150 0 252.5 73t136.5 204z" />
    <glyph glyph-name="ccedillaacute" unicode="&#x1e09;" horiz-adv-x="1089" 
d="M915 1558l-262 -303h-178l215 303h225zM834 365h207q-17 -155 -124.5 -255.5t-275.5 -118.5l-47 -123q97 0 148.5 -39.5t51.5 -114.5q0 -80 -62.5 -129.5t-163.5 -50.5q-85 -2 -145 17v105q37 -14 118 -14q115 0 115 66q0 34 -32.5 48.5t-108.5 14.5h-55v83l55 136
q-208 19 -330.5 166.5t-122.5 386.5q0 253 139 405t370 152q101 0 187 -30.5t144.5 -83.5t94 -122.5t42.5 -148.5h-207q-16 90 -83.5 146t-175.5 56q-132 0 -211.5 -102t-79.5 -272q0 -174 80 -274t212 -100q106 0 173.5 50.5t86.5 145.5z" />
    <glyph glyph-name="Ddotaccent" unicode="&#x1e0a;" horiz-adv-x="1413" 
d="M584 1576q-55 0 -93 38.5t-38 92.5q0 55 38 93t93 38t93 -38t38 -93q0 -54 -38 -92.5t-93 -38.5zM133 1443h517q323 0 503 -189t180 -530q0 -342 -180 -533t-503 -191h-517v1443zM357 1250v-1056h272q230 0 353 136.5t123 391.5t-123 391.5t-353 136.5h-272z" />
    <glyph glyph-name="ddotaccent" unicode="&#x1e0b;" horiz-adv-x="1200" 
d="M975 1641q-55 0 -93 38.5t-38 92.5q0 55 38 93t93 38t93 -38t38 -93q0 -54 -38 -92.5t-93 -38.5zM520 -11q-205 0 -331.5 152t-126.5 403q0 249 126.5 401t329.5 152q116 0 205.5 -50.5t136.5 -140.5h5v602h216v-1508h-210v184h-4q-48 -93 -138.5 -144t-208.5 -51z
M575 913q-131 0 -211 -101t-80 -269q0 -169 79.5 -269.5t211.5 -100.5q131 0 211 102t80 268t-80.5 268t-210.5 102z" />
    <glyph glyph-name="Ddotbelow" unicode="&#x1e0c;" horiz-adv-x="1413" 
d="M584 -416q-55 0 -93 38.5t-38 92.5q0 55 38 93t93 38t93 -38t38 -93q0 -54 -38 -92.5t-93 -38.5zM133 1443h517q323 0 503 -189t180 -530q0 -342 -180 -533t-503 -191h-517v1443zM357 1250v-1056h272q230 0 353 136.5t123 391.5t-123 391.5t-353 136.5h-272z" />
    <glyph glyph-name="ddotbelow" unicode="&#x1e0d;" horiz-adv-x="1200" 
d="M551 -416q-55 0 -93 38.5t-38 92.5q0 55 38 93t93 38t93 -38t38 -93q0 -54 -38 -92.5t-93 -38.5zM520 -11q-205 0 -331.5 152t-126.5 403q0 249 126.5 401t329.5 152q116 0 205.5 -50.5t136.5 -140.5h5v602h216v-1508h-210v184h-4q-48 -93 -138.5 -144t-208.5 -51z
M575 913q-131 0 -211 -101t-80 -269q0 -169 79.5 -269.5t211.5 -100.5q131 0 211 102t80 268t-80.5 268t-210.5 102z" />
    <glyph glyph-name="Dlinebelow" unicode="&#x1e0e;" horiz-adv-x="1413" 
d="M911 -223v-119h-654v119h654zM133 1443h517q323 0 503 -189t180 -530q0 -342 -180 -533t-503 -191h-517v1443zM357 1250v-1056h272q230 0 353 136.5t123 391.5t-123 391.5t-353 136.5h-272z" />
    <glyph glyph-name="dlinebelow" unicode="&#x1e0f;" horiz-adv-x="1200" 
d="M878 -223v-119h-654v119h654zM520 -11q-205 0 -331.5 152t-126.5 403q0 249 126.5 401t329.5 152q116 0 205.5 -50.5t136.5 -140.5h5v602h216v-1508h-210v184h-4q-48 -93 -138.5 -144t-208.5 -51zM575 913q-131 0 -211 -101t-80 -269q0 -169 79.5 -269.5t211.5 -100.5
q131 0 211 102t80 268t-80.5 268t-210.5 102z" />
    <glyph glyph-name="Dcommaaccent" unicode="&#x1e10;" horiz-adv-x="1413" 
d="M567 -526h-159l102 360h190zM133 1443h517q323 0 503 -189t180 -530q0 -342 -180 -533t-503 -191h-517v1443zM357 1250v-1056h272q230 0 353 136.5t123 391.5t-123 391.5t-353 136.5h-272z" />
    <glyph glyph-name="dcommaaccent" unicode="&#x1e11;" horiz-adv-x="1200" 
d="M534 -526h-159l102 360h190zM520 -11q-205 0 -331.5 152t-126.5 403q0 249 126.5 401t329.5 152q116 0 205.5 -50.5t136.5 -140.5h5v602h216v-1508h-210v184h-4q-48 -93 -138.5 -144t-208.5 -51zM575 913q-131 0 -211 -101t-80 -269q0 -169 79.5 -269.5t211.5 -100.5
q131 0 211 102t80 268t-80.5 268t-210.5 102z" />
    <glyph glyph-name="Dcircumflexbelow" unicode="&#x1e12;" horiz-adv-x="1413" 
d="M133 1443h517q323 0 503 -189t180 -530q0 -342 -180 -533t-503 -191h-517v1443zM357 1250v-1056h272q230 0 353 136.5t123 391.5t-123 391.5t-353 136.5h-272zM498 -164h172l286 -306h-188l-182 200h-4l-182 -200h-188z" />
    <glyph glyph-name="dcircumflexbelow" unicode="&#x1e13;" horiz-adv-x="1200" 
d="M520 -11q-205 0 -331.5 152t-126.5 403q0 249 126.5 401t329.5 152q116 0 205.5 -50.5t136.5 -140.5h5v602h216v-1508h-210v184h-4q-48 -93 -138.5 -144t-208.5 -51zM575 913q-131 0 -211 -101t-80 -269q0 -169 79.5 -269.5t211.5 -100.5q131 0 211 102t80 268t-80.5 268
t-210.5 102zM465 -164h172l286 -306h-188l-182 200h-4l-182 -200h-188z" />
    <glyph glyph-name="Emacrongrave" unicode="&#x1e14;" horiz-adv-x="1146" 
d="M264 1636v119h654v-119h-654zM675 1863h-163l-237 218h212zM1049 194v-194h-916v1443h916v-193h-692v-422h655v-186h-655v-448h692z" />
    <glyph glyph-name="emacrongrave" unicode="&#x1e15;" horiz-adv-x="1113" 
d="M563 923q-117 0 -194.5 -78t-86.5 -203h551q-4 127 -78 204t-192 77zM832 318h207q-23 -146 -153 -238.5t-313 -92.5q-236 0 -373.5 148.5t-137.5 403.5t137 408t365 153q224 0 355 -144.5t131 -391.5v-76h-769v-13q0 -141 81 -226.5t215 -85.5q95 0 164 42t91 113z
M650 1602h-170l-205 262h212zM887 1431v-119h-646v119h646z" />
    <glyph glyph-name="Emacronacute" unicode="&#x1e16;" horiz-adv-x="1146" 
d="M918 1636h-654v119h654v-119zM507 1863l188 218h212l-237 -218h-163zM1049 194v-194h-916v1443h916v-193h-692v-422h655v-186h-655v-448h692z" />
    <glyph glyph-name="emacronacute" unicode="&#x1e17;" horiz-adv-x="1113" 
d="M563 923q-117 0 -194.5 -78t-86.5 -203h551q-4 127 -78 204t-192 77zM832 318h207q-23 -146 -153 -238.5t-313 -92.5q-236 0 -373.5 148.5t-137.5 403.5t137 408t365 153q224 0 355 -144.5t131 -391.5v-76h-769v-13q0 -141 81 -226.5t215 -85.5q95 0 164 42t91 113z
M477 1603l168 261h212l-206 -261h-174zM887 1431v-119h-646v119h646z" />
    <glyph glyph-name="Ecircumflexbelow" unicode="&#x1e18;" horiz-adv-x="1146" 
d="M1049 194v-194h-916v1443h916v-193h-692v-422h655v-186h-655v-448h692zM505 -164h172l286 -306h-188l-182 200h-4l-182 -200h-188z" />
    <glyph glyph-name="ecircumflexbelow" unicode="&#x1e19;" horiz-adv-x="1113" 
d="M563 923q-117 0 -194.5 -78t-86.5 -203h551q-4 127 -78 204t-192 77zM832 318h207q-23 -146 -153 -238.5t-313 -92.5q-236 0 -373.5 148.5t-137.5 403.5t137 408t365 153q224 0 355 -144.5t131 -391.5v-76h-769v-13q0 -141 81 -226.5t215 -85.5q95 0 164 42t91 113z
M484 -164h172l286 -306h-188l-182 200h-4l-182 -200h-188z" />
    <glyph glyph-name="Etildebelow" unicode="&#x1e1a;" horiz-adv-x="1146" 
d="M724 -422q-45 0 -84.5 23t-63 50t-52 50t-53.5 23q-33 0 -50.5 -34.5t-18.5 -95.5h-129q0 120 51.5 188.5t139.5 68.5q47 0 88 -23t65 -50t51.5 -50t51.5 -23q63 0 63 132h130q0 -118 -52.5 -188.5t-136.5 -70.5zM1049 194v-194h-916v1443h916v-193h-692v-422h655v-186
h-655v-448h692z" />
    <glyph glyph-name="etildebelow" unicode="&#x1e1b;" horiz-adv-x="1113" 
d="M703 -422q-45 0 -84.5 23t-63 50t-52 50t-53.5 23q-33 0 -50.5 -34.5t-18.5 -95.5h-129q0 120 51.5 188.5t139.5 68.5q47 0 88 -23t65 -50t51.5 -50t51.5 -23q63 0 63 132h130q0 -118 -52.5 -188.5t-136.5 -70.5zM563 923q-117 0 -194.5 -78t-86.5 -203h551
q-4 127 -78 204t-192 77zM832 318h207q-23 -146 -153 -238.5t-313 -92.5q-236 0 -373.5 148.5t-137.5 403.5t137 408t365 153q224 0 355 -144.5t131 -391.5v-76h-769v-13q0 -141 81 -226.5t215 -85.5q95 0 164 42t91 113z" />
    <glyph glyph-name="Ecedillabreve" unicode="&#x1e1c;" horiz-adv-x="1146" 
d="M776 1853h140q-1 -134 -90.5 -220t-234.5 -86t-234.5 86t-90.5 220h140q0 -80 52.5 -134t132.5 -54t132.5 54t52.5 134zM1049 1250h-692v-422h655v-186h-655v-448h692v-194h-381l-51 -132q97 0 148.5 -39.5t51.5 -114.5q0 -80 -62.5 -129.5t-163.5 -50.5q-85 -2 -145 17
v105q37 -14 118 -14q115 0 115 66q0 34 -32.5 48.5t-108.5 14.5h-55v83l59 146h-409v1443h916v-193z" />
    <glyph glyph-name="ecedillabreve" unicode="&#x1e1d;" horiz-adv-x="1113" 
d="M755 1557h143q-1 -139 -93 -226.5t-242 -87.5t-242 87.5t-93 226.5h143q1 -82 55.5 -137.5t136.5 -55.5t136.5 55.5t55.5 137.5zM282 642h551q-4 127 -78 204t-192 77q-117 0 -194.5 -78t-86.5 -203zM1050 488h-769v-13q0 -141 81 -226.5t215 -85.5q95 0 164 42t91 113
h207q-21 -131 -129.5 -220.5t-266.5 -106.5l-47 -123q97 0 148.5 -39.5t51.5 -114.5q0 -80 -62.5 -129.5t-163.5 -50.5q-85 -2 -145 17v105q37 -14 118 -14q115 0 115 66q0 34 -32.5 48.5t-108.5 14.5h-55v83l55 135q-212 18 -333.5 164.5t-121.5 385.5q0 255 137 408
t365 153q224 0 355 -144.5t131 -391.5v-76z" />
    <glyph glyph-name="Fdotaccent" unicode="&#x1e1e;" horiz-adv-x="1096" 
d="M579 1576q-55 0 -93 38.5t-38 92.5q0 55 38 93t93 38t93 -38t38 -93q0 -54 -38 -92.5t-93 -38.5zM357 0h-224v1443h901v-193h-677v-457h620v-189h-620v-604z" />
    <glyph glyph-name="fdotaccent" unicode="&#x1e1f;" horiz-adv-x="667" 
d="M392 1607q-55 0 -93 38.5t-38 92.5q0 55 38 93t93 38t93 -38t38 -93q0 -54 -38 -92.5t-93 -38.5zM176 0v915h-150v171h150v100q0 153 74 222.5t238 69.5q52 0 110 -10v-165q-35 8 -81 8q-67 0 -96.5 -31t-30.5 -101v-93h209v-171h-207v-915h-216z" />
    <glyph glyph-name="Gmacron" unicode="&#x1e20;" horiz-adv-x="1462" 
d="M1376 600q0 -293 -164.5 -458.5t-457.5 -165.5q-310 0 -491.5 202.5t-181.5 549.5q0 341 180.5 540t489.5 199q241 0 408.5 -131t205.5 -347h-230q-40 134 -141 208t-242 74q-207 0 -324.5 -143.5t-117.5 -397.5q0 -259 120 -408.5t326 -149.5q175 0 286 102.5t113 266.5
v25h-373v181h594v-147zM1074 1755v-119h-654v119h654z" />
    <glyph glyph-name="gmacron" unicode="&#x1e21;" horiz-adv-x="1192" 
d="M897 1431v-119h-646v119h646zM572 183q132 0 212.5 99.5t80.5 263.5q0 165 -80.5 266t-212.5 101q-131 0 -209.5 -100t-78.5 -267q0 -166 78.5 -264.5t209.5 -98.5zM573 -391q-196 0 -324 84t-144 223h219q18 -63 88 -100t170 -37q129 0 206 63t77 169v179h-5
q-47 -88 -138.5 -137.5t-206.5 -49.5q-204 0 -328.5 148.5t-124.5 395.5q0 251 124.5 400.5t333.5 149.5q115 0 206 -50.5t141 -140.5h4v180h210v-1058q0 -194 -136.5 -306.5t-371.5 -112.5z" />
    <glyph glyph-name="Hdotaccent" unicode="&#x1e22;" horiz-adv-x="1454" 
d="M1322 0h-224v639h-741v-639h-224v1443h224v-610h741v610h224v-1443zM727 1576q-55 0 -93 38.5t-38 92.5q0 55 38 93t93 38t93 -38t38 -93q0 -54 -38 -92.5t-93 -38.5z" />
    <glyph glyph-name="hdotaccent" unicode="&#x1e23;" horiz-adv-x="1171" 
d="M120 0v1508h215v-605h5q99 195 343 195q178 0 280 -109.5t102 -294.5v-694h-217v652q0 123 -61 191.5t-179 68.5q-126 0 -198.5 -79t-72.5 -211v-622h-217zM229 1641q-55 0 -93 38.5t-38 92.5q0 55 38 93t93 38t93 -38t38 -93q0 -54 -38 -92.5t-93 -38.5z" />
    <glyph glyph-name="Hdotbelow" unicode="&#x1e24;" horiz-adv-x="1454" 
d="M1322 0h-224v639h-741v-639h-224v1443h224v-610h741v610h224v-1443zM727 -416q-55 0 -93 38.5t-38 92.5q0 55 38 93t93 38t93 -38t38 -93q0 -54 -38 -92.5t-93 -38.5z" />
    <glyph glyph-name="hdotbelow" unicode="&#x1e25;" horiz-adv-x="1171" 
d="M120 0v1508h215v-605h5q99 195 343 195q178 0 280 -109.5t102 -294.5v-694h-217v652q0 123 -61 191.5t-179 68.5q-126 0 -198.5 -79t-72.5 -211v-622h-217zM594 -416q-55 0 -93 38.5t-38 92.5q0 55 38 93t93 38t93 -38t38 -93q0 -54 -38 -92.5t-93 -38.5z" />
    <glyph glyph-name="Hdieresis" unicode="&#x1e26;" horiz-adv-x="1454" 
d="M1322 0h-224v639h-741v-639h-224v1443h224v-610h741v610h224v-1443zM526 1576q-50 0 -85.5 35t-35.5 84t35.5 84t85.5 35t85 -34.5t35 -84.5q0 -49 -35 -84t-85 -35zM929 1576q-50 0 -85.5 35t-35.5 84t35.5 84t85.5 35t85 -34.5t35 -84.5q0 -49 -35 -84t-85 -35z" />
    <glyph glyph-name="hdieresis" unicode="&#x1e27;" horiz-adv-x="1171" 
d="M120 0v1508h215v-605h5q99 195 343 195q178 0 280 -109.5t102 -294.5v-694h-217v652q0 123 -61 191.5t-179 68.5q-126 0 -198.5 -79t-72.5 -211v-622h-217zM28 1641q-50 0 -85.5 35t-35.5 84t35.5 84t85.5 35t85 -34.5t35 -84.5q0 -49 -35 -84t-85 -35zM431 1641
q-50 0 -85.5 35t-35.5 84t35.5 84t85.5 35t85 -34.5t35 -84.5q0 -49 -35 -84t-85 -35z" />
    <glyph glyph-name="Hcedilla" unicode="&#x1e28;" horiz-adv-x="1454" 
d="M1098 1443h224v-1443h-224v639h-741v-639h-54l-51 -132q97 0 148.5 -39.5t51.5 -114.5q0 -80 -62.5 -129.5t-163.5 -50.5q-85 -2 -145 17v105q37 -14 118 -14q115 0 115 66q0 34 -32.5 48.5t-108.5 14.5h-55v83l59 146h-44v1443h224v-610h741v610z" />
    <glyph glyph-name="hcedilla" unicode="&#x1e29;" horiz-adv-x="1171" 
d="M335 903h5q99 195 343 195q178 0 280 -109.5t102 -294.5v-694h-217v652q0 123 -61 191.5t-179 68.5q-126 0 -198.5 -79t-72.5 -211v-622h-45l-51 -132q97 0 148.5 -39.5t51.5 -114.5q0 -80 -62.5 -129.5t-163.5 -50.5q-85 -2 -145 17v105q37 -14 118 -14q115 0 115 66
q0 34 -32.5 48.5t-108.5 14.5h-55v83l59 146h-46v1508h215v-605z" />
    <glyph glyph-name="Hbrevebelow" unicode="&#x1e2a;" horiz-adv-x="1454" 
d="M402 -189h140q0 -80 52.5 -134t132.5 -54t132.5 54t52.5 134h140q-1 -134 -90.5 -220t-234.5 -86t-234.5 86t-90.5 220zM1322 0h-224v639h-741v-639h-224v1443h224v-610h741v610h224v-1443z" />
    <glyph glyph-name="hbrevebelow" unicode="&#x1e2b;" horiz-adv-x="1171" 
d="M269 -189h140q0 -80 52.5 -134t132.5 -54t132.5 54t52.5 134h140q-1 -134 -90.5 -220t-234.5 -86t-234.5 86t-90.5 220zM120 0v1508h215v-605h5q99 195 343 195q178 0 280 -109.5t102 -294.5v-694h-217v652q0 123 -61 191.5t-179 68.5q-126 0 -198.5 -79t-72.5 -211v-622
h-217z" />
    <glyph glyph-name="Itildebelow" unicode="&#x1e2c;" horiz-adv-x="490" 
d="M357 0h-224v1443h224v-1443zM378 -422q-45 0 -84.5 23t-63 50t-52 50t-53.5 23q-33 0 -50.5 -34.5t-18.5 -95.5h-129q0 120 51.5 188.5t139.5 68.5q47 0 88 -23t65 -50t51.5 -50t51.5 -23q63 0 63 132h130q0 -118 -52.5 -188.5t-136.5 -70.5z" />
    <glyph glyph-name="itildebelow" unicode="&#x1e2d;" horiz-adv-x="455" 
d="M119 0v1086h217v-1086h-217zM228 1241q-53 0 -90 36.5t-37 88.5q0 53 37 89t90 36t90 -36t37 -89q0 -52 -37 -88.5t-90 -36.5zM361 -422q-45 0 -84.5 23t-63 50t-52 50t-53.5 23q-33 0 -50.5 -34.5t-18.5 -95.5h-129q0 120 51.5 188.5t139.5 68.5q47 0 88 -23t65 -50
t51.5 -50t51.5 -23q63 0 63 132h130q0 -118 -52.5 -188.5t-136.5 -70.5z" />
    <glyph glyph-name="Idieresisacute" unicode="&#x1e2e;" horiz-adv-x="490" 
d="M357 0h-224v1443h224v-1443zM161 1863l188 218h212l-237 -218h-163zM53 1582q-46 0 -78 31.5t-32 76.5t32 76.5t78 31.5q45 0 76.5 -32t31.5 -76q0 -45 -31.5 -76.5t-76.5 -31.5zM437 1582q-45 0 -76.5 31.5t-31.5 76.5q0 44 31.5 76t76.5 32q46 0 78 -31.5t32 -76.5
t-32 -76.5t-78 -31.5z" />
    <glyph glyph-name="idieresisacute" unicode="&#x1e2f;" horiz-adv-x="455" 
d="M141 1603l168 261h212l-206 -261h-174zM27 1260q-50 0 -85.5 35t-35.5 84t35.5 84t85.5 35t85 -34.5t35 -84.5q0 -49 -35 -84t-85 -35zM430 1260q-50 0 -85.5 35t-35.5 84t35.5 84t85.5 35t85 -34.5t35 -84.5q0 -49 -35 -84t-85 -35zM119 0v1086h217v-1086h-217z" />
    <glyph glyph-name="Kacute" unicode="&#x1e30;" horiz-adv-x="1293" 
d="M717 1551h-176l231 303h225zM357 0h-224v1443h224v-687h9l603 687h266l-572 -639l620 -804h-278l-500 650l-148 -169v-481z" />
    <glyph glyph-name="kacute" unicode="&#x1e31;" horiz-adv-x="1062" 
d="M316 1616h-176l231 303h225zM338 617l447 469h255l-454 -468l470 -618h-250l-375 486l-94 -92v-394h-217v1508h217v-891h1z" />
    <glyph glyph-name="Kdotbelow" unicode="&#x1e32;" horiz-adv-x="1293" 
d="M629 -416q-55 0 -93 38.5t-38 92.5q0 55 38 93t93 38t93 -38t38 -93q0 -54 -38 -92.5t-93 -38.5zM357 0h-224v1443h224v-687h9l603 687h266l-572 -639l620 -804h-278l-500 650l-148 -169v-481z" />
    <glyph glyph-name="kdotbelow" unicode="&#x1e33;" horiz-adv-x="1062" 
d="M566 -416q-55 0 -93 38.5t-38 92.5q0 55 38 93t93 38t93 -38t38 -93q0 -54 -38 -92.5t-93 -38.5zM338 617l447 469h255l-454 -468l470 -618h-250l-375 486l-94 -92v-394h-217v1508h217v-891h1z" />
    <glyph glyph-name="Klinebelow" unicode="&#x1e34;" horiz-adv-x="1293" 
d="M357 0h-224v1443h224v-687h9l603 687h266l-572 -639l620 -804h-278l-500 650l-148 -169v-481zM956 -223v-119h-654v119h654z" />
    <glyph glyph-name="klinebelow" unicode="&#x1e35;" horiz-adv-x="1062" 
d="M338 617l447 469h255l-454 -468l470 -618h-250l-375 486l-94 -92v-394h-217v1508h217v-891h1zM893 -223v-119h-654v119h654z" />
    <glyph glyph-name="Ldotbelow" unicode="&#x1e36;" horiz-adv-x="1088" 
d="M577 -416q-55 0 -93 38.5t-38 92.5q0 55 38 93t93 38t93 -38t38 -93q0 -54 -38 -92.5t-93 -38.5zM1029 194v-194h-896v1443h224v-1249h672z" />
    <glyph glyph-name="ldotbelow" unicode="&#x1e37;" horiz-adv-x="457" 
d="M229 -416q-55 0 -93 38.5t-38 92.5q0 55 38 93t93 38t93 -38t38 -93q0 -54 -38 -92.5t-93 -38.5zM120 0v1508h217v-1508h-217z" />
    <glyph glyph-name="Ldotbelowmacron" unicode="&#x1e38;" horiz-adv-x="1088" 
d="M577 -416q-55 0 -93 38.5t-38 92.5q0 55 38 93t93 38t93 -38t38 -93q0 -54 -38 -92.5t-93 -38.5zM1029 194v-194h-896v1443h224v-1249h672zM572 1755v-119h-654v119h654z" />
    <glyph glyph-name="ldotbelowmacron" unicode="&#x1e39;" horiz-adv-x="457" 
d="M229 -416q-55 0 -93 38.5t-38 92.5q0 55 38 93t93 38t93 -38t38 -93q0 -54 -38 -92.5t-93 -38.5zM120 0v1508h217v-1508h-217zM556 1820v-119h-654v119h654z" />
    <glyph glyph-name="Llinebelow" unicode="&#x1e3a;" horiz-adv-x="1088" 
d="M904 -223v-119h-654v119h654zM1029 194v-194h-896v1443h224v-1249h672z" />
    <glyph glyph-name="llinebelow" unicode="&#x1e3b;" horiz-adv-x="457" 
d="M556 -223v-119h-654v119h654zM120 0v1508h217v-1508h-217z" />
    <glyph glyph-name="Lcircumflexbelow" unicode="&#x1e3c;" horiz-adv-x="1088" 
d="M1029 194v-194h-896v1443h224v-1249h672zM491 -164h172l286 -306h-188l-182 200h-4l-182 -200h-188z" />
    </font>
</defs>
</svg>
