<?xml version="1.0" standalone="no"?>
<!DOCTYPE svg PUBLIC "-//W3C//DTD SVG 1.1//EN" "http://www.w3.org/Graphics/SVG/1.1/DTD/svg11.dtd" >
<svg>
<metadata>
Created by FontForge 20090622 at Tue Sep  4 06:15:18 2018
 By deploy user
&#194;&#169; 2015 Apple Inc. All rights reserved.
</metadata>
<defs>
<font id="SFUIDisplay-Thin" horiz-adv-x="0" >
  <font-face 
    font-family="SF UI Display"
    font-weight="200"
    font-stretch="normal"
    units-per-em="2048"
    panose-1="0 0 3 0 0 0 0 0 0 0"
    ascent="1638"
    descent="-410"
    x-height="1077"
    cap-height="1443"
    bbox="-477 -849 2434 2086"
    underline-thickness="61"
    underline-position="-309"
    unicode-range="U+0020-U+FB02"
  />
<missing-glyph horiz-adv-x="2048" 
d="M100 -494v339h1848v-339h-1848zM100 -73v339h1848v-339h-1848zM100 348v339h1848v-339h-1848zM100 769v339h1848v-339h-1848zM100 1190v339h1848v-339h-1848zM100 1611v339h1848v-339h-1848z" />
    <glyph glyph-name=".notdef" horiz-adv-x="2048" 
d="M100 -494v339h1848v-339h-1848zM100 -73v339h1848v-339h-1848zM100 348v339h1848v-339h-1848zM100 769v339h1848v-339h-1848zM100 1190v339h1848v-339h-1848zM100 1611v339h1848v-339h-1848z" />
    <glyph glyph-name=".null" 
 />
    <glyph glyph-name="nonmarkingreturn" 
 />
    <glyph glyph-name="space" unicode=" " horiz-adv-x="406" 
 />
    <glyph glyph-name="exclam" unicode="!" horiz-adv-x="510" 
d="M214 1443h82l-3 -1017h-76zM255 -10q-29 0 -50 20.5t-21 50.5q0 29 21 49.5t50 20.5q30 0 50.5 -20.5t20.5 -49.5q0 -30 -20.5 -50.5t-50.5 -20.5z" />
    <glyph glyph-name="quotedbl" unicode="&#x22;" horiz-adv-x="564" 
d="M181 984h-74v459h74v-459zM457 984h-73v459h73v-459z" />
    <glyph glyph-name="numbersign" unicode="#" horiz-adv-x="1224" 
d="M1180 940h-271l-86 -430h258l-14 -67h-258l-92 -443h-70l92 443h-383l-92 -443h-69l92 443h-247l12 67h250l85 430h-235l13 67h235l92 441h69l-90 -441h382l92 441h69l-91 -441h271zM457 940l-87 -431h384l85 431h-382z" />
    <glyph glyph-name="dollar" unicode="$" horiz-adv-x="1192" 
d="M627 -167h-64v151q-203 8 -338 121.5t-139 279.5h77q8 -133 122 -227t278 -102v656l-22 6q-226 55 -322.5 139.5t-96.5 227.5q0 158 123 263t318 114v135h64v-135q185 -9 311 -113.5t131 -252.5h-77q-5 116 -110.5 201.5t-254.5 94.5v-617l24 -6q243 -58 344.5 -146.5
t101.5 -245.5q0 -165 -130.5 -273.5t-339.5 -119.5v-151zM1020 373q0 128 -89 202t-304 123v-643q170 6 281.5 96.5t111.5 221.5zM199 1089q0 -116 83 -184.5t281 -115.5v603q-157 -6 -260.5 -92t-103.5 -211z" />
    <glyph glyph-name="percent" unicode="%" horiz-adv-x="1420" 
d="M1370 334q0 -158 -67.5 -252t-185.5 -94q-117 0 -185 94t-68 252q0 157 68 251t185 94q118 0 185.5 -93.5t67.5 -251.5zM1117 48q84 0 132 77.5t48 208.5t-47.5 208t-132.5 77q-84 0 -131.5 -77.5t-47.5 -207.5q0 -131 47.5 -208.5t131.5 -77.5zM556 1109
q0 -158 -67.5 -252t-185.5 -94q-117 0 -185 94t-68 252q0 157 68 251t185 94q118 0 185.5 -93.5t67.5 -251.5zM303 823q84 0 132 77.5t48 208.5t-47.5 208t-132.5 77q-84 0 -131.5 -77.5t-47.5 -207.5q0 -131 47.5 -208.5t131.5 -77.5zM211 0h-85l1075 1443h85z" />
    <glyph glyph-name="ampersand" unicode="&#x26;" horiz-adv-x="1374" 
d="M1214 0l-192 199q-94 -103 -225.5 -161.5t-267.5 -58.5q-201 0 -328 108.5t-127 278.5q0 229 276 378q5 2 54 28l48 26q-123 126 -170 204.5t-47 158.5q0 127 99 214.5t244 87.5t241 -85t96 -215q0 -105 -82 -196.5t-268 -185.5l451 -476q58 90 91 201.5t33 219.5v79h75
v-77q0 -122 -39.5 -249.5t-106.5 -224.5l246 -254h-101zM395 691q-242 -133 -242 -323q0 -138 106 -229t275 -91q116 0 238 56t198 144l-471 499q-1 -1 -52 -28t-52 -28zM520 829q166 81 242.5 162.5t76.5 169.5q0 100 -75.5 168t-185.5 68q-109 0 -188 -70.5t-79 -168.5
q0 -68 43.5 -136.5t165.5 -192.5z" />
    <glyph glyph-name="quotesingle" unicode="'" horiz-adv-x="287" 
d="M181 984h-74v459h74v-459z" />
    <glyph glyph-name="parenleft" unicode="(" horiz-adv-x="570" 
d="M498 -257h-76q-124 159 -196.5 377t-72.5 478q0 494 272 845h74q-119 -156 -193 -375.5t-74 -469.5t72.5 -468t193.5 -387z" />
    <glyph glyph-name="parenright" unicode=")" horiz-adv-x="570" 
d="M72 -257q121 170 193.5 388t72.5 467q0 250 -74 469.5t-193 375.5h74q271 -350 271 -845q0 -260 -72 -478t-196 -377h-76z" />
    <glyph glyph-name="asterisk" unicode="*" horiz-adv-x="953" 
d="M778 892l-275 166l7 -320h-66l6 321l-275 -167l-30 55l279 156l-279 156l30 56l275 -168l-6 322h66l-7 -322l275 168l31 -56l-279 -155l279 -156z" />
    <glyph glyph-name="plus" unicode="+" horiz-adv-x="1192" 
d="M633 539v-504h-74v504h-453v73h453v490h74v-490h453v-73h-453z" />
    <glyph glyph-name="comma" unicode="," horiz-adv-x="496" 
d="M217 -222h-62l65 402h83z" />
    <glyph glyph-name="hyphen" unicode="-" horiz-adv-x="868" 
d="M762 539h-656v73h656v-73z" />
    <glyph glyph-name="hyphen" unicode="&#x2011;" horiz-adv-x="868" 
d="M762 539h-656v73h656v-73z" />
    <glyph glyph-name="period" unicode="." horiz-adv-x="496" 
d="M248 -10q-29 0 -49.5 20.5t-20.5 49.5t20.5 49.5t49.5 20.5t49.5 -20.5t20.5 -49.5t-20.5 -49.5t-49.5 -20.5z" />
    <glyph glyph-name="slash" unicode="/" horiz-adv-x="518" 
d="M70 -331h-70l446 1774h72z" />
    <glyph glyph-name="zero" unicode="0" horiz-adv-x="1194" 
d="M598 -21q-237 0 -374.5 200t-137.5 543q0 341 137.5 541.5t374.5 200.5q236 0 373 -200t137 -542q0 -343 -137 -543t-373 -200zM598 50q200 0 315.5 181t115.5 491q0 308 -116 489.5t-315 181.5q-200 0 -316 -181.5t-116 -489.5q0 -310 116 -491t316 -181z" />
    <glyph glyph-name="one" unicode="1" horiz-adv-x="804" 
d="M484 0v1359h-2l-62 -40.5l-130 -85.5l-202 -128v88l190 123t206 132h78v-1448h-78z" />
    <glyph glyph-name="two" unicode="2" horiz-adv-x="1142" 
d="M124 1054q4 178 129 294t314 116q184 0 309.5 -113t125.5 -279q0 -115 -64.5 -223.5t-243.5 -295.5l-451 -477v-4h813v-72h-927v60l513 544q166 175 223.5 269.5t57.5 195.5q0 137 -103 230.5t-255 93.5q-154 0 -257 -96t-107 -243h-77z" />
    <glyph glyph-name="three" unicode="3" horiz-adv-x="1146" 
d="M384 714v70h161q163 0 266 86t103 222q0 130 -100.5 215.5t-257.5 85.5q-147 0 -248.5 -84.5t-110.5 -213.5h-77q9 161 132 265t307 104q186 0 310 -104t124 -261q0 -134 -82 -226.5t-224 -118.5v-4q168 -11 268.5 -107.5t100.5 -249.5q0 -179 -138.5 -296.5
t-347.5 -117.5q-206 0 -342.5 109.5t-140.5 274.5h77q5 -134 120.5 -223.5t285.5 -89.5q175 0 290.5 96.5t115.5 244.5q0 151 -114 237t-315 86h-163z" />
    <glyph glyph-name="four" unicode="4" horiz-adv-x="1181" 
d="M813 0v361h-743v73q297 460 707 1013l114 1v-1015h229v-72h-229v-361h-78zM157 435v-2h656v935h-2q-357 -476 -654 -933z" />
    <glyph glyph-name="five" unicode="5" horiz-adv-x="1171" 
d="M595 -21q-123 0 -227 48t-168.5 133.5t-75.5 192.5h79q17 -131 128.5 -217t264.5 -86q179 0 297.5 116.5t118.5 292.5q0 175 -116.5 292.5t-289.5 117.5q-120 0 -220 -56.5t-159 -156.5h-80l86 787h765v-72h-697l-68 -617h3q59 86 160.5 136t218.5 50q204 0 340 -137
t136 -343q0 -208 -140.5 -344.5t-355.5 -136.5z" />
    <glyph glyph-name="six" unicode="6" horiz-adv-x="1179" 
d="M616 -21q-124 0 -225.5 53t-168.5 151q-132 176 -132 501q0 360 143.5 570t389.5 210q175 0 298.5 -98t148.5 -258h-80q-23 125 -126 205t-242 80q-219 0 -339.5 -205.5t-114.5 -570.5h4q38 144 164 235.5t287 91.5q205 0 342 -136t137 -339q0 -210 -138.5 -350
t-347.5 -140zM615 51q172 0 289.5 120t117.5 296q0 173 -117 289.5t-290 116.5q-111 0 -207 -53t-152 -143t-56 -195q0 -182 120 -306.5t295 -124.5z" />
    <glyph glyph-name="seven" unicode="7" horiz-adv-x="1085" 
d="M231 0l690 1368v3h-839v72h920v-76l-685 -1367h-86z" />
    <glyph glyph-name="eight" unicode="8" horiz-adv-x="1189" 
d="M594 -21q-223 0 -362 116.5t-139 298.5q0 138 93.5 240.5t243.5 130.5v3q-130 29 -207 116.5t-77 206.5q0 163 125.5 268t322.5 105t322.5 -105t125.5 -268q0 -116 -77.5 -204t-204.5 -119v-3q149 -28 242.5 -130.5t93.5 -240.5q0 -183 -139 -299t-363 -116zM594 50
q189 0 305.5 98t116.5 249q0 145 -116.5 237t-305.5 92q-188 0 -304.5 -92.5t-116.5 -236.5q0 -151 116 -249t305 -98zM594 799q162 0 265.5 81t103.5 207q0 133 -101.5 219.5t-267.5 86.5q-165 0 -267.5 -87t-102.5 -219q0 -126 104.5 -207t265.5 -81z" />
    <glyph glyph-name="nine" unicode="9" horiz-adv-x="1179" 
d="M557 -21q-179 0 -301 98.5t-147 257.5h80q23 -125 123 -205t245 -80q211 0 330 186t125 513q1 26 -1 77h-1h-1q-36 -140 -164 -233.5t-289 -93.5q-207 0 -343 134.5t-136 335.5q0 213 138 354t348 141q125 0 226 -53.5t168 -152.5q132 -178 132 -499q0 -360 -142 -570
t-390 -210zM564 570q170 0 292.5 116.5t122.5 274.5q0 181 -119.5 306t-295.5 125q-174 0 -291 -121.5t-117 -300.5q0 -168 116 -284t292 -116z" />
    <glyph glyph-name="colon" unicode=":" horiz-adv-x="496" 
d="M248 -10q-29 0 -49.5 20.5t-20.5 49.5t20.5 49.5t49.5 20.5t49.5 -20.5t20.5 -49.5t-20.5 -49.5t-49.5 -20.5zM248 760q-29 0 -49.5 20.5t-20.5 49.5t20.5 49.5t49.5 20.5t49.5 -20.5t20.5 -49.5t-20.5 -49.5t-49.5 -20.5z" />
    <glyph glyph-name="semicolon" unicode=";" horiz-adv-x="496" 
d="M248 760q-29 0 -49.5 20.5t-20.5 49.5t20.5 49.5t49.5 20.5t49.5 -20.5t20.5 -49.5t-20.5 -49.5t-49.5 -20.5zM203 -222h-63l65 402h84z" />
    <glyph glyph-name="less" unicode="&#x3c;" horiz-adv-x="1192" 
d="M1004 1046l-730 -501v-6l730 -494v-92l-815 554v67l815 564v-92z" />
    <glyph glyph-name="equal" unicode="=" horiz-adv-x="1192" 
d="M1081 353h-969v70h969v-70zM1081 728h-969v70h969v-70z" />
    <glyph glyph-name="greater" unicode="&#x3e;" horiz-adv-x="1192" 
d="M189 1046v92l815 -564v-66l-815 -555v93l730 494v6z" />
    <glyph glyph-name="question" unicode="?" horiz-adv-x="931" 
d="M60 1096q10 158 119.5 261t277.5 103q169 0 280 -101t111 -253q0 -102 -50 -180t-163 -157q-102 -70 -138.5 -126.5t-36.5 -144.5v-90h-77v98q-1 98 41.5 165t152.5 145q103 73 146.5 139.5t43.5 147.5q0 125 -89 205.5t-223 80.5q-130 0 -218 -80.5t-101 -212.5h-76z
M424 -10q-29 0 -49.5 20.5t-20.5 50.5q0 29 20.5 49.5t49.5 20.5q30 0 50.5 -20.5t20.5 -49.5q0 -30 -20.5 -50.5t-50.5 -20.5z" />
    <glyph glyph-name="at" unicode="@" horiz-adv-x="1741" 
d="M865 947q-121 0 -198 -99.5t-77 -255.5q0 -155 76 -252t198 -97q121 0 194 98t73 261q0 160 -71.5 252.5t-194.5 92.5zM892 1432q173 0 321.5 -55.5t253 -153.5t163.5 -238.5t59 -305.5q0 -238 -85 -373t-236 -135q-94 0 -157 54.5t-76 149.5h-5q-36 -98 -105.5 -148.5
t-166.5 -50.5q-154 0 -248.5 115.5t-94.5 302.5q0 186 95 302.5t248 116.5q95 0 168 -50.5t101 -135.5h5v165h71v-552q0 -95 45.5 -150t127.5 -55q115 0 180 117t65 328q0 201 -92.5 358t-259.5 244t-381 87q-213 0 -384 -98t-267.5 -272.5t-96.5 -392.5q0 -172 56 -317
t155 -245t238.5 -155.5t303.5 -55.5q213 0 327 38v-64q-109 -37 -328 -37q-178 0 -330 60t-260 168.5t-169 265t-61 343.5q0 178 61.5 331.5t169.5 262t260 170t329 61.5z" />
    <glyph glyph-name="A" unicode="A" horiz-adv-x="1221" 
d="M1115 0l-180 481h-649l-179 -481h-86l550 1443h80l549 -1443h-85zM608 1340l-296 -788h598l-297 788h-5z" />
    <glyph glyph-name="B" unicode="B" horiz-adv-x="1165" 
d="M625 0h-497v1443h486q188 0 304.5 -97t116.5 -254q0 -129 -77.5 -221t-206.5 -117v-6q158 -17 259 -114t101 -249q0 -178 -130 -281.5t-356 -103.5zM207 1371v-593h376q170 0 271 83t101 225q0 130 -96 207.5t-257 77.5h-395zM207 72h410q194 0 304 84.5t110 230.5
q0 150 -115 235t-320 85h-389v-635z" />
    <glyph glyph-name="C" unicode="C" horiz-adv-x="1326" 
d="M702 -21q-290 0 -462.5 203.5t-172.5 547.5q0 337 172 535.5t463 198.5q220 0 382 -138.5t185 -344.5h-79q-23 174 -162.5 291.5t-325.5 117.5q-254 0 -404 -178t-150 -482q0 -310 150.5 -493.5t403.5 -183.5q192 0 328.5 105.5t159.5 277.5h79q-25 -205 -181.5 -331
t-385.5 -126z" />
    <glyph glyph-name="D" unicode="D" horiz-adv-x="1332" 
d="M128 1443h449q328 0 508 -189t180 -532q0 -344 -180 -533t-508 -189h-449v1443zM208 1370v-1297h365q295 0 453.5 168.5t158.5 479.5q0 313 -159 481t-453 168h-365z" />
    <glyph glyph-name="E" unicode="E" horiz-adv-x="1068" 
d="M969 73v-73h-841v1443h841v-73h-762v-594h726v-72h-726v-631h762z" />
    <glyph glyph-name="F" unicode="F" horiz-adv-x="1033" 
d="M207 0h-79v1443h830v-73h-751v-603h691v-72h-691v-695z" />
    <glyph glyph-name="G" unicode="G" horiz-adv-x="1358" 
d="M1281 571q0 -276 -155.5 -434t-426.5 -158q-186 0 -330 94t-223 264.5t-79 392.5q0 331 173.5 532.5t458.5 201.5q217 0 374.5 -120t198.5 -317h-81q-43 166 -176.5 264.5t-315.5 98.5q-250 0 -400.5 -180t-150.5 -479q0 -304 152 -491t399 -187q232 0 367.5 136.5
t135.5 369.5v83h-503v72h582v-143z" />
    <glyph glyph-name="H" unicode="H" horiz-adv-x="1327" 
d="M1199 0h-79v705h-913v-705h-79v1443h79v-666h913v666h79v-1443z" />
    <glyph glyph-name="I" unicode="I" horiz-adv-x="335" 
d="M207 0h-79v1443h79v-1443z" />
    <glyph glyph-name="J" unicode="J" horiz-adv-x="951" 
d="M41 320h78q7 -119 92 -194.5t214 -75.5q150 0 234.5 89t84.5 250v1054h80v-1058q0 -189 -106.5 -299t-291.5 -110q-165 0 -273 96.5t-112 247.5z" />
    <glyph glyph-name="K" unicode="K" horiz-adv-x="1142" 
d="M207 0h-79v1443h79v-806h6l750 806h101l-594 -636l660 -807h-101l-615 751l-207 -223v-528z" />
    <glyph glyph-name="L" unicode="L" horiz-adv-x="1024" 
d="M964 73v-73h-836v1443h79v-1370h757z" />
    <glyph glyph-name="M" unicode="M" horiz-adv-x="1604" 
d="M1476 1443v-1443h-76v1279h-4l-556 -1276h-76l-556 1276h-4v-1279h-76v1443h88l583 -1340h6l581 1340h90z" />
    <glyph glyph-name="N" unicode="N" horiz-adv-x="1341" 
d="M206 0h-78v1443h82l919 -1299h6v1299h79v-1443h-75l-927 1307h-6v-1307z" />
    <glyph glyph-name="O" unicode="O" horiz-adv-x="1420" 
d="M710 1464q295 0 469 -201t174 -541q0 -342 -173.5 -542.5t-469.5 -200.5t-469.5 200.5t-173.5 542.5q0 340 174 541t469 201zM710 1390q-258 0 -410 -181t-152 -487q0 -307 152.5 -488t409.5 -181t409.5 181t152.5 488q0 306 -152.5 487t-409.5 181z" />
    <glyph glyph-name="P" unicode="P" horiz-adv-x="1116" 
d="M128 1443h469q211 0 337.5 -117.5t126.5 -313.5q0 -195 -127 -312.5t-337 -117.5h-390v-582h-79v1443zM207 1371v-717h377q183 0 289.5 96t106.5 262q0 167 -106.5 263t-289.5 96h-377z" />
    <glyph glyph-name="Q" unicode="Q" horiz-adv-x="1420" 
d="M1244 -177h-91l-159 217q-128 -61 -284 -61q-296 0 -469.5 200.5t-173.5 542.5q0 340 174 541t469 201t469 -201t174 -541q0 -221 -76.5 -388t-217.5 -258zM710 53q132 0 238 50l-196 269h91l170 -233q125 82 191.5 232t66.5 351q0 306 -152 487t-409 181t-409.5 -181
t-152.5 -487t152.5 -487.5t409.5 -181.5z" />
    <glyph glyph-name="R" unicode="R" horiz-adv-x="1150" 
d="M207 1371v-683h387q181 0 284 91t103 250q0 161 -103.5 251.5t-285.5 90.5h-385zM207 616v-616h-79v1443h471q214 0 338.5 -110.5t124.5 -301.5q0 -156 -88.5 -262.5t-245.5 -137.5l371 -631h-93l-361 619q-19 -3 -51 -3h-387z" />
    <glyph glyph-name="S" unicode="S" horiz-adv-x="1137" 
d="M57 385h79q9 -147 134 -240t313 -93q183 0 299.5 92.5t116.5 234.5q0 113 -81 183t-263 116l-171 42q-201 51 -294.5 136.5t-93.5 220.5q0 167 137 277t336 110q203 0 340 -106t144 -266h-79q-8 130 -122.5 214.5t-284.5 84.5q-165 0 -277.5 -88.5t-112.5 -223.5
q0 -107 81 -174t257 -111l161 -41q211 -52 307.5 -138.5t96.5 -229.5q0 -180 -139 -293t-364 -113q-222 0 -366.5 113t-153.5 293z" />
    <glyph glyph-name="T" unicode="T" horiz-adv-x="1138" 
d="M609 0h-80v1370h-508v73h1096v-73h-508v-1370z" />
    <glyph glyph-name="U" unicode="U" horiz-adv-x="1334" 
d="M207 1443v-939q0 -207 124 -329t336 -122t336 122t124 329v939h79v-942q0 -237 -145.5 -379.5t-393.5 -142.5t-393.5 142.5t-145.5 379.5v942h79z" />
    <glyph glyph-name="V" unicode="V" horiz-adv-x="1223" 
d="M651 0h-80l-550 1443h85l503 -1338h5l503 1338h84z" />
    <glyph glyph-name="W" unicode="W" horiz-adv-x="1803" 
d="M899 1295l-384 -1295h-70l-403 1443h82l356 -1306h5l379 1306h74l380 -1306h5l355 1306h83l-403 -1443h-70l-384 1295h-5z" />
    <glyph glyph-name="X" unicode="X" horiz-adv-x="1215" 
d="M42 0l516 722v2l-514 719h95l469 -658h2l471 658h92l-518 -721v-2l515 -720h-95l-468 656h-2l-471 -656h-92z" />
    <glyph glyph-name="Y" unicode="Y" horiz-adv-x="1172" 
d="M626 0h-79v629l-525 814h93l469 -733h5l469 733h92l-524 -814v-629z" />
    <glyph glyph-name="Z" unicode="Z" horiz-adv-x="1173" 
d="M71 0v62l925 1303v5h-896v73h997v-62l-923 -1303v-5h928v-73h-1031z" />
    <glyph glyph-name="bracketleft" unicode="[" horiz-adv-x="580" 
d="M162 1443h370v-65h-294v-1549h308v-65h-384v1679z" />
    <glyph glyph-name="backslash" unicode="\" horiz-adv-x="518" 
d="M448 -331l-448 1774h72l446 -1774h-70z" />
    <glyph glyph-name="bracketright" unicode="]" horiz-adv-x="580" 
d="M419 1443v-1679h-384v65h308v1549h-294v65h370z" />
    <glyph glyph-name="asciicircum" unicode="^" horiz-adv-x="782" 
d="M388 1321l-248 -519h-80l294 603h75l293 -603h-80l-248 519h-6z" />
    <glyph glyph-name="underscore" unicode="_" horiz-adv-x="807" 
d="M870 -205h-933v63h933v-63z" />
    <glyph glyph-name="grave" unicode="`" horiz-adv-x="758" 
d="M553 1253h-74l-249 303h93z" />
    <glyph glyph-name="a" unicode="a" horiz-adv-x="1030" 
d="M453 55q161 0 274 100.5t113 243.5v161l-359 -27q-155 -11 -236 -73t-81 -170q0 -103 81.5 -169t207.5 -66zM443 -14q-158 0 -257.5 84.5t-99.5 219.5q0 138 97.5 216t287.5 92l369 27v96q0 141 -81.5 220t-226.5 79q-137 0 -224 -67t-106 -189h-75q14 149 125 238
t281 89q177 0 280.5 -98t103.5 -267v-726h-75v232h-2q-40 -110 -150 -178t-247 -68z" />
    <glyph glyph-name="b" unicode="b" horiz-adv-x="1129" 
d="M611 -14q-144 0 -253 81.5t-151 220.5h-3v-288h-75v1506h78v-713h3q40 136 148.5 217t252.5 81q201 0 327 -153t126 -399t-126 -399.5t-327 -153.5zM600 1020q-173 0 -283 -135t-110 -347t109.5 -347t282.5 -135t279.5 133.5t106.5 349.5q0 215 -106.5 348t-278.5 133z
" />
    <glyph glyph-name="c" unicode="c" horiz-adv-x="1028" 
d="M969 753h-77q-24 118 -119.5 192.5t-233.5 74.5q-181 0 -288.5 -130.5t-107.5 -351.5t107.5 -351.5t289.5 -130.5q137 0 232 71t119 188h78q-25 -147 -142 -238t-287 -91q-217 0 -346 149t-129 403q0 253 129 403t345 150q170 0 287.5 -96t142.5 -242z" />
    <glyph glyph-name="d" unicode="d" horiz-adv-x="1136" 
d="M525 -14q-203 0 -331.5 153.5t-128.5 398.5q0 246 128.5 399.5t330.5 153.5q146 0 256 -84.5t147 -213.5h2v713h78v-1506h-73v290h-3q-38 -134 -148.5 -219t-257.5 -85zM534 1020q-173 0 -281.5 -133t-108.5 -348t108.5 -349t281.5 -134q174 0 285 134.5t111 347.5
t-111 347.5t-285 134.5z" />
    <glyph glyph-name="e" unicode="e" horiz-adv-x="1062" 
d="M536 1021q-168 0 -275 -118t-116 -311h773q-1 191 -106.5 310t-275.5 119zM905 301h79q-27 -139 -145.5 -227t-293.5 -88q-221 0 -350.5 146.5t-129.5 404.5q0 250 129.5 402t342.5 152q208 0 334 -142.5t126 -377.5v-45h-853v-4q0 -218 109 -342t293 -124
q144 0 239.5 68t119.5 177z" />
    <glyph glyph-name="f" unicode="f" horiz-adv-x="536" 
d="M171 0v1009h-150v68h150v153q0 250 238 250q49 0 79 -9v-68q-33 9 -75 9q-80 0 -122 -44t-42 -143v-148h231v-68h-231v-1009h-78z" />
    <glyph glyph-name="g" unicode="g" horiz-adv-x="1119" 
d="M529 59q174 0 283.5 134t109.5 346q0 213 -109.5 347t-283.5 134q-172 0 -278.5 -133t-106.5 -348q0 -214 106.5 -347t278.5 -133zM545 -361q-170 0 -283 68t-135 180h81q21 -80 113 -129.5t229 -49.5q167 0 269.5 79t102.5 215v285h-2q-37 -130 -146 -214.5t-254 -84.5
q-203 0 -329 152.5t-126 398.5q0 247 126.5 399.5t329.5 152.5q145 0 254.5 -85t148.5 -217h3v288h73v-1070q0 -172 -125 -270t-330 -98z" />
    <glyph glyph-name="h" unicode="h" horiz-adv-x="1088" 
d="M129 0v1506h78v-666h3q38 115 137.5 183t234.5 68q177 0 285 -108.5t108 -288.5v-694h-77v685q0 155 -90 245t-242 90q-159 0 -259 -106t-100 -275v-639h-78z" />
    <glyph glyph-name="i" unicode="i" horiz-adv-x="336" 
d="M129 0v1077h78v-1077h-78zM168 1341q-26 0 -44 18t-18 43q0 26 18 44t44 18t44.5 -18t18.5 -44q0 -25 -18.5 -43t-44.5 -18z" />
    <glyph glyph-name="j" unicode="j" horiz-adv-x="336" 
d="M207 1077v-1165q0 -145 -68 -210t-210 -65h-30v69h27q107 0 155 47.5t48 154.5v1169h78zM168 1341q-26 0 -44 18t-18 43q0 26 18 44t44 18t44.5 -18t18.5 -44q0 -25 -18.5 -43t-44.5 -18z" />
    <glyph glyph-name="k" unicode="k" horiz-adv-x="938" 
d="M208 524l609 553h102l-507 -464l511 -613h-95l-474 565l-147 -132v-433h-78v1506h78v-982h1z" />
    <glyph glyph-name="l" unicode="l" horiz-adv-x="336" 
d="M129 0v1506h78v-1506h-78z" />
    <glyph glyph-name="m" unicode="m" horiz-adv-x="1645" 
d="M119 0v1077h73v-237h3q31 112 116 181.5t208 69.5q124 0 211 -72.5t113 -183.5h2q30 109 122.5 182.5t219.5 73.5q156 0 250.5 -100t94.5 -267v-724h-78v707q0 146 -75.5 229.5t-208.5 83.5q-136 0 -221 -98t-85 -255v-667h-77v710q0 139 -79 224.5t-203 85.5
q-137 0 -222.5 -104t-85.5 -275v-641h-78z" />
    <glyph glyph-name="n" unicode="n" horiz-adv-x="1074" 
d="M119 0v1077h73v-237h3q38 115 137 183t235 68q178 0 286 -107.5t108 -288.5v-695h-78v686q0 155 -90.5 244.5t-242.5 89.5q-158 0 -255.5 -105.5t-97.5 -273.5v-641h-78z" />
    <glyph glyph-name="o" unicode="o" horiz-adv-x="1089" 
d="M544 -14q-216 0 -347.5 150t-131.5 402q0 253 131.5 403t347.5 150q217 0 348.5 -150t131.5 -403q0 -252 -132 -402t-348 -150zM544 56q182 0 291.5 130.5t109.5 351.5q0 222 -109 352t-292 130t-292 -130t-109 -352t109.5 -352t291.5 -130z" />
    <glyph glyph-name="p" unicode="p" horiz-adv-x="1119" 
d="M598 1091q203 0 329.5 -153.5t126.5 -399.5t-126 -399t-329 -153q-146 0 -254.5 84t-144.5 214h-3v-637h-78v1430h73v-288h3q37 131 147.5 216.5t255.5 85.5zM589 56q172 0 279 133.5t107 348.5t-107 348.5t-279 133.5q-173 0 -282.5 -134t-109.5 -348
q0 -213 109.5 -347.5t282.5 -134.5z" />
    <glyph glyph-name="q" unicode="q" horiz-adv-x="1126" 
d="M524 1091q147 0 258 -84.5t149 -217.5h3v288h73v-1430h-78v637h-2q-37 -130 -147.5 -214t-256.5 -84q-202 0 -330 153t-128 399t128 399.5t331 153.5zM532 56q174 0 285.5 134.5t111.5 347.5t-111.5 347.5t-285.5 134.5q-172 0 -280 -133.5t-108 -348.5t108 -348.5
t280 -133.5z" />
    <glyph glyph-name="r" unicode="r" horiz-adv-x="614" 
d="M119 0v1077h73v-213h3q32 110 106.5 168.5t182.5 58.5q55 0 100 -18v-78q-44 22 -112 22q-125 0 -200 -97t-75 -251v-669h-78z" />
    <glyph glyph-name="s" unicode="s" horiz-adv-x="923" 
d="M94 801q0 127 106.5 208.5t263.5 81.5q162 0 265.5 -88.5t116.5 -235.5h-76q-12 115 -93.5 185.5t-213.5 70.5q-122 0 -207.5 -61.5t-85.5 -157.5q0 -78 54.5 -124t171.5 -74l167 -41q161 -39 230.5 -104t69.5 -176q0 -133 -112 -216t-286 -83q-171 0 -284 91t-122 227
h78q11 -108 102.5 -179.5t227.5 -71.5q137 0 228 63t91 164q0 84 -57 134.5t-189 81.5l-173 42q-139 33 -206 96.5t-67 166.5z" />
    <glyph glyph-name="t" unicode="t" horiz-adv-x="551" 
d="M179 1354h77v-277h217v-68h-217v-762q0 -96 37 -138t119 -42q67 0 75 2v-69q-12 -2 -85 -2q-118 0 -170.5 57.5t-52.5 189.5v764h-158v68h158v277z" />
    <glyph glyph-name="u" unicode="u" horiz-adv-x="1074" 
d="M955 1077v-1077h-73v235h-3q-36 -110 -140.5 -179.5t-237.5 -69.5q-175 0 -281.5 106t-106.5 286v699h78v-687q0 -157 88 -245.5t238 -88.5q156 0 258 104t102 273v644h78z" />
    <glyph glyph-name="v" unicode="v" horiz-adv-x="918" 
d="M911 1077l-406 -1077h-92l-406 1077h83l368 -998h2l369 998h82z" />
    <glyph glyph-name="w" unicode="w" horiz-adv-x="1430" 
d="M1422 1077l-314 -1077h-91l-301 976h-2l-301 -976h-91l-314 1077h82l277 -990h3l301 990h88l301 -990h3l277 990h82z" />
    <glyph glyph-name="x" unicode="x" horiz-adv-x="897" 
d="M449 485h-2l-347 -485h-90l395 546l-394 531h92l345 -471h3l344 471h92l-394 -529l392 -548h-90z" />
    <glyph glyph-name="y" unicode="y" horiz-adv-x="919" 
d="M180 -369q-32 0 -54 9v69q24 -8 57 -8q72 0 116 43.5t87 155.5l33 85l-412 1092h83l369 -1001h2l369 1001h82l-423 -1126q-72 -192 -133.5 -256t-175.5 -64z" />
    <glyph glyph-name="z" unicode="z" horiz-adv-x="928" 
d="M66 0v65l704 942v2h-704v68h795v-66l-705 -941v-2h706v-68h-796z" />
    <glyph glyph-name="braceleft" unicode="{" horiz-adv-x="694" 
d="M184 615q87 -8 127.5 -63.5t40.5 -165.5v-395q0 -237 250 -237h65v-67h-50q-180 0 -260 75.5t-80 247.5v336q0 124 -38.5 173.5t-135.5 49.5v113q96 0 135 50t39 175v284q0 168 79 241t261 73h50v-66h-65q-130 0 -190 -57.5t-60 -180.5v-335q0 -110 -40.5 -165.5
t-127.5 -63.5v-22z" />
    <glyph glyph-name="bar" unicode="|" horiz-adv-x="355" 
d="M212 -330h-69v1773h69v-1773z" />
    <glyph glyph-name="braceright" unicode="}" horiz-adv-x="694" 
d="M510 615v22q-87 8 -127.5 63.5t-40.5 165.5v335q0 123 -60.5 180.5t-190.5 57.5h-65v66h51q182 0 261 -73t79 -241v-284q0 -125 39 -175t136 -50v-113q-97 0 -136 -49.5t-39 -173.5v-336q0 -172 -80 -247.5t-260 -75.5h-51v67h65q251 0 251 237v395q0 110 40.5 165.5
t127.5 63.5z" />
    <glyph glyph-name="asciitilde" unicode="~" horiz-adv-x="1192" 
d="M563 668q-68 64 -108 87.5t-81 23.5q-73 0 -117.5 -59.5t-47.5 -160.5h-73q-1 133 64.5 213t174.5 80q56 0 106 -26.5t127 -97.5q65 -60 110.5 -85t88.5 -25q73 0 122.5 64.5t53.5 164.5h74q0 -130 -71 -216.5t-179 -86.5q-64 0 -114.5 25.5t-129.5 98.5z" />
    <glyph glyph-name="nonbreakingspace" unicode="&#xa0;" horiz-adv-x="406" 
 />
    <glyph glyph-name="exclamdown" unicode="&#xa1;" horiz-adv-x="510" 
d="M214 -338l3 1017h76l3 -1017h-82zM255 974q-29 0 -50 21t-21 50q0 30 21 50.5t50 20.5q30 0 50.5 -20.5t20.5 -50.5q0 -29 -20.5 -50t-50.5 -21z" />
    <glyph glyph-name="cent" unicode="&#xa2;" horiz-adv-x="1192" 
d="M1083 478q-21 -142 -141.5 -233t-285.5 -100v-213h-77v213q-209 14 -340 162.5t-131 391.5q0 241 131.5 390t339.5 162v199h77v-198q165 -10 286.5 -104t142.5 -238h-79q-24 124 -133.5 198.5t-255.5 74.5q-187 0 -309 -132t-122 -352q0 -221 121.5 -353.5t309.5 -132.5
q148 0 257 70.5t131 194.5h78z" />
    <glyph glyph-name="sterling" unicode="&#xa3;" horiz-adv-x="1192" 
d="M218 70h913v-70h-1065v71q76 19 137.5 49t111.5 73t78 103t28 132q0 100 -57 254h-264v67h239q-26 68 -40 110.5t-27 106.5t-13 121q0 177 122 282t339 105q102 0 188.5 -17.5t131.5 -41.5v-74q-45 25 -130.5 43t-185.5 18q-184 0 -284.5 -86t-100.5 -230
q0 -56 13.5 -120t27.5 -105t41 -112h469v-67h-444q53 -150 53 -253q0 -73 -25.5 -135t-69 -104t-89 -70t-97.5 -46v-4z" />
    <glyph glyph-name="currency" unicode="&#xa4;" horiz-adv-x="1192" 
d="M282 655q0 -131 92 -223t223 -92q129 0 221.5 93t92.5 222q0 131 -92 223.5t-222 92.5t-222.5 -92.5t-92.5 -223.5zM1055 1064l-166 -166q87 -106 87 -243q0 -136 -88 -242l167 -167l-50 -50l-167 167q-106 -87 -241 -87q-136 0 -241 87l-168 -167l-51 50l168 168
q-87 106 -87 241q0 136 87 242l-168 167l51 50l166 -167q106 88 243 88t241 -87l167 166z" />
    <glyph glyph-name="yen" unicode="&#xa5;" horiz-adv-x="1192" 
d="M976 363h-339v-363h-80v363h-341v66h341v208h-341v65h308l-492 741h93l470 -711h4l469 711h92l-490 -741h306v-65h-339v-208h339v-66z" />
    <glyph glyph-name="brokenbar" unicode="&#xa6;" horiz-adv-x="356" 
d="M213 752h-70v691h70v-691zM213 -330h-70v695h70v-695z" />
    <glyph glyph-name="section" unicode="&#xa7;" horiz-adv-x="953" 
d="M425 354l78 -17q128 2 210 67.5t82 167.5q0 87 -64 141.5t-201 85.5l-78 17q-128 -1 -210.5 -67.5t-82.5 -167.5q0 -86 64.5 -141t201.5 -86zM482 -240q-161 0 -268 74.5t-120 195.5h78q14 -91 100 -146t213 -55t209.5 60t82.5 152q0 81 -61 132.5t-194 82.5l-113 27
q-170 40 -249.5 109t-79.5 178q0 103 70.5 175.5t194.5 95.5v6q-124 37 -183.5 101t-59.5 160q0 125 104 205t265 80q160 0 265.5 -73t119.5 -194h-77q-14 89 -98.5 143.5t-210.5 54.5q-127 0 -208.5 -59.5t-81.5 -152.5q0 -81 60.5 -132.5t192.5 -82.5l113 -27
q170 -40 249 -109t79 -176q0 -106 -74 -180t-200 -97v-6q129 -32 191 -95t62 -162q0 -124 -104.5 -204.5t-266.5 -80.5z" />
    <glyph glyph-name="dieresis" unicode="&#xa8;" horiz-adv-x="758" 
d="M227 1256q-28 0 -48 19.5t-20 47.5q0 27 20 46.5t48 19.5q27 0 47 -19.5t20 -46.5q0 -28 -20 -47.5t-47 -19.5zM531 1256q-27 0 -47 19.5t-20 47.5q0 27 20 46.5t47 19.5q28 0 48 -19.5t20 -46.5q0 -28 -20 -47.5t-48 -19.5z" />
    <glyph glyph-name="copyright" unicode="&#xa9;" horiz-adv-x="1732" 
d="M866 -145q-213 0 -389.5 100.5t-278.5 277.5t-102 393q0 217 102 394t278.5 277t389.5 100q214 0 390.5 -100t278 -277t101.5 -394q0 -216 -101.5 -393t-278 -277.5t-390.5 -100.5zM866 -78q146 0 276 54t223.5 146.5t148 223.5t54.5 280q0 199 -92.5 360.5t-253.5 252.5
t-356 91q-145 0 -275 -53.5t-224 -146t-148.5 -224t-54.5 -280.5q0 -148 55 -279.5t148.5 -224t223.5 -146.5t275 -54zM1218 795h-68q-24 89 -99 145.5t-187 56.5q-143 0 -233.5 -98t-90.5 -267q0 -170 90 -270t234 -100q116 0 190 52.5t94 139.5h69q-22 -115 -115 -184.5
t-237 -69.5q-174 0 -284 117t-110 315q0 196 109.5 311.5t283.5 115.5q141 0 237 -76.5t117 -187.5z" />
    <glyph glyph-name="ordfeminine" unicode="&#xaa;" horiz-adv-x="684" 
d="M302 786q101 0 171 61.5t70 150.5v97l-224 -16q-196 -15 -196 -149q0 -63 50.5 -103.5t128.5 -40.5zM288 727q-104 0 -169 56t-65 146q0 91 65 142.5t191 60.5l233 16v61q0 87 -50.5 135t-141.5 48q-84 0 -137.5 -40.5t-66.5 -114.5h-65q8 98 82 157t188 59
q119 0 189 -64.5t70 -173.5v-479h-67v146h-1q-27 -69 -97.5 -112t-157.5 -43z" />
    <glyph glyph-name="guillemotleft" unicode="&#xab;" horiz-adv-x="1185" 
d="M666 571v-8l366 -408h-95l-370 410v5l370 409h95zM252 571v-8l366 -408h-95l-370 410v5l370 409h95z" />
    <glyph glyph-name="logicalnot" unicode="&#xac;" horiz-adv-x="1192" 
d="M1076 707v-537h-70v468h-890v69h960z" />
    <glyph glyph-name="registered" unicode="&#xae;" horiz-adv-x="1095" 
d="M548 651q-178 0 -302.5 123.5t-124.5 300.5q0 178 124 301t303 123t302.5 -123t123.5 -301q0 -177 -124 -300.5t-302 -123.5zM548 708q154 0 260.5 106.5t106.5 260.5q0 155 -106.5 261.5t-260.5 106.5t-261 -106.5t-107 -261.5q0 -154 107 -260.5t261 -106.5zM439 864
h-51v449h177q66 0 106.5 -38t40.5 -99q0 -106 -106 -131l128 -181h-61l-123 176h-111v-176zM439 1266v-183h112q106 0 106 93q0 42 -28 66t-78 24h-112z" />
    <glyph glyph-name="macron" unicode="&#xaf;" horiz-adv-x="856" 
d="M726 1366v-58h-596v58h596z" />
    <glyph glyph-name="degree" unicode="&#xb0;" horiz-adv-x="724" 
d="M361 841q-110 0 -188 78.5t-78 188.5t78 188.5t188 78.5q111 0 189.5 -78.5t78.5 -188.5t-79 -188.5t-189 -78.5zM361 905q85 0 145 60t60 143q0 84 -60 144t-145 60q-83 0 -143 -60t-60 -144t60 -143.5t143 -59.5z" />
    <glyph glyph-name="plusminus" unicode="&#xb1;" horiz-adv-x="1192" 
d="M1086 113h-980v69h980v-69zM631 682v-350h-70v350h-455v66h455v332h70v-332h455v-66h-455z" />
    <glyph glyph-name="two.sups" unicode="&#xb2;" horiz-adv-x="565" 
d="M63 1591q1 87 62.5 143t156.5 56q93 0 153.5 -52.5t60.5 -133.5q0 -51 -29.5 -100t-106.5 -128l-193 -202v-2h348v-61h-449v52l245 251q65 69 88.5 107.5t23.5 78.5q0 56 -40.5 92.5t-103.5 36.5q-62 0 -103.5 -39t-42.5 -99v-2h-70v2z" />
    <glyph glyph-name="three.sups" unicode="&#xb3;" horiz-adv-x="572" 
d="M198 1427v57h78q65 0 106 35t41 90q0 51 -41 86t-103 35q-61 0 -102 -34.5t-45 -88.5h-69q4 81 64.5 132t154.5 51q92 0 152 -49t60 -124q0 -61 -37.5 -103.5t-102.5 -53.5v-3q78 -5 123 -49.5t45 -113.5q0 -85 -67.5 -140t-172.5 -55q-102 0 -166.5 53t-66.5 136h71
q2 -55 47 -91t115 -36q72 0 118.5 38.5t46.5 96.5q0 61 -45 96t-125 35h-79z" />
    <glyph glyph-name="acute" unicode="&#xb4;" horiz-adv-x="758" 
d="M279 1253h-74l230 303h93z" />
    <glyph glyph-name="paragraph" unicode="&#xb6;" horiz-adv-x="1165" 
d="M742 -162h-79v737h-20q-208 0 -341 122.5t-133 308.5q0 196 130.5 316.5t344.5 120.5h98v-1605zM917 -162v1605h79v-1605h-79z" />
    <glyph glyph-name="periodcentered" unicode="&#xb7;" horiz-adv-x="496" 
d="M248 528q-29 0 -49.5 20.5t-20.5 49.5t20.5 49.5t49.5 20.5t49.5 -20.5t20.5 -49.5t-20.5 -49.5t-49.5 -20.5z" />
    <glyph glyph-name="cedilla" unicode="&#xb8;" horiz-adv-x="758" 
d="M266 -193v43l67 157l60 -7l-58 -141q96 0 151.5 -41t55.5 -111q0 -75 -60.5 -122.5t-156.5 -47.5q-72 -2 -128 16v56q43 -17 122 -17q68 0 113.5 32t45.5 81q0 50 -41 76t-119 26h-52z" />
    <glyph glyph-name="one.sups" unicode="&#xb9;" horiz-adv-x="434" 
d="M237 1111v598h-3l-178 -118v70l178 118h74v-668h-71z" />
    <glyph glyph-name="ordmasculine" unicode="&#xba;" horiz-adv-x="722" 
d="M361 727q-145 0 -232 98.5t-87 264.5t87 264.5t232 98.5t232 -98.5t87 -264.5t-87 -264.5t-232 -98.5zM361 787q114 0 181.5 81.5t67.5 221.5t-67.5 221t-181.5 81t-181.5 -81t-67.5 -221t67.5 -221.5t181.5 -81.5z" />
    <glyph glyph-name="guillemotright" unicode="&#xbb;" horiz-adv-x="1185" 
d="M518 571l-365 408h95l370 -409v-5l-370 -410h-95l365 408v8zM932 571l-365 408h94l371 -409v-5l-371 -410h-94l365 408v8z" />
    <glyph glyph-name="onequarter" unicode="&#xbc;" horiz-adv-x="1394" 
d="M1185 0v150h-339v65q115 184 306 453h105v-457h99v-61h-99v-150h-72zM916 211v-1h271v399h-2q-158 -220 -269 -398zM240 775v598h-3l-178 -118v70l178 118h74v-668h-71zM174 1h-85l1075 1443h85z" />
    <glyph glyph-name="onehalf" unicode="&#xbd;" horiz-adv-x="1409" 
d="M912 480q1 87 62.5 143t156.5 56q93 0 153.5 -52.5t60.5 -133.5q0 -51 -29.5 -100t-106.5 -128l-193 -202v-2h348v-61h-449v52l245 251q65 69 88.5 107.5t23.5 78.5q0 56 -40.5 92.5t-103.5 36.5q-62 0 -103.5 -39t-42.5 -99v-2h-70v2zM240 775v598h-3l-178 -118v70
l178 118h74v-668h-71zM174 1h-85l1075 1443h85z" />
    <glyph glyph-name="threequarters" unicode="&#xbe;" horiz-adv-x="1460" 
d="M191 1091v57h78q65 0 106 35t41 90q0 51 -41 86t-103 35q-61 0 -102 -34.5t-45 -88.5h-69q4 81 64.5 132t154.5 51q92 0 152 -49t60 -124q0 -61 -37.5 -103.5t-102.5 -53.5v-3q78 -5 123 -49.5t45 -113.5q0 -85 -67.5 -140t-172.5 -55q-102 0 -166.5 53t-66.5 136h71
q2 -55 47 -91t115 -36q72 0 118.5 38.5t46.5 96.5q0 61 -45 96t-125 35h-79zM1252 0v150h-339v65q115 184 306 453h105v-457h99v-61h-99v-150h-72zM983 211v-1h271v399h-2q-158 -220 -269 -398zM270 1h-85l1075 1443h85z" />
    <glyph glyph-name="questiondown" unicode="&#xbf;" horiz-adv-x="931" 
d="M871 2q-9 -158 -119 -261.5t-278 -103.5q-169 0 -280 101.5t-111 253.5q0 101 50.5 179.5t162.5 156.5q102 71 138 127t36 144v90h78v-98q0 -98 -42 -164.5t-151 -145.5q-103 -74 -147 -139.5t-44 -146.5q0 -125 89 -206t223 -81q130 0 218.5 80.5t100.5 213.5h76z
M501 974q-29 0 -49.5 21t-20.5 50q0 30 20.5 50.5t49.5 20.5q30 0 50.5 -20.5t20.5 -50.5q0 -29 -20.5 -50t-50.5 -21z" />
    <glyph glyph-name="Agrave" unicode="&#xc0;" horiz-adv-x="1221" 
d="M1115 0l-180 481h-649l-179 -481h-86l550 1443h80l549 -1443h-85zM608 1340l-296 -788h598l-297 788h-5zM580 1553l-297 290h95l280 -290h-78z" />
    <glyph glyph-name="Aacute" unicode="&#xc1;" horiz-adv-x="1221" 
d="M1115 0l-180 481h-649l-179 -481h-86l550 1443h80l549 -1443h-85zM608 1340l-296 -788h598l-297 788h-5zM643 1553h-78l279 290h96z" />
    <glyph glyph-name="Acircumflex" unicode="&#xc2;" horiz-adv-x="1221" 
d="M1115 0l-180 481h-649l-179 -481h-86l550 1443h80l549 -1443h-85zM608 1340l-296 -788h598l-297 788h-5zM577 1843h68l271 -290h-83l-221 238h-2l-221 -238h-83z" />
    <glyph glyph-name="Atilde" unicode="&#xc3;" horiz-adv-x="1221" 
d="M1115 0l-180 481h-649l-179 -481h-86l550 1443h80l549 -1443h-85zM608 1340l-296 -788h598l-297 788h-5zM746 1549q-36 0 -67.5 17t-55 41l-45.5 48t-47.5 41t-52.5 17q-91 0 -91 -153h-60q0 98 38.5 155t111.5 57q36 0 68.5 -17t56 -41l45.5 -48t47.5 -41t51.5 -17
q89 0 89 154h61q0 -97 -39 -155t-111 -58z" />
    <glyph glyph-name="Adieresis" unicode="&#xc4;" horiz-adv-x="1221" 
d="M1115 0l-180 481h-649l-179 -481h-86l550 1443h80l549 -1443h-85zM608 1340l-296 -788h598l-297 788h-5zM459 1563q-28 0 -48 19.5t-20 47.5q0 27 20 46.5t48 19.5q27 0 47 -19.5t20 -46.5q0 -28 -20 -47.5t-47 -19.5zM763 1563q-27 0 -47 19.5t-20 47.5q0 27 20 46.5
t47 19.5q28 0 48 -19.5t20 -46.5q0 -28 -20 -47.5t-48 -19.5z" />
    <glyph glyph-name="Aring" unicode="&#xc5;" horiz-adv-x="1221" 
d="M1115 0l-180 481h-649l-179 -481h-86l550 1443h80l549 -1443h-85zM608 1340l-296 -788h598l-297 788h-5zM611 1506q-71 0 -121.5 51t-50.5 122t50.5 122t121.5 51t121.5 -51t50.5 -122t-50.5 -122t-121.5 -51zM611 1555q52 0 88 36t36 88t-36 88.5t-88 36.5t-88 -36.5
t-36 -88.5t36 -88t88 -36z" />
    <glyph glyph-name="AE" unicode="&#xc6;" horiz-adv-x="1900" 
d="M815 1373l-441 -881h625v881h-184zM999 0v422h-659l-210 -422h-84l722 1443h1021v-73h-712v-597h676v-72h-676v-628h712v-73h-790z" />
    <glyph glyph-name="Ccedilla" unicode="&#xc7;" horiz-adv-x="1326" 
d="M1269 981h-79q-23 174 -162.5 291.5t-325.5 117.5q-254 0 -404 -178t-150 -482q0 -310 150.5 -493.5t403.5 -183.5q192 0 328.5 105.5t159.5 277.5h79q-24 -199 -172.5 -324t-368.5 -133l-50 -120q96 0 151.5 -41t55.5 -111q0 -75 -60.5 -122.5t-156.5 -47.5
q-72 -2 -128 16v56q43 -17 122 -17q68 0 113.5 32t45.5 81q0 50 -41 76t-119 26h-52v43l55 130q-274 14 -435.5 216t-161.5 534q0 337 172 535.5t463 198.5q220 0 382 -138.5t185 -344.5z" />
    <glyph glyph-name="Egrave" unicode="&#xc8;" horiz-adv-x="1068" 
d="M517 1553l-297 290h95l280 -290h-78zM969 73v-73h-841v1443h841v-73h-762v-594h726v-72h-726v-631h762z" />
    <glyph glyph-name="Eacute" unicode="&#xc9;" horiz-adv-x="1068" 
d="M580 1553h-78l279 290h96zM969 73v-73h-841v1443h841v-73h-762v-594h726v-72h-726v-631h762z" />
    <glyph glyph-name="Ecircumflex" unicode="&#xca;" horiz-adv-x="1068" 
d="M514 1843h68l271 -290h-83l-221 238h-2l-221 -238h-83zM969 73v-73h-841v1443h841v-73h-762v-594h726v-72h-726v-631h762z" />
    <glyph glyph-name="Edieresis" unicode="&#xcb;" horiz-adv-x="1068" 
d="M396 1563q-28 0 -48 19.5t-20 47.5q0 27 20 46.5t48 19.5q27 0 47 -19.5t20 -46.5q0 -28 -20 -47.5t-47 -19.5zM700 1563q-27 0 -47 19.5t-20 47.5q0 27 20 46.5t47 19.5q28 0 48 -19.5t20 -46.5q0 -28 -20 -47.5t-48 -19.5zM969 73v-73h-841v1443h841v-73h-762v-594h726
v-72h-726v-631h762z" />
    <glyph glyph-name="Igrave" unicode="&#xcc;" horiz-adv-x="335" 
d="M207 0h-79v1443h79v-1443zM136 1553l-297 290h95l280 -290h-78z" />
    <glyph glyph-name="Iacute" unicode="&#xcd;" horiz-adv-x="335" 
d="M207 0h-79v1443h79v-1443zM199 1553h-78l279 290h96z" />
    <glyph glyph-name="Icircumflex" unicode="&#xce;" horiz-adv-x="335" 
d="M207 0h-79v1443h79v-1443zM133 1843h68l271 -290h-83l-221 238h-2l-221 -238h-83z" />
    <glyph glyph-name="Idieresis" unicode="&#xcf;" horiz-adv-x="335" 
d="M207 0h-79v1443h79v-1443zM15 1563q-28 0 -48 19.5t-20 47.5q0 27 20 46.5t48 19.5q27 0 47 -19.5t20 -46.5q0 -28 -20 -47.5t-47 -19.5zM319 1563q-27 0 -47 19.5t-20 47.5q0 27 20 46.5t47 19.5q28 0 48 -19.5t20 -46.5q0 -28 -20 -47.5t-48 -19.5z" />
    <glyph glyph-name="Eth" unicode="&#xd0;" horiz-adv-x="1350" 
d="M226 73h365q295 0 453.5 168.5t158.5 479.5q0 313 -159 481t-453 168h-365v-592h358v-73h-358v-632zM146 1443h449q328 0 508 -189t180 -532q0 -344 -180 -533t-508 -189h-449v705h-123v73h123v665z" />
    <glyph glyph-name="Ntilde" unicode="&#xd1;" horiz-adv-x="1341" 
d="M806 1549q-36 0 -67.5 17t-55 41l-45.5 48t-47.5 41t-52.5 17q-91 0 -91 -153h-60q0 98 38.5 155t111.5 57q36 0 68.5 -17t56 -41l45.5 -48t47.5 -41t51.5 -17q89 0 89 154h61q0 -97 -39 -155t-111 -58zM206 0h-78v1443h82l919 -1299h6v1299h79v-1443h-75l-927 1307h-6
v-1307z" />
    <glyph glyph-name="Ograve" unicode="&#xd2;" horiz-adv-x="1420" 
d="M679 1553l-297 290h95l280 -290h-78zM710 1464q295 0 469 -201t174 -541q0 -342 -173.5 -542.5t-469.5 -200.5t-469.5 200.5t-173.5 542.5q0 340 174 541t469 201zM710 1390q-258 0 -410 -181t-152 -487q0 -307 152.5 -488t409.5 -181t409.5 181t152.5 488
q0 306 -152.5 487t-409.5 181z" />
    <glyph glyph-name="Oacute" unicode="&#xd3;" horiz-adv-x="1420" 
d="M742 1553h-78l279 290h96zM710 1464q295 0 469 -201t174 -541q0 -342 -173.5 -542.5t-469.5 -200.5t-469.5 200.5t-173.5 542.5q0 340 174 541t469 201zM710 1390q-258 0 -410 -181t-152 -487q0 -307 152.5 -488t409.5 -181t409.5 181t152.5 488q0 306 -152.5 487
t-409.5 181z" />
    <glyph glyph-name="Ocircumflex" unicode="&#xd4;" horiz-adv-x="1420" 
d="M676 1843h68l271 -290h-83l-221 238h-2l-221 -238h-83zM710 1464q295 0 469 -201t174 -541q0 -342 -173.5 -542.5t-469.5 -200.5t-469.5 200.5t-173.5 542.5q0 340 174 541t469 201zM710 1390q-258 0 -410 -181t-152 -487q0 -307 152.5 -488t409.5 -181t409.5 181
t152.5 488q0 306 -152.5 487t-409.5 181z" />
    <glyph glyph-name="Otilde" unicode="&#xd5;" horiz-adv-x="1420" 
d="M710 1464q295 0 469 -201t174 -541q0 -342 -173.5 -542.5t-469.5 -200.5t-469.5 200.5t-173.5 542.5q0 340 174 541t469 201zM710 1390q-258 0 -410 -181t-152 -487q0 -307 152.5 -488t409.5 -181t409.5 181t152.5 488q0 306 -152.5 487t-409.5 181zM845 1549
q-36 0 -67.5 17t-55 41l-45.5 48t-47.5 41t-52.5 17q-91 0 -91 -153h-60q0 98 38.5 155t111.5 57q36 0 68.5 -17t56 -41l45.5 -48t47.5 -41t51.5 -17q89 0 89 154h61q0 -97 -39 -155t-111 -58z" />
    <glyph glyph-name="Odieresis" unicode="&#xd6;" horiz-adv-x="1420" 
d="M558 1563q-28 0 -48 19.5t-20 47.5q0 27 20 46.5t48 19.5q27 0 47 -19.5t20 -46.5q0 -28 -20 -47.5t-47 -19.5zM862 1563q-27 0 -47 19.5t-20 47.5q0 27 20 46.5t47 19.5q28 0 48 -19.5t20 -46.5q0 -28 -20 -47.5t-48 -19.5zM710 1464q295 0 469 -201t174 -541
q0 -342 -173.5 -542.5t-469.5 -200.5t-469.5 200.5t-173.5 542.5q0 340 174 541t469 201zM710 1390q-258 0 -410 -181t-152 -487q0 -307 152.5 -488t409.5 -181t409.5 181t152.5 488q0 306 -152.5 487t-409.5 181z" />
    <glyph glyph-name="multiply" unicode="&#xd7;" horiz-adv-x="1192" 
d="M597 530l-322 -322l-50 49l322 322l-322 323l50 50l321 -323l322 321l50 -48l-321 -323l321 -321l-50 -50z" />
    <glyph glyph-name="Oslash" unicode="&#xd8;" horiz-adv-x="1420" 
d="M1136 1189l-784 -1008q143 -128 358 -128q257 0 409.5 181t152.5 488q0 287 -136 467zM308 226l787 1010q-149 154 -385 154q-258 0 -410 -181t-152 -487q0 -316 160 -496zM1338 1449l-151 -195q166 -200 166 -532q0 -342 -173.5 -542.5t-469.5 -200.5q-243 0 -407 139
l-157 -202l-51 37l162 208q-190 201 -190 561q0 340 174 541t469 201q265 0 434 -164l144 184z" />
    <glyph glyph-name="Ugrave" unicode="&#xd9;" horiz-adv-x="1332" 
d="M635 1553l-297 290h95l280 -290h-78zM207 1443v-939q0 -207 124 -329t336 -122t336 122t124 329v939h79v-942q0 -237 -145.5 -379.5t-393.5 -142.5t-393.5 142.5t-145.5 379.5v942h79z" />
    <glyph glyph-name="Uacute" unicode="&#xda;" horiz-adv-x="1332" 
d="M698 1553h-78l279 290h96zM207 1443v-939q0 -207 124 -329t336 -122t336 122t124 329v939h79v-942q0 -237 -145.5 -379.5t-393.5 -142.5t-393.5 142.5t-145.5 379.5v942h79z" />
    <glyph glyph-name="Ucircumflex" unicode="&#xdb;" horiz-adv-x="1332" 
d="M632 1843h68l271 -290h-83l-221 238h-2l-221 -238h-83zM207 1443v-939q0 -207 124 -329t336 -122t336 122t124 329v939h79v-942q0 -237 -145.5 -379.5t-393.5 -142.5t-393.5 142.5t-145.5 379.5v942h79z" />
    <glyph glyph-name="Udieresis" unicode="&#xdc;" horiz-adv-x="1332" 
d="M514 1563q-28 0 -48 19.5t-20 47.5q0 27 20 46.5t48 19.5q27 0 47 -19.5t20 -46.5q0 -28 -20 -47.5t-47 -19.5zM818 1563q-27 0 -47 19.5t-20 47.5q0 27 20 46.5t47 19.5q28 0 48 -19.5t20 -46.5q0 -28 -20 -47.5t-48 -19.5zM207 1443v-939q0 -207 124 -329t336 -122
t336 122t124 329v939h79v-942q0 -237 -145.5 -379.5t-393.5 -142.5t-393.5 142.5t-145.5 379.5v942h79z" />
    <glyph glyph-name="Yacute" unicode="&#xdd;" horiz-adv-x="1172" 
d="M626 0h-79v629l-525 814h93l469 -733h5l469 733h92l-524 -814v-629zM618 1553h-78l279 290h96z" />
    <glyph glyph-name="Thorn" unicode="&#xde;" horiz-adv-x="1209" 
d="M163 1443h80v-285h404q197 0 318.5 -108.5t121.5 -295.5t-120.5 -294.5t-320.5 -107.5h-403v-352h-80v1443zM243 1085v-661h390q175 0 275 88t100 242q0 153 -100.5 242t-274.5 89h-390z" />
    <glyph glyph-name="germandbls" unicode="&#xdf;" horiz-adv-x="1090" 
d="M210 0h-76v1072q0 178 100.5 277.5t279.5 99.5q171 0 277 -94.5t106 -246.5q0 -126 -74 -221t-185 -122v-3q167 -16 272.5 -117t105.5 -253q0 -178 -126.5 -294t-320.5 -116q-90 0 -170 16v72q70 -18 167 -18q159 0 266 96.5t107 243.5q0 145 -116 235.5t-303 90.5h-99
v75h96q127 0 215 91t88 221q0 122 -84.5 198t-220.5 76q-143 0 -224 -83t-81 -229v-1067z" />
    <glyph glyph-name="agrave" unicode="&#xe0;" horiz-adv-x="1030" 
d="M453 55q161 0 274 100.5t113 243.5v161l-359 -27q-155 -11 -236 -73t-81 -170q0 -103 81.5 -169t207.5 -66zM443 -14q-158 0 -257.5 84.5t-99.5 219.5q0 138 97.5 216t287.5 92l369 27v96q0 141 -81.5 220t-226.5 79q-137 0 -224 -67t-106 -189h-75q14 149 125 238
t281 89q177 0 280.5 -98t103.5 -267v-726h-75v232h-2q-40 -110 -150 -178t-247 -68zM583 1253h-74l-249 303h93z" />
    <glyph glyph-name="aacute" unicode="&#xe1;" horiz-adv-x="1030" 
d="M453 55q161 0 274 100.5t113 243.5v161l-359 -27q-155 -11 -236 -73t-81 -170q0 -103 81.5 -169t207.5 -66zM443 -14q-158 0 -257.5 84.5t-99.5 219.5q0 138 97.5 216t287.5 92l369 27v96q0 141 -81.5 220t-226.5 79q-137 0 -224 -67t-106 -189h-75q14 149 125 238
t281 89q177 0 280.5 -98t103.5 -267v-726h-75v232h-2q-40 -110 -150 -178t-247 -68zM552 1253h-74l230 303h93z" />
    <glyph glyph-name="acircumflex" unicode="&#xe2;" horiz-adv-x="1030" 
d="M453 55q161 0 274 100.5t113 243.5v161l-359 -27q-155 -11 -236 -73t-81 -170q0 -103 81.5 -169t207.5 -66zM443 -14q-158 0 -257.5 84.5t-99.5 219.5q0 138 97.5 216t287.5 92l369 27v96q0 141 -81.5 220t-226.5 79q-137 0 -224 -67t-106 -189h-75q14 149 125 238
t281 89q177 0 280.5 -98t103.5 -267v-726h-75v232h-2q-40 -110 -150 -178t-247 -68zM563 1556l268 -303h-80l-217 249h-3l-217 -249h-81l268 303h62z" />
    <glyph glyph-name="atilde" unicode="&#xe3;" horiz-adv-x="1030" 
d="M453 55q161 0 274 100.5t113 243.5v161l-359 -27q-155 -11 -236 -73t-81 -170q0 -103 81.5 -169t207.5 -66zM443 -14q-158 0 -257.5 84.5t-99.5 219.5q0 138 97.5 216t287.5 92l369 27v96q0 141 -81.5 220t-226.5 79q-137 0 -224 -67t-106 -189h-75q14 149 125 238
t281 89q177 0 280.5 -98t103.5 -267v-726h-75v232h-2q-40 -110 -150 -178t-247 -68zM667 1255q-36 0 -67.5 17t-55 41l-45.5 48t-47.5 41t-52.5 17q-91 0 -91 -153h-60q0 98 38.5 155t111.5 57q36 0 68.5 -17t56 -41l45.5 -48t47.5 -41t51.5 -17q89 0 89 154h61
q0 -97 -39 -155t-111 -58z" />
    <glyph glyph-name="adieresis" unicode="&#xe4;" horiz-adv-x="1030" 
d="M453 55q161 0 274 100.5t113 243.5v161l-359 -27q-155 -11 -236 -73t-81 -170q0 -103 81.5 -169t207.5 -66zM443 -14q-158 0 -257.5 84.5t-99.5 219.5q0 138 97.5 216t287.5 92l369 27v96q0 141 -81.5 220t-226.5 79q-137 0 -224 -67t-106 -189h-75q14 149 125 238
t281 89q177 0 280.5 -98t103.5 -267v-726h-75v232h-2q-40 -110 -150 -178t-247 -68zM380 1256q-28 0 -48 19.5t-20 47.5q0 27 20 46.5t48 19.5q27 0 47 -19.5t20 -46.5q0 -28 -20 -47.5t-47 -19.5zM684 1256q-27 0 -47 19.5t-20 47.5q0 27 20 46.5t47 19.5q28 0 48 -19.5
t20 -46.5q0 -28 -20 -47.5t-48 -19.5z" />
    <glyph glyph-name="aring" unicode="&#xe5;" horiz-adv-x="1030" 
d="M453 55q161 0 274 100.5t113 243.5v161l-359 -27q-155 -11 -236 -73t-81 -170q0 -103 81.5 -169t207.5 -66zM443 -14q-158 0 -257.5 84.5t-99.5 219.5q0 138 97.5 216t287.5 92l369 27v96q0 141 -81.5 220t-226.5 79q-137 0 -224 -67t-106 -189h-75q14 149 125 238
t281 89q177 0 280.5 -98t103.5 -267v-726h-75v232h-2q-40 -110 -150 -178t-247 -68zM532 1234q-71 0 -121.5 51t-50.5 122t50.5 122t121.5 51t121.5 -51t50.5 -122t-50.5 -122t-121.5 -51zM532 1282q52 0 88 36.5t36 88.5t-36 88.5t-88 36.5t-88 -36.5t-36 -88.5t36 -88.5
t88 -36.5z" />
    <glyph glyph-name="ae" unicode="&#xe6;" horiz-adv-x="1830" 
d="M1318 -14q-155 0 -266 78t-160 225h-6q-44 -141 -160.5 -222t-272.5 -81q-165 0 -266 83t-101 217q0 132 97 207t284 86l373 24v127q0 136 -84 213t-229 77q-138 0 -226 -68t-104 -188h-76q15 148 125.5 237.5t279.5 89.5q153 0 254.5 -76.5t115.5 -210.5h6
q47 130 155 208.5t259 78.5q206 0 327.5 -139.5t121.5 -373.5v-46h-848v-9q0 -212 109.5 -339.5t292.5 -127.5q140 0 233 67.5t118 177.5h79q-28 -140 -144 -227.5t-287 -87.5zM1312 1021q-170 0 -277.5 -116.5t-116.5 -306.5h768q-1 191 -103 307t-271 116zM454 55
q161 0 273.5 101.5t112.5 246.5v134l-362 -23q-154 -10 -234 -68t-80 -159q0 -102 80.5 -167t209.5 -65z" />
    <glyph glyph-name="ccedilla" unicode="&#xe7;" horiz-adv-x="1028" 
d="M969 753h-77q-24 118 -119.5 192.5t-233.5 74.5q-181 0 -288.5 -130.5t-107.5 -351.5t107.5 -351.5t289.5 -130.5q137 0 232 71t119 188h78q-24 -141 -132.5 -231t-267.5 -97l-53 -128q96 0 151.5 -41t55.5 -111q0 -75 -60.5 -122.5t-156.5 -47.5q-72 -2 -128 16v56
q43 -17 122 -17q68 0 113.5 32t45.5 81q0 50 -41 76t-119 26h-52v43l58 137q-202 12 -321 160t-119 391q0 253 129 403t345 150q170 0 287.5 -96t142.5 -242z" />
    <glyph glyph-name="egrave" unicode="&#xe8;" horiz-adv-x="1062" 
d="M588 1253h-74l-249 303h93zM536 1021q-168 0 -275 -118t-116 -311h773q-1 191 -106.5 310t-275.5 119zM905 301h79q-27 -139 -145.5 -227t-293.5 -88q-221 0 -350.5 146.5t-129.5 404.5q0 250 129.5 402t342.5 152q208 0 334 -142.5t126 -377.5v-45h-853v-4
q0 -218 109 -342t293 -124q144 0 239.5 68t119.5 177z" />
    <glyph glyph-name="eacute" unicode="&#xe9;" horiz-adv-x="1062" 
d="M557 1253h-74l230 303h93zM536 1021q-168 0 -275 -118t-116 -311h773q-1 191 -106.5 310t-275.5 119zM905 301h79q-27 -139 -145.5 -227t-293.5 -88q-221 0 -350.5 146.5t-129.5 404.5q0 250 129.5 402t342.5 152q208 0 334 -142.5t126 -377.5v-45h-853v-4
q0 -218 109 -342t293 -124q144 0 239.5 68t119.5 177z" />
    <glyph glyph-name="ecircumflex" unicode="&#xea;" horiz-adv-x="1062" 
d="M568 1556l268 -303h-80l-217 249h-3l-217 -249h-81l268 303h62zM536 1021q-168 0 -275 -118t-116 -311h773q-1 191 -106.5 310t-275.5 119zM905 301h79q-27 -139 -145.5 -227t-293.5 -88q-221 0 -350.5 146.5t-129.5 404.5q0 250 129.5 402t342.5 152q208 0 334 -142.5
t126 -377.5v-45h-853v-4q0 -218 109 -342t293 -124q144 0 239.5 68t119.5 177z" />
    <glyph glyph-name="edieresis" unicode="&#xeb;" horiz-adv-x="1062" 
d="M536 1021q-168 0 -275 -118t-116 -311h773q-1 191 -106.5 310t-275.5 119zM905 301h79q-27 -139 -145.5 -227t-293.5 -88q-221 0 -350.5 146.5t-129.5 404.5q0 250 129.5 402t342.5 152q208 0 334 -142.5t126 -377.5v-45h-853v-4q0 -218 109 -342t293 -124
q144 0 239.5 68t119.5 177zM385 1256q-28 0 -48 19.5t-20 47.5q0 27 20 46.5t48 19.5q27 0 47 -19.5t20 -46.5q0 -28 -20 -47.5t-47 -19.5zM689 1256q-27 0 -47 19.5t-20 47.5q0 27 20 46.5t47 19.5q28 0 48 -19.5t20 -46.5q0 -28 -20 -47.5t-48 -19.5z" />
    <glyph glyph-name="igrave" unicode="&#xec;" horiz-adv-x="336" 
d="M219 1253h-74l-249 303h93zM129 0v1077h78v-1077h-78z" />
    <glyph glyph-name="iacute" unicode="&#xed;" horiz-adv-x="336" 
d="M188 1253h-74l230 303h93zM129 0v1077h78v-1077h-78z" />
    <glyph glyph-name="icircumflex" unicode="&#xee;" horiz-adv-x="336" 
d="M199 1556l268 -303h-80l-217 249h-3l-217 -249h-81l268 303h62zM129 0v1077h78v-1077h-78z" />
    <glyph glyph-name="idieresis" unicode="&#xef;" horiz-adv-x="336" 
d="M129 0v1077h78v-1077h-78zM16 1256q-28 0 -48 19.5t-20 47.5q0 27 20 46.5t48 19.5q27 0 47 -19.5t20 -46.5q0 -28 -20 -47.5t-47 -19.5zM320 1256q-27 0 -47 19.5t-20 47.5q0 27 20 46.5t47 19.5q28 0 48 -19.5t20 -46.5q0 -28 -20 -47.5t-48 -19.5z" />
    <glyph glyph-name="eth" unicode="&#xf0;" horiz-adv-x="1120" 
d="M547 -17q-213 0 -345 151.5t-132 397.5q0 229 130.5 375t335.5 146q123 0 222.5 -60t151.5 -166h8q-59 275 -224 448l-290 -117l-20 55l267 109q-73 72 -233 167h108q120 -69 193 -142l267 107l20 -55l-243 -98q248 -283 248 -742q0 -264 -125.5 -420t-338.5 -156z
M542 983q-172 0 -282.5 -126.5t-110.5 -323.5q0 -213 110.5 -346t287.5 -133q173 0 281 130.5t108 339.5t-107 334t-287 125z" />
    <glyph glyph-name="ntilde" unicode="&#xf1;" horiz-adv-x="1074" 
d="M678 1255q-36 0 -67.5 17t-55 41l-45.5 48t-47.5 41t-52.5 17q-91 0 -91 -153h-60q0 98 38.5 155t111.5 57q36 0 68.5 -17t56 -41l45.5 -48t47.5 -41t51.5 -17q89 0 89 154h61q0 -97 -39 -155t-111 -58zM119 0v1077h73v-237h3q38 115 137 183t235 68q178 0 286 -107.5
t108 -288.5v-695h-78v686q0 155 -90.5 244.5t-242.5 89.5q-158 0 -255.5 -105.5t-97.5 -273.5v-641h-78z" />
    <glyph glyph-name="ograve" unicode="&#xf2;" horiz-adv-x="1089" 
d="M595 1252h-74l-249 303h93zM544 -14q-216 0 -347.5 150t-131.5 402q0 253 131.5 403t347.5 150q217 0 348.5 -150t131.5 -403q0 -252 -132 -402t-348 -150zM544 56q182 0 291.5 130.5t109.5 351.5q0 222 -109 352t-292 130t-292 -130t-109 -352t109.5 -352t291.5 -130z
" />
    <glyph glyph-name="oacute" unicode="&#xf3;" horiz-adv-x="1089" 
d="M564 1252h-74l230 303h93zM544 -14q-216 0 -347.5 150t-131.5 402q0 253 131.5 403t347.5 150q217 0 348.5 -150t131.5 -403q0 -252 -132 -402t-348 -150zM544 56q182 0 291.5 130.5t109.5 351.5q0 222 -109 352t-292 130t-292 -130t-109 -352t109.5 -352t291.5 -130z
" />
    <glyph glyph-name="ocircumflex" unicode="&#xf4;" horiz-adv-x="1089" 
d="M575 1555l268 -303h-80l-217 249h-3l-217 -249h-81l268 303h62zM544 -14q-216 0 -347.5 150t-131.5 402q0 253 131.5 403t347.5 150q217 0 348.5 -150t131.5 -403q0 -252 -132 -402t-348 -150zM544 56q182 0 291.5 130.5t109.5 351.5q0 222 -109 352t-292 130t-292 -130
t-109 -352t109.5 -352t291.5 -130z" />
    <glyph glyph-name="otilde" unicode="&#xf5;" horiz-adv-x="1089" 
d="M679 1254q-36 0 -67.5 17t-55 41l-45.5 48t-47.5 41t-52.5 17q-91 0 -91 -153h-60q0 98 38.5 155t111.5 57q36 0 68.5 -17t56 -41l45.5 -48t47.5 -41t51.5 -17q89 0 89 154h61q0 -97 -39 -155t-111 -58zM544 -14q-216 0 -347.5 150t-131.5 402q0 253 131.5 403t347.5 150
q217 0 348.5 -150t131.5 -403q0 -252 -132 -402t-348 -150zM544 56q182 0 291.5 130.5t109.5 351.5q0 222 -109 352t-292 130t-292 -130t-109 -352t109.5 -352t291.5 -130z" />
    <glyph glyph-name="odieresis" unicode="&#xf6;" horiz-adv-x="1089" 
d="M392 1255q-28 0 -48 19.5t-20 47.5q0 27 20 46.5t48 19.5q27 0 47 -19.5t20 -46.5q0 -28 -20 -47.5t-47 -19.5zM696 1255q-27 0 -47 19.5t-20 47.5q0 27 20 46.5t47 19.5q28 0 48 -19.5t20 -46.5q0 -28 -20 -47.5t-48 -19.5zM544 -14q-216 0 -347.5 150t-131.5 402
q0 253 131.5 403t347.5 150q217 0 348.5 -150t131.5 -403q0 -252 -132 -402t-348 -150zM544 56q182 0 291.5 130.5t109.5 351.5q0 222 -109 352t-292 130t-292 -130t-109 -352t109.5 -352t291.5 -130z" />
    <glyph glyph-name="divide" unicode="&#xf7;" horiz-adv-x="1192" 
d="M597 832q-35 0 -59 24t-24 59t24 58.5t59 23.5t58.5 -23.5t23.5 -58.5t-23.5 -59t-58.5 -24zM597 138q-35 0 -59 24t-24 58q0 35 24 59t59 24t58.5 -24t23.5 -59q0 -34 -23.5 -58t-58.5 -24zM1086 541h-980v69h980v-69z" />
    <glyph glyph-name="oslash" unicode="&#xf8;" horiz-adv-x="1089" 
d="M843 882l-534 -751q98 -75 235 -75q182 0 291.5 130.5t109.5 351.5q0 214 -102 344zM263 174l537 753q-104 93 -256 93q-183 0 -292 -130t-109 -352q0 -231 120 -364zM997 1099l-109 -153q136 -152 136 -408q0 -252 -132 -402t-348 -150q-161 0 -277 85l-110 -154l-53 35
l114 160q-153 151 -153 426q0 253 131.5 403t347.5 150q176 0 300 -102l102 143z" />
    <glyph glyph-name="ugrave" unicode="&#xf9;" horiz-adv-x="1074" 
d="M585 1252h-74l-249 303h93zM955 1077v-1077h-73v235h-3q-36 -110 -140.5 -179.5t-237.5 -69.5q-175 0 -281.5 106t-106.5 286v699h78v-687q0 -157 88 -245.5t238 -88.5q156 0 258 104t102 273v644h78z" />
    <glyph glyph-name="uacute" unicode="&#xfa;" horiz-adv-x="1074" 
d="M554 1252h-74l230 303h93zM955 1077v-1077h-73v235h-3q-36 -110 -140.5 -179.5t-237.5 -69.5q-175 0 -281.5 106t-106.5 286v699h78v-687q0 -157 88 -245.5t238 -88.5q156 0 258 104t102 273v644h78z" />
    <glyph glyph-name="ucircumflex" unicode="&#xfb;" horiz-adv-x="1074" 
d="M565 1555l268 -303h-80l-217 249h-3l-217 -249h-81l268 303h62zM955 1077v-1077h-73v235h-3q-36 -110 -140.5 -179.5t-237.5 -69.5q-175 0 -281.5 106t-106.5 286v699h78v-687q0 -157 88 -245.5t238 -88.5q156 0 258 104t102 273v644h78z" />
    <glyph glyph-name="udieresis" unicode="&#xfc;" horiz-adv-x="1074" 
d="M955 1077v-1077h-73v235h-3q-36 -110 -140.5 -179.5t-237.5 -69.5q-175 0 -281.5 106t-106.5 286v699h78v-687q0 -157 88 -245.5t238 -88.5q156 0 258 104t102 273v644h78zM382 1255q-28 0 -48 19.5t-20 47.5q0 27 20 46.5t48 19.5q27 0 47 -19.5t20 -46.5
q0 -28 -20 -47.5t-47 -19.5zM686 1255q-27 0 -47 19.5t-20 47.5q0 27 20 46.5t47 19.5q28 0 48 -19.5t20 -46.5q0 -28 -20 -47.5t-48 -19.5z" />
    <glyph glyph-name="yacute" unicode="&#xfd;" horiz-adv-x="919" 
d="M180 -369q-32 0 -54 9v69q24 -8 57 -8q72 0 116 43.5t87 155.5l33 85l-412 1092h83l369 -1001h2l369 1001h82l-423 -1126q-72 -192 -133.5 -256t-175.5 -64zM480 1252h-74l230 303h93z" />
    <glyph glyph-name="thorn" unicode="&#xfe;" horiz-adv-x="1129" 
d="M610 1093q203 0 328.5 -153.5t125.5 -401.5q0 -247 -126 -401t-328 -154q-138 0 -244.5 75t-152.5 203h-7v-646h-77v1868h74v-680h7q47 133 154 211.5t246 78.5zM598 54q174 0 280.5 133t106.5 351t-106.5 351.5t-279.5 133.5q-175 0 -284.5 -135t-109.5 -350
q0 -214 109.5 -349t283.5 -135z" />
    <glyph glyph-name="ydieresis" unicode="&#xff;" horiz-adv-x="919" 
d="M180 -369q-32 0 -54 9v69q24 -8 57 -8q72 0 116 43.5t87 155.5l33 85l-412 1092h83l369 -1001h2l369 1001h82l-423 -1126q-72 -192 -133.5 -256t-175.5 -64zM308 1255q-28 0 -48 19.5t-20 47.5q0 27 20 46.5t48 19.5q27 0 47 -19.5t20 -46.5q0 -28 -20 -47.5t-47 -19.5z
M612 1255q-27 0 -47 19.5t-20 47.5q0 27 20 46.5t47 19.5q28 0 48 -19.5t20 -46.5q0 -28 -20 -47.5t-48 -19.5z" />
    <glyph glyph-name="Amacron" unicode="&#x100;" horiz-adv-x="1221" 
d="M1115 0l-180 481h-649l-179 -481h-86l550 1443h80l549 -1443h-85zM608 1340l-296 -788h598l-297 788h-5zM901 1679v-57h-580v57h580z" />
    <glyph glyph-name="amacron" unicode="&#x101;" horiz-adv-x="1030" 
d="M453 55q161 0 274 100.5t113 243.5v161l-359 -27q-155 -11 -236 -73t-81 -170q0 -103 81.5 -169t207.5 -66zM443 -14q-158 0 -257.5 84.5t-99.5 219.5q0 138 97.5 216t287.5 92l369 27v96q0 141 -81.5 220t-226.5 79q-137 0 -224 -67t-106 -189h-75q14 149 125 238
t281 89q177 0 280.5 -98t103.5 -267v-726h-75v232h-2q-40 -110 -150 -178t-247 -68zM825 1366v-58h-596v58h596z" />
    <glyph glyph-name="Abreve" unicode="&#x102;" horiz-adv-x="1221" 
d="M1115 0l-180 481h-649l-179 -481h-86l550 1443h80l549 -1443h-85zM608 1340l-296 -788h598l-297 788h-5zM342 1789h61q0 -77 58 -128.5t150 -51.5t150 51.5t58 128.5h61q0 -107 -75.5 -171.5t-193.5 -64.5t-193.5 64.5t-75.5 171.5z" />
    <glyph glyph-name="abreve" unicode="&#x103;" horiz-adv-x="1030" 
d="M453 55q161 0 274 100.5t113 243.5v161l-359 -27q-155 -11 -236 -73t-81 -170q0 -103 81.5 -169t207.5 -66zM443 -14q-158 0 -257.5 84.5t-99.5 219.5q0 138 97.5 216t287.5 92l369 27v96q0 141 -81.5 220t-226.5 79q-137 0 -224 -67t-106 -189h-75q14 149 125 238
t281 89q177 0 280.5 -98t103.5 -267v-726h-75v232h-2q-40 -110 -150 -178t-247 -68zM260 1503h62q0 -88 58 -142t152 -54t152 54t58 142h62q0 -117 -75.5 -185t-196.5 -68t-196.5 68t-75.5 185z" />
    <glyph glyph-name="Aogonek" unicode="&#x104;" horiz-adv-x="1221" 
d="M608 1340l-296 -788h598l-297 788h-5zM1183 -384q-33 -11 -80 -11q-89 0 -146.5 50t-57.5 128q0 71 54 131.5t156 100.5l-174 466h-649l-179 -481h-86l550 1443h80l549 -1443l-6 -2q-105 -35 -162 -88t-57 -116q0 -53 39 -87t100 -34q46 0 69 7v-64z" />
    <glyph glyph-name="aogonek" unicode="&#x105;" horiz-adv-x="1030" 
d="M453 55q161 0 274 100.5t113 243.5v161l-359 -27q-155 -11 -236 -73t-81 -170q0 -103 81.5 -169t207.5 -66zM915 -384q-33 -11 -79 -11q-89 0 -147 50t-58 127q0 73 55 133.5t156 100.5v216h-2q-40 -110 -150 -178t-247 -68q-158 0 -257.5 84.5t-99.5 219.5
q0 138 97.5 216t287.5 92l369 27v96q0 141 -81.5 220t-226.5 79q-137 0 -224 -67t-106 -189h-75q14 149 125 238t281 89q177 0 280.5 -98t103.5 -267v-726l-8 -4q-201 -85 -201 -202q0 -53 38.5 -87t99.5 -34q48 0 69 7v-64z" />
    <glyph glyph-name="Cacute" unicode="&#x106;" horiz-adv-x="1326" 
d="M734 1554h-78l279 290h96zM702 -21q-290 0 -462.5 203.5t-172.5 547.5q0 337 172 535.5t463 198.5q220 0 382 -138.5t185 -344.5h-79q-23 174 -162.5 291.5t-325.5 117.5q-254 0 -404 -178t-150 -482q0 -310 150.5 -493.5t403.5 -183.5q192 0 328.5 105.5t159.5 277.5h79
q-25 -205 -181.5 -331t-385.5 -126z" />
    <glyph glyph-name="cacute" unicode="&#x107;" horiz-adv-x="1028" 
d="M969 753h-77q-24 118 -119.5 192.5t-233.5 74.5q-181 0 -288.5 -130.5t-107.5 -351.5t107.5 -351.5t289.5 -130.5q137 0 232 71t119 188h78q-25 -147 -142 -238t-287 -91q-217 0 -346 149t-129 403q0 253 129 403t345 150q170 0 287.5 -96t142.5 -242zM559 1253h-74
l230 303h93z" />
    <glyph glyph-name="Ccircumflex" unicode="&#x108;" horiz-adv-x="1326" 
d="M702 -21q-290 0 -462.5 203.5t-172.5 547.5q0 337 172 535.5t463 198.5q220 0 382 -138.5t185 -344.5h-79q-23 174 -162.5 291.5t-325.5 117.5q-254 0 -404 -178t-150 -482q0 -310 150.5 -493.5t403.5 -183.5q192 0 328.5 105.5t159.5 277.5h79q-25 -205 -181.5 -331
t-385.5 -126zM668 1844h68l271 -290h-83l-221 238h-2l-221 -238h-83z" />
    <glyph glyph-name="ccircumflex" unicode="&#x109;" horiz-adv-x="1028" 
d="M570 1556l268 -303h-80l-217 249h-3l-217 -249h-81l268 303h62zM969 753h-77q-24 118 -119.5 192.5t-233.5 74.5q-181 0 -288.5 -130.5t-107.5 -351.5t107.5 -351.5t289.5 -130.5q137 0 232 71t119 188h78q-25 -147 -142 -238t-287 -91q-217 0 -346 149t-129 403
q0 253 129 403t345 150q170 0 287.5 -96t142.5 -242z" />
    <glyph glyph-name="Cdotaccent" unicode="&#x10a;" horiz-adv-x="1326" 
d="M702 1564q-32 0 -54.5 22.5t-22.5 53.5t22.5 53.5t54.5 22.5t54.5 -22.5t22.5 -53.5t-22.5 -53.5t-54.5 -22.5zM702 -21q-290 0 -462.5 203.5t-172.5 547.5q0 337 172 535.5t463 198.5q220 0 382 -138.5t185 -344.5h-79q-23 174 -162.5 291.5t-325.5 117.5
q-254 0 -404 -178t-150 -482q0 -310 150.5 -493.5t403.5 -183.5q192 0 328.5 105.5t159.5 277.5h79q-25 -205 -181.5 -331t-385.5 -126z" />
    <glyph glyph-name="cdotaccent" unicode="&#x10b;" horiz-adv-x="1028" 
d="M969 753h-77q-24 118 -119.5 192.5t-233.5 74.5q-181 0 -288.5 -130.5t-107.5 -351.5t107.5 -351.5t289.5 -130.5q137 0 232 71t119 188h78q-25 -147 -142 -238t-287 -91q-217 0 -346 149t-129 403q0 253 129 403t345 150q170 0 287.5 -96t142.5 -242zM539 1256
q-32 0 -55 23t-23 54t23 54t55 23t55 -23t23 -54t-23 -54t-55 -23z" />
    <glyph glyph-name="Ccaron" unicode="&#x10c;" horiz-adv-x="1326" 
d="M702 -21q-290 0 -462.5 203.5t-172.5 547.5q0 337 172 535.5t463 198.5q220 0 382 -138.5t185 -344.5h-79q-23 174 -162.5 291.5t-325.5 117.5q-254 0 -404 -178t-150 -482q0 -310 150.5 -493.5t403.5 -183.5q192 0 328.5 105.5t159.5 277.5h79q-25 -205 -181.5 -331
t-385.5 -126zM668 1554l-271 290h83l221 -239h2l221 239h83l-271 -290h-68z" />
    <glyph glyph-name="ccaron" unicode="&#x10d;" horiz-adv-x="1028" 
d="M570 1253h-62l-268 303h81l217 -249h3l217 249h80zM969 753h-77q-24 118 -119.5 192.5t-233.5 74.5q-181 0 -288.5 -130.5t-107.5 -351.5t107.5 -351.5t289.5 -130.5q137 0 232 71t119 188h78q-25 -147 -142 -238t-287 -91q-217 0 -346 149t-129 403q0 253 129 403
t345 150q170 0 287.5 -96t142.5 -242z" />
    <glyph glyph-name="Dcaron" unicode="&#x10e;" horiz-adv-x="1332" 
d="M518 1553l-271 290h83l221 -239h2l221 239h83l-271 -290h-68zM128 1443h449q328 0 508 -189t180 -532q0 -344 -180 -533t-508 -189h-449v1443zM208 1370v-1297h365q295 0 453.5 168.5t158.5 479.5q0 313 -159 481t-453 168h-365z" />
    <glyph glyph-name="dcaron" unicode="&#x10f;" horiz-adv-x="1231" 
d="M1193 1483h68l-15 -385h-53v385zM525 -14q-203 0 -331.5 153.5t-128.5 398.5q0 246 128.5 399.5t330.5 153.5q146 0 256 -84.5t147 -213.5h2v713h78v-1506h-73v290h-3q-38 -134 -148.5 -219t-257.5 -85zM534 1020q-173 0 -281.5 -133t-108.5 -348t108.5 -349t281.5 -134
q174 0 285 134.5t111 347.5t-111 347.5t-285 134.5z" />
    <glyph glyph-name="Dcroat" unicode="&#x110;" horiz-adv-x="1350" 
d="M226 73h365q295 0 453.5 168.5t158.5 479.5q0 313 -159 481t-453 168h-365v-592h358v-73h-358v-632zM146 1443h449q328 0 508 -189t180 -532q0 -344 -180 -533t-508 -189h-449v705h-123v73h123v665z" />
    <glyph glyph-name="dcroat" unicode="&#x111;" horiz-adv-x="1158" 
d="M534 56q174 0 285 134.5t111 347.5t-111 347.5t-285 134.5q-173 0 -281.5 -133t-108.5 -348t108.5 -349t281.5 -134zM1145 1340v-62h-138v-1278h-73v290h-3q-38 -134 -148.5 -219t-257.5 -85q-203 0 -331.5 153.5t-128.5 398.5q0 246 128.5 399.5t330.5 153.5
q146 0 256 -84.5t147 -213.5h2v485h-278v62h278v166h78v-166h138z" />
    <glyph glyph-name="Emacron" unicode="&#x112;" horiz-adv-x="1068" 
d="M969 73v-73h-841v1443h841v-73h-762v-594h726v-72h-726v-631h762zM838 1679v-57h-580v57h580z" />
    <glyph glyph-name="emacron" unicode="&#x113;" horiz-adv-x="1062" 
d="M536 1021q-168 0 -275 -118t-116 -311h773q-1 191 -106.5 310t-275.5 119zM905 301h79q-27 -139 -145.5 -227t-293.5 -88q-221 0 -350.5 146.5t-129.5 404.5q0 250 129.5 402t342.5 152q208 0 334 -142.5t126 -377.5v-45h-853v-4q0 -218 109 -342t293 -124
q144 0 239.5 68t119.5 177zM830 1366v-58h-596v58h596z" />
    <glyph glyph-name="Ebreve" unicode="&#x114;" horiz-adv-x="1068" 
d="M969 73v-73h-841v1443h841v-73h-762v-594h726v-72h-726v-631h762zM279 1789h61q0 -77 58 -128.5t150 -51.5t150 51.5t58 128.5h61q0 -107 -75.5 -171.5t-193.5 -64.5t-193.5 64.5t-75.5 171.5z" />
    <glyph glyph-name="ebreve" unicode="&#x115;" horiz-adv-x="1062" 
d="M536 1021q-168 0 -275 -118t-116 -311h773q-1 191 -106.5 310t-275.5 119zM905 301h79q-27 -139 -145.5 -227t-293.5 -88q-221 0 -350.5 146.5t-129.5 404.5q0 250 129.5 402t342.5 152q208 0 334 -142.5t126 -377.5v-45h-853v-4q0 -218 109 -342t293 -124
q144 0 239.5 68t119.5 177zM265 1503h62q0 -88 58 -142t152 -54t152 54t58 142h62q0 -117 -75.5 -185t-196.5 -68t-196.5 68t-75.5 185z" />
    <glyph glyph-name="Edotaccent" unicode="&#x116;" horiz-adv-x="1068" 
d="M548 1563q-32 0 -54.5 22.5t-22.5 53.5t22.5 53.5t54.5 22.5t54.5 -22.5t22.5 -53.5t-22.5 -53.5t-54.5 -22.5zM969 73v-73h-841v1443h841v-73h-762v-594h726v-72h-726v-631h762z" />
    <glyph glyph-name="edotaccent" unicode="&#x117;" horiz-adv-x="1062" 
d="M537 1256q-32 0 -55 23t-23 54t23 54t55 23t55 -23t23 -54t-23 -54t-55 -23zM536 1021q-168 0 -275 -118t-116 -311h773q-1 191 -106.5 310t-275.5 119zM905 301h79q-27 -139 -145.5 -227t-293.5 -88q-221 0 -350.5 146.5t-129.5 404.5q0 250 129.5 402t342.5 152
q208 0 334 -142.5t126 -377.5v-45h-853v-4q0 -218 109 -342t293 -124q144 0 239.5 68t119.5 177z" />
    <glyph glyph-name="Eogonek" unicode="&#x118;" horiz-adv-x="1068" 
d="M858 -395q-89 0 -146.5 50t-57.5 128q0 65 46 121.5t125 91.5v4h-697v1443h841v-73h-762v-594h726v-72h-726v-631h762v-68l-20 -7q-100 -33 -159.5 -87t-59.5 -117q0 -53 39 -87t100 -34q47 0 68 7v-64q-33 -11 -79 -11z" />
    <glyph glyph-name="eogonek" unicode="&#x119;" horiz-adv-x="1062" 
d="M726 -395q-89 0 -146.5 50t-57.5 127q0 125 145 221v4q-51 -21 -122 -21q-221 0 -350.5 146.5t-129.5 404.5q0 250 129.5 402t342.5 152q208 0 334 -142.5t126 -377.5v-45h-853v-4q0 -218 109 -342t293 -124q144 0 239.5 68t119.5 177h79q-15 -78 -65 -146.5t-128 -118.5
q-101 -63 -147 -121t-46 -121q0 -53 39 -87t100 -34q46 0 69 7v-64q-37 -11 -80 -11zM536 1021q-168 0 -275 -118t-116 -311h773q-1 191 -106.5 310t-275.5 119z" />
    <glyph glyph-name="Ecaron" unicode="&#x11a;" horiz-adv-x="1068" 
d="M514 1553l-271 290h83l221 -239h2l221 239h83l-271 -290h-68zM969 73v-73h-841v1443h841v-73h-762v-594h726v-72h-726v-631h762z" />
    <glyph glyph-name="ecaron" unicode="&#x11b;" horiz-adv-x="1062" 
d="M568 1253h-62l-268 303h81l217 -249h3l217 249h80zM536 1021q-168 0 -275 -118t-116 -311h773q-1 191 -106.5 310t-275.5 119zM905 301h79q-27 -139 -145.5 -227t-293.5 -88q-221 0 -350.5 146.5t-129.5 404.5q0 250 129.5 402t342.5 152q208 0 334 -142.5t126 -377.5
v-45h-853v-4q0 -218 109 -342t293 -124q144 0 239.5 68t119.5 177z" />
    <glyph glyph-name="Gcircumflex" unicode="&#x11c;" horiz-adv-x="1358" 
d="M665 1843h68l271 -290h-83l-221 238h-2l-221 -238h-83zM1281 571q0 -276 -155.5 -434t-426.5 -158q-186 0 -330 94t-223 264.5t-79 392.5q0 331 173.5 532.5t458.5 201.5q217 0 374.5 -120t198.5 -317h-81q-43 166 -176.5 264.5t-315.5 98.5q-250 0 -400.5 -180
t-150.5 -479q0 -304 152 -491t399 -187q232 0 367.5 136.5t135.5 369.5v83h-503v72h582v-143z" />
    <glyph glyph-name="gcircumflex" unicode="&#x11d;" horiz-adv-x="1119" 
d="M589 1556l268 -303h-80l-217 249h-3l-217 -249h-81l268 303h62zM529 59q174 0 283.5 134t109.5 346q0 213 -109.5 347t-283.5 134q-172 0 -278.5 -133t-106.5 -348q0 -214 106.5 -347t278.5 -133zM545 -361q-170 0 -283 68t-135 180h81q21 -80 113 -129.5t229 -49.5
q167 0 269.5 79t102.5 215v285h-2q-37 -130 -146 -214.5t-254 -84.5q-203 0 -329 152.5t-126 398.5q0 247 126.5 399.5t329.5 152.5q145 0 254.5 -85t148.5 -217h3v288h73v-1070q0 -172 -125 -270t-330 -98z" />
    <glyph glyph-name="Gbreve" unicode="&#x11e;" horiz-adv-x="1358" 
d="M1281 571q0 -276 -155.5 -434t-426.5 -158q-186 0 -330 94t-223 264.5t-79 392.5q0 331 173.5 532.5t458.5 201.5q217 0 374.5 -120t198.5 -317h-81q-43 166 -176.5 264.5t-315.5 98.5q-250 0 -400.5 -180t-150.5 -479q0 -304 152 -491t399 -187q232 0 367.5 136.5
t135.5 369.5v83h-503v72h582v-143zM430 1789h61q0 -77 58 -128.5t150 -51.5t150 51.5t58 128.5h61q0 -107 -75.5 -171.5t-193.5 -64.5t-193.5 64.5t-75.5 171.5z" />
    <glyph glyph-name="gbreve" unicode="&#x11f;" horiz-adv-x="1119" 
d="M286 1503h62q0 -88 58 -142t152 -54t152 54t58 142h62q0 -117 -75.5 -185t-196.5 -68t-196.5 68t-75.5 185zM529 59q174 0 283.5 134t109.5 346q0 213 -109.5 347t-283.5 134q-172 0 -278.5 -133t-106.5 -348q0 -214 106.5 -347t278.5 -133zM545 -361q-170 0 -283 68
t-135 180h81q21 -80 113 -129.5t229 -49.5q167 0 269.5 79t102.5 215v285h-2q-37 -130 -146 -214.5t-254 -84.5q-203 0 -329 152.5t-126 398.5q0 247 126.5 399.5t329.5 152.5q145 0 254.5 -85t148.5 -217h3v288h73v-1070q0 -172 -125 -270t-330 -98z" />
    <glyph glyph-name="Gdotaccent" unicode="&#x120;" horiz-adv-x="1358" 
d="M699 1563q-32 0 -54.5 22.5t-22.5 53.5t22.5 53.5t54.5 22.5t54.5 -22.5t22.5 -53.5t-22.5 -53.5t-54.5 -22.5zM1281 571q0 -276 -155.5 -434t-426.5 -158q-186 0 -330 94t-223 264.5t-79 392.5q0 331 173.5 532.5t458.5 201.5q217 0 374.5 -120t198.5 -317h-81
q-43 166 -176.5 264.5t-315.5 98.5q-250 0 -400.5 -180t-150.5 -479q0 -304 152 -491t399 -187q232 0 367.5 136.5t135.5 369.5v83h-503v72h582v-143z" />
    <glyph glyph-name="gdotaccent" unicode="&#x121;" horiz-adv-x="1119" 
d="M558 1256q-32 0 -55 23t-23 54t23 54t55 23t55 -23t23 -54t-23 -54t-55 -23zM529 59q174 0 283.5 134t109.5 346q0 213 -109.5 347t-283.5 134q-172 0 -278.5 -133t-106.5 -348q0 -214 106.5 -347t278.5 -133zM545 -361q-170 0 -283 68t-135 180h81q21 -80 113 -129.5
t229 -49.5q167 0 269.5 79t102.5 215v285h-2q-37 -130 -146 -214.5t-254 -84.5q-203 0 -329 152.5t-126 398.5q0 247 126.5 399.5t329.5 152.5q145 0 254.5 -85t148.5 -217h3v288h73v-1070q0 -172 -125 -270t-330 -98z" />
    <glyph glyph-name="Gcommaaccent" unicode="&#x122;" horiz-adv-x="1358" 
d="M642 -493h-63l99 344h78zM1281 571q0 -276 -155.5 -434t-426.5 -158q-186 0 -330 94t-223 264.5t-79 392.5q0 331 173.5 532.5t458.5 201.5q217 0 374.5 -120t198.5 -317h-81q-43 166 -176.5 264.5t-315.5 98.5q-250 0 -400.5 -180t-150.5 -479q0 -304 152 -491t399 -187
q232 0 367.5 136.5t135.5 369.5v83h-503v72h582v-143z" />
    <glyph glyph-name="gcommaaccent" unicode="&#x123;" horiz-adv-x="1119" 
d="M488 -849h-63l99 344h78zM529 59q174 0 283.5 134t109.5 346q0 213 -109.5 347t-283.5 134q-172 0 -278.5 -133t-106.5 -348q0 -214 106.5 -347t278.5 -133zM545 -361q-170 0 -283 68t-135 180h81q21 -80 113 -129.5t229 -49.5q167 0 269.5 79t102.5 215v285h-2
q-37 -130 -146 -214.5t-254 -84.5q-203 0 -329 152.5t-126 398.5q0 247 126.5 399.5t329.5 152.5q145 0 254.5 -85t148.5 -217h3v288h73v-1070q0 -172 -125 -270t-330 -98z" />
    <glyph glyph-name="Hcircumflex" unicode="&#x124;" horiz-adv-x="1327" 
d="M1199 0h-79v705h-913v-705h-79v1443h79v-666h913v666h79v-1443zM629 1843h68l271 -290h-83l-221 238h-2l-221 -238h-83z" />
    <glyph glyph-name="hcircumflex" unicode="&#x125;" horiz-adv-x="1088" 
d="M129 0v1506h78v-666h3q38 115 137.5 183t234.5 68q177 0 285 -108.5t108 -288.5v-694h-77v685q0 155 -90 245t-242 90q-159 0 -259 -106t-100 -275v-639h-78zM134 1906h68l271 -290h-83l-221 238h-2l-221 -238h-83z" />
    <glyph glyph-name="Hbar" unicode="&#x126;" horiz-adv-x="1360" 
d="M1137 777v345h-913v-345h913zM1342 1189v-67h-126v-1122h-79v705h-913v-705h-79v1122h-127v67h127v254h79v-254h913v254h79v-254h126z" />
    <glyph glyph-name="hbar" unicode="&#x127;" horiz-adv-x="1105" 
d="M224 840h2q39 115 138.5 183t234.5 68q177 0 285 -108.5t108 -288.5v-694h-78v685q0 155 -90 245t-242 90q-159 0 -258.5 -106t-99.5 -275v-639h-78v1278h-133v62h133v166h78v-166h283v-62h-283v-438z" />
    <glyph glyph-name="Itilde" unicode="&#x128;" horiz-adv-x="335" 
d="M207 0h-79v1443h79v-1443zM302 1549q-36 0 -67.5 17t-55 41l-45.5 48t-47.5 41t-52.5 17q-91 0 -91 -153h-60q0 98 38.5 155t111.5 57q36 0 68.5 -17t56 -41l45.5 -48t47.5 -41t51.5 -17q89 0 89 154h61q0 -97 -39 -155t-111 -58z" />
    <glyph glyph-name="itilde" unicode="&#x129;" horiz-adv-x="336" 
d="M129 0v1077h78v-1077h-78zM303 1255q-36 0 -67.5 17t-55 41l-45.5 48t-47.5 41t-52.5 17q-91 0 -91 -153h-60q0 98 38.5 155t111.5 57q36 0 68.5 -17t56 -41l45.5 -48t47.5 -41t51.5 -17q89 0 89 154h61q0 -97 -39 -155t-111 -58z" />
    <glyph glyph-name="Imacron" unicode="&#x12a;" horiz-adv-x="335" 
d="M207 0h-79v1443h79v-1443zM457 1679v-57h-580v57h580z" />
    <glyph glyph-name="imacron" unicode="&#x12b;" horiz-adv-x="336" 
d="M129 0v1077h78v-1077h-78zM461 1366v-58h-596v58h596z" />
    <glyph glyph-name="Ibreve" unicode="&#x12c;" horiz-adv-x="335" 
d="M207 0h-79v1443h79v-1443zM-102 1789h61q0 -77 58 -128.5t150 -51.5t150 51.5t58 128.5h61q0 -107 -75.5 -171.5t-193.5 -64.5t-193.5 64.5t-75.5 171.5z" />
    <glyph glyph-name="ibreve" unicode="&#x12d;" horiz-adv-x="336" 
d="M129 0v1077h78v-1077h-78zM-104 1503h62q0 -88 58 -142t152 -54t152 54t58 142h62q0 -117 -75.5 -185t-196.5 -68t-196.5 68t-75.5 185z" />
    <glyph glyph-name="Iogonek" unicode="&#x12e;" horiz-adv-x="335" 
d="M128 13v1430h79v-1443l-6 -3q-160 -83 -160 -203q0 -53 39 -87t100 -34q46 0 69 7v-64q-37 -11 -80 -11q-89 0 -146.5 50t-57.5 127q0 70 43 131t120 100z" />
    <glyph glyph-name="iogonek" unicode="&#x12f;" horiz-adv-x="336" 
d="M168 1341q-26 0 -44 18t-18 43q0 26 18 44t44 18t44.5 -18t18.5 -44q0 -25 -18.5 -43t-44.5 -18zM129 14v1063h78v-1077l-6 -3q-160 -83 -160 -203q0 -53 39 -87t100 -34q46 0 69 7v-64q-37 -11 -80 -11q-89 0 -146.5 50t-57.5 127q0 70 43.5 131.5t120.5 100.5z" />
    <glyph glyph-name="Idotaccent" unicode="&#x130;" horiz-adv-x="335" 
d="M207 0h-79v1443h79v-1443zM167 1563q-32 0 -54.5 22.5t-22.5 53.5t22.5 53.5t54.5 22.5t54.5 -22.5t22.5 -53.5t-22.5 -53.5t-54.5 -22.5z" />
    <glyph glyph-name="dotlessi" unicode="&#x131;" horiz-adv-x="336" 
d="M129 0v1077h78v-1077h-78z" />
    <glyph glyph-name="u0132" unicode="&#x132;" horiz-adv-x="1286" 
d="M207 0h-79v1443h79v-1443zM376 320h78q7 -119 92 -194.5t214 -75.5q150 0 234.5 89t84.5 250v1054h80v-1058q0 -189 -106.5 -299t-291.5 -110q-165 0 -273 96.5t-112 247.5z" />
    <glyph glyph-name="u0133" unicode="&#x133;" horiz-adv-x="673" 
d="M129 0v1077h78v-1077h-78zM168 1341q-26 0 -44 18t-18 43q0 26 18 44t44 18t44.5 -18t18.5 -44q0 -25 -18.5 -43t-44.5 -18zM543 1077v-1165q0 -145 -68 -210t-210 -65h-30v69h27q107 0 155 47.5t48 154.5v1169h78zM504 1341q-26 0 -44 18t-18 43q0 26 18 44t44 18
t44.5 -18t18.5 -44q0 -25 -18.5 -43t-44.5 -18z" />
    <glyph glyph-name="Jcircumflex" unicode="&#x134;" horiz-adv-x="951" 
d="M41 320h78q7 -119 92 -194.5t214 -75.5q150 0 234.5 89t84.5 250v1054h80v-1058q0 -189 -106.5 -299t-291.5 -110q-165 0 -273 96.5t-112 247.5zM750 1843h68l271 -290h-83l-221 238h-2l-221 -238h-83z" />
    <glyph glyph-name="jcircumflex" unicode="&#x135;" horiz-adv-x="336" 
d="M207 1077v-1165q0 -142 -67 -208.5t-211 -66.5h-30v69h27q108 0 155.5 47.5t47.5 154.5v1169h78zM199 1556l268 -303h-80l-217 249h-3l-217 -249h-81l268 303h62z" />
    <glyph glyph-name="Kcommaaccent" unicode="&#x136;" horiz-adv-x="1142" 
d="M207 0h-79v1443h79v-806h6l750 806h101l-594 -636l660 -807h-101l-615 751l-207 -223v-528zM487 -493h-63l99 344h78z" />
    <glyph glyph-name="kcommaaccent" unicode="&#x137;" horiz-adv-x="938" 
d="M208 524l609 553h102l-507 -464l511 -613h-95l-474 565l-147 -132v-433h-78v1506h78v-982h1zM430 -493h-63l99 344h78z" />
    <glyph glyph-name="Lacute" unicode="&#x139;" horiz-adv-x="1024" 
d="M199 1553h-78l279 290h96zM964 73v-73h-836v1443h79v-1370h757z" />
    <glyph glyph-name="lacute" unicode="&#x13a;" horiz-adv-x="336" 
d="M200 1616h-78l279 290h96zM129 0v1506h78v-1506h-78z" />
    <glyph glyph-name="Lcommaaccent" unicode="&#x13b;" horiz-adv-x="1024" 
d="M489 -493h-63l99 344h78zM964 73v-73h-836v1443h79v-1370h757z" />
    <glyph glyph-name="lcommaaccent" unicode="&#x13c;" horiz-adv-x="336" 
d="M111 -493h-63l99 344h78zM129 0v1506h78v-1506h-78z" />
    <glyph glyph-name="Lcaron" unicode="&#x13d;" horiz-adv-x="1024" 
d="M449 1443h76l-20 -385h-56v385zM964 73v-73h-836v1443h79v-1370h757z" />
    <glyph glyph-name="lcaron" unicode="&#x13e;" horiz-adv-x="410" 
d="M372 1506h68l-15 -385h-53v385zM129 0v1506h78v-1506h-78z" />
    <glyph glyph-name="Lslash" unicode="&#x141;" horiz-adv-x="1044" 
d="M228 73h757v-73h-836v715l-127 -67v69l127 67v659h79v-617l390 206v-68l-390 -207v-684z" />
    <glyph glyph-name="lslash" unicode="&#x142;" horiz-adv-x="344" 
d="M330 921v-72l-119 -68v-781h-78v736l-119 -68v71l119 69v698h78v-654z" />
    <glyph glyph-name="Nacute" unicode="&#x143;" horiz-adv-x="1341" 
d="M703 1553h-78l279 290h96zM206 0h-78v1443h82l919 -1299h6v1299h79v-1443h-75l-927 1307h-6v-1307z" />
    <glyph glyph-name="nacute" unicode="&#x144;" horiz-adv-x="1074" 
d="M563 1253h-74l230 303h93zM119 0v1077h73v-237h3q38 115 137 183t235 68q178 0 286 -107.5t108 -288.5v-695h-78v686q0 155 -90.5 244.5t-242.5 89.5q-158 0 -255.5 -105.5t-97.5 -273.5v-641h-78z" />
    <glyph glyph-name="Ncommaaccent" unicode="&#x145;" horiz-adv-x="1341" 
d="M614 -493h-63l99 344h78zM206 0h-78v1443h82l919 -1299h6v1299h79v-1443h-75l-927 1307h-6v-1307z" />
    <glyph glyph-name="ncommaaccent" unicode="&#x146;" horiz-adv-x="1074" 
d="M474 -493h-63l99 344h78zM119 0v1077h73v-237h3q38 115 137 183t235 68q178 0 286 -107.5t108 -288.5v-695h-78v686q0 155 -90.5 244.5t-242.5 89.5q-158 0 -255.5 -105.5t-97.5 -273.5v-641h-78z" />
    <glyph glyph-name="Ncaron" unicode="&#x147;" horiz-adv-x="1341" 
d="M637 1553l-271 290h83l221 -239h2l221 239h83l-271 -290h-68zM206 0h-78v1443h82l919 -1299h6v1299h79v-1443h-75l-927 1307h-6v-1307z" />
    <glyph glyph-name="ncaron" unicode="&#x148;" horiz-adv-x="1074" 
d="M574 1253h-62l-268 303h81l217 -249h3l217 249h80zM119 0v1077h73v-237h3q38 115 137 183t235 68q178 0 286 -107.5t108 -288.5v-695h-78v686q0 155 -90.5 244.5t-242.5 89.5q-158 0 -255.5 -105.5t-97.5 -273.5v-641h-78z" />
    <glyph glyph-name="Omacron" unicode="&#x14c;" horiz-adv-x="1420" 
d="M710 1464q295 0 469 -201t174 -541q0 -342 -173.5 -542.5t-469.5 -200.5t-469.5 200.5t-173.5 542.5q0 340 174 541t469 201zM710 1390q-258 0 -410 -181t-152 -487q0 -307 152.5 -488t409.5 -181t409.5 181t152.5 488q0 306 -152.5 487t-409.5 181zM1000 1679v-57h-580
v57h580z" />
    <glyph glyph-name="omacron" unicode="&#x14d;" horiz-adv-x="1089" 
d="M837 1365v-58h-596v58h596zM544 -14q-216 0 -347.5 150t-131.5 402q0 253 131.5 403t347.5 150q217 0 348.5 -150t131.5 -403q0 -252 -132 -402t-348 -150zM544 56q182 0 291.5 130.5t109.5 351.5q0 222 -109 352t-292 130t-292 -130t-109 -352t109.5 -352t291.5 -130z
" />
    <glyph glyph-name="Obreve" unicode="&#x14e;" horiz-adv-x="1420" 
d="M710 1464q295 0 469 -201t174 -541q0 -342 -173.5 -542.5t-469.5 -200.5t-469.5 200.5t-173.5 542.5q0 340 174 541t469 201zM710 1390q-258 0 -410 -181t-152 -487q0 -307 152.5 -488t409.5 -181t409.5 181t152.5 488q0 306 -152.5 487t-409.5 181zM441 1789h61
q0 -77 58 -128.5t150 -51.5t150 51.5t58 128.5h61q0 -107 -75.5 -171.5t-193.5 -64.5t-193.5 64.5t-75.5 171.5z" />
    <glyph glyph-name="obreve" unicode="&#x14f;" horiz-adv-x="1089" 
d="M272 1502h62q0 -88 58 -142t152 -54t152 54t58 142h62q0 -117 -75.5 -185t-196.5 -68t-196.5 68t-75.5 185zM544 -14q-216 0 -347.5 150t-131.5 402q0 253 131.5 403t347.5 150q217 0 348.5 -150t131.5 -403q0 -252 -132 -402t-348 -150zM544 56q182 0 291.5 130.5
t109.5 351.5q0 222 -109 352t-292 130t-292 -130t-109 -352t109.5 -352t291.5 -130z" />
    <glyph glyph-name="Ohungarumlaut" unicode="&#x150;" horiz-adv-x="1420" 
d="M888 1553h-75l280 290h92zM621 1553h-75l280 290h93zM710 1464q295 0 469 -201t174 -541q0 -342 -173.5 -542.5t-469.5 -200.5t-469.5 200.5t-173.5 542.5q0 340 174 541t469 201zM710 1390q-258 0 -410 -181t-152 -487q0 -307 152.5 -488t409.5 -181t409.5 181
t152.5 488q0 306 -152.5 487t-409.5 181z" />
    <glyph glyph-name="ohungarumlaut" unicode="&#x151;" horiz-adv-x="1089" 
d="M630 1252l226 303h92l-247 -303h-71zM386 1252l226 303h92l-247 -303h-71zM544 -14q-216 0 -347.5 150t-131.5 402q0 253 131.5 403t347.5 150q217 0 348.5 -150t131.5 -403q0 -252 -132 -402t-348 -150zM544 56q182 0 291.5 130.5t109.5 351.5q0 222 -109 352t-292 130
t-292 -130t-109 -352t109.5 -352t291.5 -130z" />
    <glyph glyph-name="OE" unicode="&#x152;" horiz-adv-x="2178" 
d="M716 1390q-260 0 -414 -181t-154 -487t154 -487.5t414 -181.5t414 181t154 488q0 305 -154 486.5t-414 181.5zM1285 0v372q-67 -188 -215.5 -290.5t-353.5 -102.5q-300 0 -474.5 200t-174.5 543t174.5 542.5t474.5 199.5q205 0 353 -101.5t216 -289.5v370h815v-73h-735
v-594h698v-72h-698v-631h735v-73h-815z" />
    <glyph glyph-name="oe" unicode="&#x153;" horiz-adv-x="1943" 
d="M1426 -14q-167 0 -287.5 96.5t-152.5 249.5h-5q-34 -159 -151.5 -254t-285.5 -95q-218 0 -348.5 149.5t-130.5 402.5q0 254 130.5 404t348.5 150q167 0 284.5 -95t152.5 -252h5q32 154 150.5 251.5t281.5 97.5q208 0 334 -142.5t126 -377.5v-46h-853v-4
q0 -210 109.5 -337.5t293.5 -127.5q143 0 237.5 68t120.5 177h78q-27 -140 -145 -227.5t-293 -87.5zM1798 591q-1 191 -106.5 310.5t-274.5 119.5q-167 0 -275 -118.5t-117 -311.5h773zM143 535q0 -221 109.5 -351t291.5 -130t291.5 130t109.5 351q0 222 -109.5 352.5
t-291.5 130.5t-291.5 -130.5t-109.5 -352.5z" />
    <glyph glyph-name="Racute" unicode="&#x154;" horiz-adv-x="1150" 
d="M527 1553h-78l279 290h96zM207 1371v-683h387q181 0 284 91t103 250q0 161 -103.5 251.5t-285.5 90.5h-385zM207 616v-616h-79v1443h471q214 0 338.5 -110.5t124.5 -301.5q0 -156 -88.5 -262.5t-245.5 -137.5l371 -631h-93l-361 619q-19 -3 -51 -3h-387z" />
    <glyph glyph-name="racute" unicode="&#x155;" horiz-adv-x="614" 
d="M362 1253h-74l230 303h93zM119 0v1077h73v-213h3q32 110 106.5 168.5t182.5 58.5q55 0 100 -18v-78q-44 22 -112 22q-125 0 -200 -97t-75 -251v-669h-78z" />
    <glyph glyph-name="Rcommaaccent" unicode="&#x156;" horiz-adv-x="1150" 
d="M207 1371v-683h387q181 0 284 91t103 250q0 161 -103.5 251.5t-285.5 90.5h-385zM207 616v-616h-79v1443h471q214 0 338.5 -110.5t124.5 -301.5q0 -156 -88.5 -262.5t-245.5 -137.5l371 -631h-93l-361 619q-19 -3 -51 -3h-387zM438 -493h-63l99 344h78z" />
    <glyph glyph-name="rcommaaccent" unicode="&#x157;" horiz-adv-x="614" 
d="M119 0v1077h73v-213h3q32 110 106.5 168.5t182.5 58.5q55 0 100 -18v-78q-44 22 -112 22q-125 0 -200 -97t-75 -251v-669h-78zM101 -493h-63l99 344h78z" />
    <glyph glyph-name="Rcaron" unicode="&#x158;" horiz-adv-x="1150" 
d="M207 1371v-683h387q181 0 284 91t103 250q0 161 -103.5 251.5t-285.5 90.5h-385zM207 616v-616h-79v1443h471q214 0 338.5 -110.5t124.5 -301.5q0 -156 -88.5 -262.5t-245.5 -137.5l371 -631h-93l-361 619q-19 -3 -51 -3h-387zM461 1553l-271 290h83l221 -239h2l221 239
h83l-271 -290h-68z" />
    <glyph glyph-name="rcaron" unicode="&#x159;" horiz-adv-x="614" 
d="M373 1253h-62l-268 303h81l217 -249h3l217 249h80zM119 0v1077h73v-213h3q32 110 106.5 168.5t182.5 58.5q55 0 100 -18v-78q-44 22 -112 22q-125 0 -200 -97t-75 -251v-669h-78z" />
    <glyph glyph-name="Sacute" unicode="&#x15a;" horiz-adv-x="1137" 
d="M601 1553h-78l279 290h96zM57 385h79q9 -147 134 -240t313 -93q183 0 299.5 92.5t116.5 234.5q0 113 -81 183t-263 116l-171 42q-201 51 -294.5 136.5t-93.5 220.5q0 167 137 277t336 110q203 0 340 -106t144 -266h-79q-8 130 -122.5 214.5t-284.5 84.5
q-165 0 -277.5 -88.5t-112.5 -223.5q0 -107 81 -174t257 -111l161 -41q211 -52 307.5 -138.5t96.5 -229.5q0 -180 -139 -293t-364 -113q-222 0 -366.5 113t-153.5 293z" />
    <glyph glyph-name="sacute" unicode="&#x15b;" horiz-adv-x="923" 
d="M94 801q0 127 106.5 208.5t263.5 81.5q162 0 265.5 -88.5t116.5 -235.5h-76q-12 115 -93.5 185.5t-213.5 70.5q-122 0 -207.5 -61.5t-85.5 -157.5q0 -78 54.5 -124t171.5 -74l167 -41q161 -39 230.5 -104t69.5 -176q0 -133 -112 -216t-286 -83q-171 0 -284 91t-122 227
h78q11 -108 102.5 -179.5t227.5 -71.5q137 0 228 63t91 164q0 84 -57 134.5t-189 81.5l-173 42q-139 33 -206 96.5t-67 166.5zM484 1253h-74l230 303h93z" />
    <glyph glyph-name="Scircumflex" unicode="&#x15c;" horiz-adv-x="1137" 
d="M57 385h79q9 -147 134 -240t313 -93q183 0 299.5 92.5t116.5 234.5q0 113 -81 183t-263 116l-171 42q-201 51 -294.5 136.5t-93.5 220.5q0 167 137 277t336 110q203 0 340 -106t144 -266h-79q-8 130 -122.5 214.5t-284.5 84.5q-165 0 -277.5 -88.5t-112.5 -223.5
q0 -107 81 -174t257 -111l161 -41q211 -52 307.5 -138.5t96.5 -229.5q0 -180 -139 -293t-364 -113q-222 0 -366.5 113t-153.5 293zM535 1843h68l271 -290h-83l-221 238h-2l-221 -238h-83z" />
    <glyph glyph-name="scircumflex" unicode="&#x15d;" horiz-adv-x="923" 
d="M495 1556l268 -303h-80l-217 249h-3l-217 -249h-81l268 303h62zM94 801q0 127 106.5 208.5t263.5 81.5q162 0 265.5 -88.5t116.5 -235.5h-76q-12 115 -93.5 185.5t-213.5 70.5q-122 0 -207.5 -61.5t-85.5 -157.5q0 -78 54.5 -124t171.5 -74l167 -41q161 -39 230.5 -104
t69.5 -176q0 -133 -112 -216t-286 -83q-171 0 -284 91t-122 227h78q11 -108 102.5 -179.5t227.5 -71.5q137 0 228 63t91 164q0 84 -57 134.5t-189 81.5l-173 42q-139 33 -206 96.5t-67 166.5z" />
    <glyph glyph-name="Scedilla" unicode="&#x15e;" horiz-adv-x="1137" 
d="M515 794l161 -41q211 -52 307.5 -138.5t96.5 -229.5q0 -175 -130.5 -287t-345.5 -119l-50 -120q96 0 151.5 -41t55.5 -111q0 -75 -60.5 -122.5t-156.5 -47.5q-72 -2 -128 16v56q43 -17 122 -17q68 0 113.5 32t45.5 81q0 50 -41 76t-119 26h-52v43l55 130
q-207 10 -341 121.5t-142 283.5h79q9 -147 134 -240t313 -93q183 0 299.5 92.5t116.5 234.5q0 113 -81 183t-263 116l-171 42q-201 51 -294.5 136.5t-93.5 220.5q0 167 137 277t336 110q203 0 340 -106t144 -266h-79q-8 130 -122.5 214.5t-284.5 84.5q-165 0 -277.5 -88.5
t-112.5 -223.5q0 -107 81 -174t257 -111z" />
    <glyph glyph-name="scedilla" unicode="&#x15f;" horiz-adv-x="923" 
d="M396 606l167 -41q161 -39 230.5 -104t69.5 -176q0 -127 -103 -209t-267 -89l-52 -128q96 0 151.5 -41t55.5 -111q0 -75 -60.5 -122.5t-156.5 -47.5q-72 -2 -128 16v56q43 -17 122 -17q68 0 113.5 32t45.5 81q0 50 -41 76t-119 26h-52v43l58 137q-158 10 -260.5 99
t-110.5 218h78q11 -108 102.5 -179.5t227.5 -71.5q137 0 228 63t91 164q0 84 -57 134.5t-189 81.5l-173 42q-139 33 -206 96.5t-67 166.5q0 127 106.5 208.5t263.5 81.5q162 0 265.5 -88.5t116.5 -235.5h-76q-12 115 -93.5 185.5t-213.5 70.5q-122 0 -207.5 -61.5
t-85.5 -157.5q0 -78 54.5 -124t171.5 -74z" />
    <glyph glyph-name="Scaron" unicode="&#x160;" horiz-adv-x="1137" 
d="M57 385h79q9 -147 134 -240t313 -93q183 0 299.5 92.5t116.5 234.5q0 113 -81 183t-263 116l-171 42q-201 51 -294.5 136.5t-93.5 220.5q0 167 137 277t336 110q203 0 340 -106t144 -266h-79q-8 130 -122.5 214.5t-284.5 84.5q-165 0 -277.5 -88.5t-112.5 -223.5
q0 -107 81 -174t257 -111l161 -41q211 -52 307.5 -138.5t96.5 -229.5q0 -180 -139 -293t-364 -113q-222 0 -366.5 113t-153.5 293zM535 1553l-271 290h83l221 -239h2l221 239h83l-271 -290h-68z" />
    <glyph glyph-name="scaron" unicode="&#x161;" horiz-adv-x="923" 
d="M495 1253h-62l-268 303h81l217 -249h3l217 249h80zM94 801q0 127 106.5 208.5t263.5 81.5q162 0 265.5 -88.5t116.5 -235.5h-76q-12 115 -93.5 185.5t-213.5 70.5q-122 0 -207.5 -61.5t-85.5 -157.5q0 -78 54.5 -124t171.5 -74l167 -41q161 -39 230.5 -104t69.5 -176
q0 -133 -112 -216t-286 -83q-171 0 -284 91t-122 227h78q11 -108 102.5 -179.5t227.5 -71.5q137 0 228 63t91 164q0 84 -57 134.5t-189 81.5l-173 42q-139 33 -206 96.5t-67 166.5z" />
    <glyph glyph-name="Tcedilla" unicode="&#x162;" horiz-adv-x="1138" 
d="M609 0h-6l-58 -141q96 0 151.5 -41t55.5 -111q0 -75 -60.5 -122.5t-156.5 -47.5q-72 -2 -128 16v56q43 -17 122 -17q68 0 113.5 32t45.5 81q0 50 -41 76t-119 26h-52v43l64 150h-11v1370h-508v73h1096v-73h-508v-1370z" />
    <glyph glyph-name="tcedilla" unicode="&#x163;" horiz-adv-x="551" 
d="M388 -2l-57 -139q96 0 151.5 -41t55.5 -111q0 -75 -60.5 -122.5t-156.5 -47.5q-72 -2 -128 16v56q43 -17 122 -17q68 0 113.5 32t45.5 81q0 50 -41 76t-119 26h-52v43l66 155q-78 16 -113.5 73t-35.5 167v764h-158v68h158v277h77v-277h217v-68h-217v-762q0 -96 37 -138
t119 -42q67 0 75 2v-69q-12 -2 -85 -2h-14z" />
    <glyph glyph-name="Tcaron" unicode="&#x164;" horiz-adv-x="1138" 
d="M535 1553l-271 290h83l221 -239h2l221 239h83l-271 -290h-68zM609 0h-80v1370h-508v73h1096v-73h-508v-1370z" />
    <glyph glyph-name="tcaron" unicode="&#x165;" horiz-adv-x="656" 
d="M399 1619h68l-15 -385h-53v385zM179 1354h77v-277h217v-68h-217v-762q0 -96 37 -138t119 -42q67 0 75 2v-69q-12 -2 -85 -2q-118 0 -170.5 57.5t-52.5 189.5v764h-158v68h158v277z" />
    <glyph glyph-name="Tbar" unicode="&#x166;" horiz-adv-x="1149" 
d="M1117 1370h-508v-588h307v-67h-307v-715h-80v715h-295v67h295v588h-508v73h1096v-73z" />
    <glyph glyph-name="tbar" unicode="&#x167;" horiz-adv-x="552" 
d="M256 598v-351q0 -96 37 -138t119 -42q67 0 75 2v-69q-12 -2 -85 -2q-118 0 -170.5 57.5t-52.5 189.5v353h-158v68h158v343h-158v68h158v277h77v-277h217v-68h-217v-343h224v-68h-224z" />
    <glyph glyph-name="Utilde" unicode="&#x168;" horiz-adv-x="1332" 
d="M207 1443v-939q0 -207 124 -329t336 -122t336 122t124 329v939h79v-942q0 -237 -145.5 -379.5t-393.5 -142.5t-393.5 142.5t-145.5 379.5v942h79zM801 1549q-36 0 -67.5 17t-55 41l-45.5 48t-47.5 41t-52.5 17q-91 0 -91 -153h-60q0 98 38.5 155t111.5 57q36 0 68.5 -17
t56 -41l45.5 -48t47.5 -41t51.5 -17q89 0 89 154h61q0 -97 -39 -155t-111 -58z" />
    <glyph glyph-name="utilde" unicode="&#x169;" horiz-adv-x="1074" 
d="M955 1077v-1077h-73v235h-3q-36 -110 -140.5 -179.5t-237.5 -69.5q-175 0 -281.5 106t-106.5 286v699h78v-687q0 -157 88 -245.5t238 -88.5q156 0 258 104t102 273v644h78zM669 1254q-36 0 -67.5 17t-55 41l-45.5 48t-47.5 41t-52.5 17q-91 0 -91 -153h-60q0 98 38.5 155
t111.5 57q36 0 68.5 -17t56 -41l45.5 -48t47.5 -41t51.5 -17q89 0 89 154h61q0 -97 -39 -155t-111 -58z" />
    <glyph glyph-name="Umacron" unicode="&#x16a;" horiz-adv-x="1332" 
d="M207 1443v-939q0 -207 124 -329t336 -122t336 122t124 329v939h79v-942q0 -237 -145.5 -379.5t-393.5 -142.5t-393.5 142.5t-145.5 379.5v942h79zM956 1679v-57h-580v57h580z" />
    <glyph glyph-name="umacron" unicode="&#x16b;" horiz-adv-x="1074" 
d="M955 1077v-1077h-73v235h-3q-36 -110 -140.5 -179.5t-237.5 -69.5q-175 0 -281.5 106t-106.5 286v699h78v-687q0 -157 88 -245.5t238 -88.5q156 0 258 104t102 273v644h78zM827 1365v-58h-596v58h596z" />
    <glyph glyph-name="Ubreve" unicode="&#x16c;" horiz-adv-x="1332" 
d="M207 1443v-939q0 -207 124 -329t336 -122t336 122t124 329v939h79v-942q0 -237 -145.5 -379.5t-393.5 -142.5t-393.5 142.5t-145.5 379.5v942h79zM397 1789h61q0 -77 58 -128.5t150 -51.5t150 51.5t58 128.5h61q0 -107 -75.5 -171.5t-193.5 -64.5t-193.5 64.5
t-75.5 171.5z" />
    <glyph glyph-name="ubreve" unicode="&#x16d;" horiz-adv-x="1074" 
d="M955 1077v-1077h-73v235h-3q-36 -110 -140.5 -179.5t-237.5 -69.5q-175 0 -281.5 106t-106.5 286v699h78v-687q0 -157 88 -245.5t238 -88.5q156 0 258 104t102 273v644h78zM262 1502h62q0 -88 58 -142t152 -54t152 54t58 142h62q0 -117 -75.5 -185t-196.5 -68t-196.5 68
t-75.5 185z" />
    <glyph glyph-name="Uring" unicode="&#x16e;" horiz-adv-x="1332" 
d="M666 1506q-71 0 -121.5 51t-50.5 122t50.5 122t121.5 51t121.5 -51t50.5 -122t-50.5 -122t-121.5 -51zM666 1555q52 0 88 36t36 88t-36 88.5t-88 36.5t-88 -36.5t-36 -88.5t36 -88t88 -36zM207 1443v-939q0 -207 124 -329t336 -122t336 122t124 329v939h79v-942
q0 -237 -145.5 -379.5t-393.5 -142.5t-393.5 142.5t-145.5 379.5v942h79z" />
    <glyph glyph-name="uring" unicode="&#x16f;" horiz-adv-x="1074" 
d="M955 1077v-1077h-73v235h-3q-36 -110 -140.5 -179.5t-237.5 -69.5q-175 0 -281.5 106t-106.5 286v699h78v-687q0 -157 88 -245.5t238 -88.5q156 0 258 104t102 273v644h78zM534 1233q-71 0 -121.5 51t-50.5 122t50.5 122t121.5 51t121.5 -51t50.5 -122t-50.5 -122
t-121.5 -51zM534 1281q52 0 88 36.5t36 88.5t-36 88.5t-88 36.5t-88 -36.5t-36 -88.5t36 -88.5t88 -36.5z" />
    <glyph glyph-name="Uhungarumlaut" unicode="&#x170;" horiz-adv-x="1332" 
d="M207 1443v-939q0 -207 124 -329t336 -122t336 122t124 329v939h79v-942q0 -237 -145.5 -379.5t-393.5 -142.5t-393.5 142.5t-145.5 379.5v942h79zM844 1553h-75l280 290h92zM577 1553h-75l280 290h93z" />
    <glyph glyph-name="uhungarumlaut" unicode="&#x171;" horiz-adv-x="1074" 
d="M620 1252l226 303h92l-247 -303h-71zM376 1252l226 303h92l-247 -303h-71zM955 1077v-1077h-73v235h-3q-36 -110 -140.5 -179.5t-237.5 -69.5q-175 0 -281.5 106t-106.5 286v699h78v-687q0 -157 88 -245.5t238 -88.5q156 0 258 104t102 273v644h78z" />
    <glyph glyph-name="Uogonek" unicode="&#x172;" horiz-adv-x="1334" 
d="M898 -395q-89 0 -146.5 50t-57.5 127q0 127 148 226v4q-80 -33 -175 -33q-247 0 -393 141.5t-146 380.5v942h79v-939q0 -208 124.5 -329.5t335.5 -121.5t335.5 121.5t124.5 329.5v939h79v-942q0 -291 -236 -456q-102 -68 -151 -128.5t-49 -122.5q0 -53 39 -87t100 -34
q47 0 68 7v-64q-35 -11 -79 -11z" />
    <glyph glyph-name="uogonek" unicode="&#x173;" horiz-adv-x="1074" 
d="M952 -384q-33 -11 -79 -11q-89 0 -146.5 50t-57.5 127q0 74 55.5 134.5t157.5 100.5v218h-3q-36 -110 -140.5 -179.5t-237.5 -69.5q-175 0 -281.5 106t-106.5 286v699h78v-687q0 -157 88 -245.5t238 -88.5q156 0 258 104t102 273v644h78v-1077l-9 -4q-201 -85 -201 -202
q0 -53 38.5 -87t99.5 -34q48 0 69 7v-64z" />
    <glyph glyph-name="Wcircumflex" unicode="&#x174;" horiz-adv-x="1803" 
d="M867 1843h68l271 -290h-83l-221 238h-2l-221 -238h-83zM899 1295l-384 -1295h-70l-403 1443h82l356 -1306h5l379 1306h74l380 -1306h5l355 1306h83l-403 -1443h-70l-384 1295h-5z" />
    <glyph glyph-name="wcircumflex" unicode="&#x175;" horiz-adv-x="1430" 
d="M746 1556l268 -303h-80l-217 249h-3l-217 -249h-81l268 303h62zM1422 1077l-314 -1077h-91l-301 976h-2l-301 -976h-91l-314 1077h82l277 -990h3l301 990h88l301 -990h3l277 990h82z" />
    <glyph glyph-name="Ycircumflex" unicode="&#x176;" horiz-adv-x="1172" 
d="M626 0h-79v629l-525 814h93l469 -733h5l469 733h92l-524 -814v-629zM552 1843h68l271 -290h-83l-221 238h-2l-221 -238h-83z" />
    <glyph glyph-name="ycircumflex" unicode="&#x177;" horiz-adv-x="919" 
d="M180 -369q-32 0 -54 9v69q24 -8 57 -8q72 0 116 43.5t87 155.5l33 85l-412 1092h83l369 -1001h2l369 1001h82l-423 -1126q-72 -192 -133.5 -256t-175.5 -64zM491 1555l268 -303h-80l-217 249h-3l-217 -249h-81l268 303h62z" />
    <glyph glyph-name="Ydieresis" unicode="&#x178;" horiz-adv-x="1172" 
d="M626 0h-79v629l-525 814h93l469 -733h5l469 733h92l-524 -814v-629zM434 1563q-28 0 -48 19.5t-20 47.5q0 27 20 46.5t48 19.5q27 0 47 -19.5t20 -46.5q0 -28 -20 -47.5t-47 -19.5zM738 1563q-27 0 -47 19.5t-20 47.5q0 27 20 46.5t47 19.5q28 0 48 -19.5t20 -46.5
q0 -28 -20 -47.5t-48 -19.5z" />
    <glyph glyph-name="Zacute" unicode="&#x179;" horiz-adv-x="1173" 
d="M619 1553h-78l279 290h96zM71 0v62l925 1303v5h-896v73h997v-62l-923 -1303v-5h928v-73h-1031z" />
    <glyph glyph-name="zacute" unicode="&#x17a;" horiz-adv-x="928" 
d="M484 1252h-74l230 303h93zM66 0v65l704 942v2h-704v68h795v-66l-705 -941v-2h706v-68h-796z" />
    <glyph glyph-name="Zdotaccent" unicode="&#x17b;" horiz-adv-x="1173" 
d="M587 1563q-32 0 -54.5 22.5t-22.5 53.5t22.5 53.5t54.5 22.5t54.5 -22.5t22.5 -53.5t-22.5 -53.5t-54.5 -22.5zM71 0v62l925 1303v5h-896v73h997v-62l-923 -1303v-5h928v-73h-1031z" />
    <glyph glyph-name="zdotaccent" unicode="&#x17c;" horiz-adv-x="928" 
d="M464 1255q-32 0 -55 23t-23 54t23 54t55 23t55 -23t23 -54t-23 -54t-55 -23zM66 0v65l704 942v2h-704v68h795v-66l-705 -941v-2h706v-68h-796z" />
    <glyph glyph-name="Zcaron" unicode="&#x17d;" horiz-adv-x="1173" 
d="M71 0v62l925 1303v5h-896v73h997v-62l-923 -1303v-5h928v-73h-1031zM553 1553l-271 290h83l221 -239h2l221 239h83l-271 -290h-68z" />
    <glyph glyph-name="zcaron" unicode="&#x17e;" horiz-adv-x="928" 
d="M495 1252h-62l-268 303h81l217 -249h3l217 249h80zM66 0v65l704 942v2h-704v68h795v-66l-705 -941v-2h706v-68h-796z" />
    <glyph glyph-name="florin" unicode="&#x192;" horiz-adv-x="1192" 
d="M1149 1429v-74q-60 38 -166 38q-122 0 -190.5 -67t-92.5 -213l-48 -289h416v-68h-427l-72 -429q-30 -178 -115.5 -262.5t-236.5 -84.5q-45 0 -95.5 10.5t-78.5 26.5v76q29 -18 77.5 -30t91.5 -12q121 0 187 68t92 217l70 420h-396v68h408l49 296q30 176 117 260t238 84
q47 0 96.5 -10t75.5 -25z" />
    <glyph glyph-name="Ohorn" unicode="&#x1a0;" horiz-adv-x="1420" 
d="M710 -21q-296 0 -469.5 200.5t-173.5 542.5q0 340 174 541t469 201q62 0 176.5 -12.5t210.5 -12.5q104 0 142.5 26.5t38.5 97.5v116h73v-136q0 -88 -54 -128t-174 -40h-89v-5q150 -79 234.5 -251t84.5 -397q0 -342 -173.5 -542.5t-469.5 -200.5zM710 53q257 0 409.5 181
t152.5 488t-152.5 487.5t-409.5 180.5q-258 0 -410 -181t-152 -487q0 -307 152.5 -488t409.5 -181z" />
    <glyph glyph-name="ohorn" unicode="&#x1a1;" horiz-adv-x="1101" 
d="M544 56q184 0 292.5 130.5t108.5 351.5q0 220 -109 351t-292 131q-184 0 -292.5 -130.5t-108.5 -351.5t108.5 -351.5t292.5 -130.5zM1024 538q0 -251 -131 -401.5t-349 -150.5q-217 0 -348 150.5t-131 401.5t130.5 402t348.5 151q61 0 151.5 -10t140.5 -10q71 0 99 23
t28 81v127h73v-148q0 -144 -163 -144h-74v-4q104 -50 164.5 -175t60.5 -293z" />
    <glyph glyph-name="Uhorn" unicode="&#x1af;" horiz-adv-x="1474" 
d="M667 -21q-247 0 -393 141.5t-146 380.5v942h79v-939q0 -204 126 -327.5t334 -123.5t334 123.5t126 327.5v939h137q114 0 114 102v157h74v-173q0 -71 -45 -110t-127 -39h-74v-879q0 -239 -146.5 -380.5t-392.5 -141.5z" />
    <glyph glyph-name="uhorn" unicode="&#x1b0;" horiz-adv-x="1189" 
d="M879 235q-36 -110 -140.5 -179.5t-237.5 -69.5q-175 0 -281.5 106t-106.5 286v699h78v-687q0 -158 88 -246t238 -88q156 0 258 103.5t102 273.5v644h127q114 0 114 101v131h74v-146q0 -71 -45 -110.5t-127 -39.5h-65v-1013h-73v235h-3z" />
    <glyph glyph-name="u01C4" unicode="&#x1c4;" horiz-adv-x="2505" 
d="M128 1443h449q328 0 508 -189t180 -532q0 -344 -180 -533t-508 -189h-449v1443zM208 1370v-1297h365q295 0 453.5 168.5t158.5 479.5q0 313 -159 481t-453 168h-365zM1403 0v62l925 1303v5h-896v73h997v-62l-923 -1303v-5h928v-73h-1031zM1885 1553l-271 290h83l221 -239
h2l221 239h83l-271 -290h-68z" />
    <glyph glyph-name="u01C5" unicode="&#x1c5;" horiz-adv-x="2260" 
d="M128 1443h449q328 0 508 -189t180 -532q0 -344 -180 -533t-508 -189h-449v1443zM208 1370v-1297h365q295 0 453.5 168.5t158.5 479.5q0 313 -159 481t-453 168h-365zM1827 1252h-62l-268 303h81l217 -249h3l217 249h80zM1398 0v65l704 942v2h-704v68h795v-66l-705 -941
v-2h706v-68h-796z" />
    <glyph glyph-name="u01C6" unicode="&#x1c6;" horiz-adv-x="2064" 
d="M525 -14q-203 0 -331.5 153.5t-128.5 398.5q0 246 128.5 399.5t330.5 153.5q146 0 256 -84.5t147 -213.5h2v713h78v-1506h-73v290h-3q-38 -134 -148.5 -219t-257.5 -85zM534 1020q-173 0 -281.5 -133t-108.5 -348t108.5 -349t281.5 -134q174 0 285 134.5t111 347.5
t-111 347.5t-285 134.5zM1631 1252h-62l-268 303h81l217 -249h3l217 249h80zM1202 0v65l704 942v2h-704v68h795v-66l-705 -941v-2h706v-68h-796z" />
    <glyph glyph-name="u01C7" unicode="&#x1c7;" horiz-adv-x="1968" 
d="M1058 320h78q7 -119 92 -194.5t214 -75.5q150 0 234.5 89t84.5 250v1054h80v-1058q0 -189 -106.5 -299t-291.5 -110q-165 0 -273 96.5t-112 247.5zM964 73v-73h-836v1443h79v-1370h757z" />
    <glyph glyph-name="u01C8" unicode="&#x1c8;" horiz-adv-x="1354" 
d="M1224 1077v-1165q0 -145 -68 -210t-210 -65h-30v69h27q107 0 155 47.5t48 154.5v1169h78zM1185 1341q-26 0 -44 18t-18 43q0 26 18 44t44 18t44.5 -18t18.5 -44q0 -25 -18.5 -43t-44.5 -18zM964 73v-73h-836v1443h79v-1370h757z" />
    <glyph glyph-name="u01C9" unicode="&#x1c9;" horiz-adv-x="673" 
d="M543 1077v-1165q0 -145 -68 -210t-210 -65h-30v69h27q107 0 155 47.5t48 154.5v1169h78zM504 1341q-26 0 -44 18t-18 43q0 26 18 44t44 18t44.5 -18t18.5 -44q0 -25 -18.5 -43t-44.5 -18zM129 0v1506h78v-1506h-78z" />
    <glyph glyph-name="u01CA" unicode="&#x1ca;" horiz-adv-x="2293" 
d="M1382 320h78q7 -119 92 -194.5t214 -75.5q150 0 234.5 89t84.5 250v1054h80v-1058q0 -189 -106.5 -299t-291.5 -110q-165 0 -273 96.5t-112 247.5zM206 0h-78v1443h82l919 -1299h6v1299h79v-1443h-75l-927 1307h-6v-1307z" />
    <glyph glyph-name="u01CB" unicode="&#x1cb;" horiz-adv-x="1678" 
d="M1548 1077v-1165q0 -145 -68 -210t-210 -65h-30v69h27q107 0 155 47.5t48 154.5v1169h78zM1509 1341q-26 0 -44 18t-18 43q0 26 18 44t44 18t44.5 -18t18.5 -44q0 -25 -18.5 -43t-44.5 -18zM206 0h-78v1443h82l919 -1299h6v1299h79v-1443h-75l-927 1307h-6v-1307z" />
    <glyph glyph-name="u01CC" unicode="&#x1cc;" horiz-adv-x="1410" 
d="M1281 1077v-1165q0 -145 -68 -210t-210 -65h-30v69h27q107 0 155 47.5t48 154.5v1169h78zM1242 1341q-26 0 -44 18t-18 43q0 26 18 44t44 18t44.5 -18t18.5 -44q0 -25 -18.5 -43t-44.5 -18zM119 0v1077h73v-237h3q38 115 137 183t235 68q178 0 286 -107.5t108 -288.5
v-695h-78v686q0 155 -90.5 244.5t-242.5 89.5q-158 0 -255.5 -105.5t-97.5 -273.5v-641h-78z" />
    <glyph glyph-name="Acaron" unicode="&#x1cd;" horiz-adv-x="1221" 
d="M1115 0l-180 481h-649l-179 -481h-86l550 1443h80l549 -1443h-85zM608 1340l-296 -788h598l-297 788h-5zM577 1553l-271 290h83l221 -239h2l221 239h83l-271 -290h-68z" />
    <glyph glyph-name="acaron" unicode="&#x1ce;" horiz-adv-x="1030" 
d="M453 55q161 0 274 100.5t113 243.5v161l-359 -27q-155 -11 -236 -73t-81 -170q0 -103 81.5 -169t207.5 -66zM443 -14q-158 0 -257.5 84.5t-99.5 219.5q0 138 97.5 216t287.5 92l369 27v96q0 141 -81.5 220t-226.5 79q-137 0 -224 -67t-106 -189h-75q14 149 125 238
t281 89q177 0 280.5 -98t103.5 -267v-726h-75v232h-2q-40 -110 -150 -178t-247 -68zM563 1253h-62l-268 303h81l217 -249h3l217 249h80z" />
    <glyph glyph-name="Icaron" unicode="&#x1cf;" horiz-adv-x="335" 
d="M207 0h-79v1443h79v-1443zM133 1553l-271 290h83l221 -239h2l221 239h83l-271 -290h-68z" />
    <glyph glyph-name="icaron" unicode="&#x1d0;" horiz-adv-x="336" 
d="M199 1253h-62l-268 303h81l217 -249h3l217 249h80zM129 0v1077h78v-1077h-78z" />
    <glyph glyph-name="Ocaron" unicode="&#x1d1;" horiz-adv-x="1420" 
d="M676 1553l-271 290h83l221 -239h2l221 239h83l-271 -290h-68zM710 1464q295 0 469 -201t174 -541q0 -342 -173.5 -542.5t-469.5 -200.5t-469.5 200.5t-173.5 542.5q0 340 174 541t469 201zM710 1390q-258 0 -410 -181t-152 -487q0 -307 152.5 -488t409.5 -181t409.5 181
t152.5 488q0 306 -152.5 487t-409.5 181z" />
    <glyph glyph-name="ocaron" unicode="&#x1d2;" horiz-adv-x="1089" 
d="M575 1252h-62l-268 303h81l217 -249h3l217 249h80zM544 -14q-216 0 -347.5 150t-131.5 402q0 253 131.5 403t347.5 150q217 0 348.5 -150t131.5 -403q0 -252 -132 -402t-348 -150zM544 56q182 0 291.5 130.5t109.5 351.5q0 222 -109 352t-292 130t-292 -130t-109 -352
t109.5 -352t291.5 -130z" />
    <glyph glyph-name="Ucaron" unicode="&#x1d3;" horiz-adv-x="1332" 
d="M632 1553l-271 290h83l221 -239h2l221 239h83l-271 -290h-68zM207 1443v-939q0 -207 124 -329t336 -122t336 122t124 329v939h79v-942q0 -237 -145.5 -379.5t-393.5 -142.5t-393.5 142.5t-145.5 379.5v942h79z" />
    <glyph glyph-name="ucaron" unicode="&#x1d4;" horiz-adv-x="1074" 
d="M565 1252h-62l-268 303h81l217 -249h3l217 249h80zM955 1077v-1077h-73v235h-3q-36 -110 -140.5 -179.5t-237.5 -69.5q-175 0 -281.5 106t-106.5 286v699h78v-687q0 -157 88 -245.5t238 -88.5q156 0 258 104t102 273v644h78z" />
    <glyph glyph-name="Udieresismacron" unicode="&#x1d5;" horiz-adv-x="1332" 
d="M207 1443v-939q0 -207 124 -329t336 -122t336 122t124 329v939h79v-942q0 -237 -145.5 -379.5t-393.5 -142.5t-393.5 142.5t-145.5 379.5v942h79zM517 1691q25 0 44 -18.5t19 -44.5t-18.5 -44.5t-44.5 -18.5t-45 18.5t-19 44.5t19 44.5t45 18.5zM376 1919h580v-57h-580
v57zM815 1691q26 0 45 -18.5t19 -44.5t-19 -44.5t-45 -18.5t-44.5 18.5t-18.5 44.5t19 44.5t44 18.5z" />
    <glyph glyph-name="udieresismacron" unicode="&#x1d6;" horiz-adv-x="1074" 
d="M955 1077v-1077h-73v235h-3q-36 -110 -140.5 -179.5t-237.5 -69.5q-175 0 -281.5 106t-106.5 286v699h78v-687q0 -157 88 -245.5t238 -88.5q156 0 258 104t102 273v644h78zM382 1255q-27 0 -46.5 19t-19.5 46t19.5 46t46.5 19t46.5 -19t19.5 -46t-19.5 -46t-46.5 -19z
M686 1255q-27 0 -46.5 19t-19.5 46t19.5 46t46.5 19q28 0 47 -19t19 -46t-19 -46t-47 -19zM827 1658v-58h-596v58h596z" />
    <glyph glyph-name="Udieresisacute" unicode="&#x1d7;" horiz-adv-x="1332" 
d="M617 1776l207 203h91l-224 -203h-74zM517 1565q-26 0 -45 18.5t-19 44.5t19 44.5t45 18.5q25 0 44 -18.5t19 -44.5t-18.5 -44.5t-44.5 -18.5zM815 1565q-26 0 -44.5 18.5t-18.5 44.5t19 44.5t44 18.5q26 0 45 -18.5t19 -44.5t-19 -44.5t-45 -18.5zM207 1443v-939
q0 -207 124 -329t336 -122t336 122t124 329v939h79v-942q0 -237 -145.5 -379.5t-393.5 -142.5t-393.5 142.5t-145.5 379.5v942h79z" />
    <glyph glyph-name="udieresisacute" unicode="&#x1d8;" horiz-adv-x="1074" 
d="M487 1529l222 284h93l-240 -284h-75zM382 1255q-28 0 -48 19.5t-20 47.5q0 27 20 46.5t48 19.5q27 0 47 -19.5t20 -46.5q0 -28 -20 -47.5t-47 -19.5zM686 1255q-27 0 -47 19.5t-20 47.5q0 27 20 46.5t47 19.5q28 0 48 -19.5t20 -46.5q0 -28 -20 -47.5t-48 -19.5z
M955 1077v-1077h-73v235h-3q-36 -110 -140.5 -179.5t-237.5 -69.5q-175 0 -281.5 106t-106.5 286v699h78v-687q0 -157 88 -245.5t238 -88.5q156 0 258 104t102 273v644h78z" />
    <glyph glyph-name="Udieresiscaron" unicode="&#x1d9;" horiz-adv-x="1332" 
d="M631 1776l-266 203h93l205 -157h6l205 157h93l-266 -203h-70zM517 1691q25 0 44 -18.5t19 -44.5t-18.5 -44.5t-44.5 -18.5t-45 18.5t-19 44.5t19 44.5t45 18.5zM815 1691q26 0 45 -18.5t19 -44.5t-19 -44.5t-45 -18.5t-44.5 18.5t-18.5 44.5t19 44.5t44 18.5zM207 1443
v-939q0 -207 124 -329t336 -122t336 122t124 329v939h79v-942q0 -237 -145.5 -379.5t-393.5 -142.5t-393.5 142.5t-145.5 379.5v942h79z" />
    <glyph glyph-name="udieresiscaron" unicode="&#x1da;" horiz-adv-x="1074" 
d="M382 1255q-28 0 -48 19.5t-20 47.5q0 27 20 46.5t48 19.5q27 0 47 -19.5t20 -46.5q0 -28 -20 -47.5t-47 -19.5zM686 1255q-27 0 -47 19.5t-20 47.5q0 27 20 46.5t47 19.5q28 0 48 -19.5t20 -46.5q0 -28 -20 -47.5t-48 -19.5zM571 1529h-74l-264 284h80l219 -237h4
l219 237h80zM955 1077v-1077h-73v235h-3q-36 -110 -140.5 -179.5t-237.5 -69.5q-175 0 -281.5 106t-106.5 286v699h78v-687q0 -157 88 -245.5t238 -88.5q156 0 258 104t102 273v644h78z" />
    <glyph glyph-name="Udieresisgrave" unicode="&#x1db;" horiz-adv-x="1332" 
d="M715 1776h-74l-224 203h91zM517 1565q-26 0 -45 18.5t-19 44.5t19 44.5t45 18.5q25 0 44 -18.5t19 -44.5t-18.5 -44.5t-44.5 -18.5zM815 1565q-26 0 -44.5 18.5t-18.5 44.5t19 44.5t44 18.5q26 0 45 -18.5t19 -44.5t-19 -44.5t-45 -18.5zM207 1443v-939q0 -207 124 -329
t336 -122t336 122t124 329v939h79v-942q0 -237 -145.5 -379.5t-393.5 -142.5t-393.5 142.5t-145.5 379.5v942h79z" />
    <glyph glyph-name="udieresisgrave" unicode="&#x1dc;" horiz-adv-x="1074" 
d="M581 1529h-75l-240 284h93zM382 1255q-28 0 -48 19.5t-20 47.5q0 27 20 46.5t48 19.5q27 0 47 -19.5t20 -46.5q0 -28 -20 -47.5t-47 -19.5zM686 1255q-27 0 -47 19.5t-20 47.5q0 27 20 46.5t47 19.5q28 0 48 -19.5t20 -46.5q0 -28 -20 -47.5t-48 -19.5zM955 1077v-1077
h-73v235h-3q-36 -110 -140.5 -179.5t-237.5 -69.5q-175 0 -281.5 106t-106.5 286v699h78v-687q0 -157 88 -245.5t238 -88.5q156 0 258 104t102 273v644h78z" />
    <glyph glyph-name="Adieresismacron" unicode="&#x1de;" horiz-adv-x="1221" 
d="M1115 0l-180 481h-649l-179 -481h-86l550 1443h80l549 -1443h-85zM608 1340l-296 -788h598l-297 788h-5zM462 1691q26 0 44.5 -18.5t18.5 -44.5t-18.5 -44.5t-44.5 -18.5t-45 18.5t-19 44.5t19 44.5t45 18.5zM321 1919h580v-57h-580v57zM760 1691q26 0 45 -18.5t19 -44.5
t-19 -44.5t-45 -18.5t-44.5 18.5t-18.5 44.5t18.5 44.5t44.5 18.5z" />
    <glyph glyph-name="adieresismacron" unicode="&#x1df;" horiz-adv-x="1030" 
d="M453 55q161 0 274 100.5t113 243.5v161l-359 -27q-155 -11 -236 -73t-81 -170q0 -103 81.5 -169t207.5 -66zM443 -14q-158 0 -257.5 84.5t-99.5 219.5q0 138 97.5 216t287.5 92l369 27v96q0 141 -81.5 220t-226.5 79q-137 0 -224 -67t-106 -189h-75q14 149 125 238
t281 89q177 0 280.5 -98t103.5 -267v-726h-75v232h-2q-40 -110 -150 -178t-247 -68zM380 1256q-27 0 -46.5 19t-19.5 46t19.5 46t46.5 19t46.5 -19t19.5 -46t-19.5 -46t-46.5 -19zM684 1256q-27 0 -46.5 19t-19.5 46t19.5 46t46.5 19q28 0 47 -19t19 -46t-19 -46t-47 -19z
M825 1659v-58h-596v58h596z" />
    <glyph glyph-name="Adotmacron" unicode="&#x1e0;" horiz-adv-x="1221" 
d="M1115 0l-180 481h-649l-179 -481h-86l550 1443h80l549 -1443h-85zM608 1340l-296 -788h598l-297 788h-5zM611 1560q-31 0 -53.5 22t-22.5 53t22.5 53t53.5 22t53.5 -22t22.5 -53t-22.5 -53t-53.5 -22zM901 1919v-57h-580v57h580z" />
    <glyph glyph-name="adotmacron" unicode="&#x1e1;" horiz-adv-x="1030" 
d="M453 55q161 0 274 100.5t113 243.5v161l-359 -27q-155 -11 -236 -73t-81 -170q0 -103 81.5 -169t207.5 -66zM443 -14q-158 0 -257.5 84.5t-99.5 219.5q0 138 97.5 216t287.5 92l369 27v96q0 141 -81.5 220t-226.5 79q-137 0 -224 -67t-106 -189h-75q14 149 125 238
t281 89q177 0 280.5 -98t103.5 -267v-726h-75v232h-2q-40 -110 -150 -178t-247 -68zM532 1256q-32 0 -54.5 23t-22.5 54t23 53.5t54 22.5t54 -22.5t23 -53.5t-22.5 -54t-54.5 -23zM825 1659v-58h-596v58h596z" />
    <glyph glyph-name="AEmacron" unicode="&#x1e2;" horiz-adv-x="1908" 
d="M815 1373l-441 -881h625v881h-184zM999 0v422h-659l-210 -422h-84l722 1443h1021v-73h-712v-597h676v-72h-676v-628h712v-73h-790zM1621 1679v-57h-580v57h580z" />
    <glyph glyph-name="aemacron" unicode="&#x1e3;" horiz-adv-x="1830" 
d="M1318 -14q-155 0 -266 78t-160 225h-6q-44 -141 -160.5 -222t-272.5 -81q-165 0 -266 83t-101 217q0 132 97 207t284 86l373 24v127q0 136 -84 213t-229 77q-138 0 -226 -68t-104 -188h-76q15 148 125.5 237.5t279.5 89.5q153 0 254.5 -76.5t115.5 -210.5h6
q47 130 155 208.5t259 78.5q206 0 327.5 -139.5t121.5 -373.5v-46h-848v-9q0 -212 109.5 -339.5t292.5 -127.5q140 0 233 67.5t118 177.5h79q-28 -140 -144 -227.5t-287 -87.5zM1312 1021q-170 0 -277.5 -116.5t-116.5 -306.5h768q-1 191 -103 307t-271 116zM454 55
q161 0 273.5 101.5t112.5 246.5v134l-362 -23q-154 -10 -234 -68t-80 -159q0 -102 80.5 -167t209.5 -65zM1217 1366v-58h-596v58h596z" />
    <glyph glyph-name="Gcaron" unicode="&#x1e6;" horiz-adv-x="1358" 
d="M665 1553l-271 290h83l221 -239h2l221 239h83l-271 -290h-68zM1281 571q0 -276 -155.5 -434t-426.5 -158q-186 0 -330 94t-223 264.5t-79 392.5q0 331 173.5 532.5t458.5 201.5q217 0 374.5 -120t198.5 -317h-81q-43 166 -176.5 264.5t-315.5 98.5q-250 0 -400.5 -180
t-150.5 -479q0 -304 152 -491t399 -187q232 0 367.5 136.5t135.5 369.5v83h-503v72h582v-143z" />
    <glyph glyph-name="gcaron" unicode="&#x1e7;" horiz-adv-x="1119" 
d="M589 1253h-62l-268 303h81l217 -249h3l217 249h80zM529 59q174 0 283.5 134t109.5 346q0 213 -109.5 347t-283.5 134q-172 0 -278.5 -133t-106.5 -348q0 -214 106.5 -347t278.5 -133zM545 -361q-170 0 -283 68t-135 180h81q21 -80 113 -129.5t229 -49.5q167 0 269.5 79
t102.5 215v285h-2q-37 -130 -146 -214.5t-254 -84.5q-203 0 -329 152.5t-126 398.5q0 247 126.5 399.5t329.5 152.5q145 0 254.5 -85t148.5 -217h3v288h73v-1070q0 -172 -125 -270t-330 -98z" />
    <glyph glyph-name="Kcaron" unicode="&#x1e8;" horiz-adv-x="1142" 
d="M207 0h-79v1443h79v-806h6l750 806h101l-594 -636l660 -807h-101l-615 751l-207 -223v-528zM510 1553l-271 290h83l221 -239h2l221 239h83l-271 -290h-68z" />
    <glyph glyph-name="kcaron" unicode="&#x1e9;" horiz-adv-x="938" 
d="M208 524l609 553h102l-507 -464l511 -613h-95l-474 565l-147 -132v-433h-78v1506h78v-982h1zM134 1616l-271 290h83l221 -239h2l221 239h83l-271 -290h-68z" />
    <glyph glyph-name="Oogonek" unicode="&#x1ea;" horiz-adv-x="1420" 
d="M953 -395q-89 0 -147 50t-58 127q0 127 149 226v4q-81 -33 -187 -33q-296 0 -469.5 200.5t-173.5 542.5q0 340 174 541t469 201t469 -201t174 -541q0 -450 -318 -670q-114 -76 -162 -134.5t-48 -123.5q0 -53 38.5 -87t99.5 -34q48 0 69 7v-64q-35 -11 -79 -11zM710 1390
q-258 0 -410 -181t-152 -487q0 -307 152.5 -488t409.5 -181t409.5 181t152.5 488q0 306 -152.5 487t-409.5 181z" />
    <glyph glyph-name="oogonek" unicode="&#x1eb;" horiz-adv-x="1089" 
d="M718 -395q-89 0 -146.5 50t-57.5 127q0 124 142 221v4q-20 -8 -56.5 -14.5t-55.5 -6.5q-216 0 -347.5 150t-131.5 402q0 253 131.5 403t347.5 150q217 0 348.5 -150t131.5 -403q0 -169 -64 -297.5t-178 -202.5q-192 -119 -192 -244q0 -53 39 -87t100 -34q46 0 69 7v-64
q-37 -11 -80 -11zM544 56q182 0 291.5 130.5t109.5 351.5q0 222 -109 352t-292 130t-292 -130t-109 -352t109.5 -352t291.5 -130z" />
    <glyph glyph-name="Oogonekmacron" unicode="&#x1ec;" horiz-adv-x="1420" 
d="M953 -395q-89 0 -147 50t-58 127q0 127 149 226v4q-81 -33 -187 -33q-296 0 -469.5 200.5t-173.5 542.5q0 340 174 541t469 201t469 -201t174 -541q0 -450 -318 -670q-114 -76 -162 -134.5t-48 -123.5q0 -53 38.5 -87t99.5 -34q48 0 69 7v-64q-35 -11 -79 -11zM710 1390
q-258 0 -410 -181t-152 -487q0 -307 152.5 -488t409.5 -181t409.5 181t152.5 488q0 306 -152.5 487t-409.5 181zM1000 1679v-57h-580v57h580z" />
    <glyph glyph-name="oogonekmacron" unicode="&#x1ed;" horiz-adv-x="1089" 
d="M837 1365v-58h-596v58h596zM718 -395q-89 0 -146.5 50t-57.5 127q0 124 142 221v4q-20 -8 -56.5 -14.5t-55.5 -6.5q-216 0 -347.5 150t-131.5 402q0 253 131.5 403t347.5 150q217 0 348.5 -150t131.5 -403q0 -169 -64 -297.5t-178 -202.5q-192 -119 -192 -244
q0 -53 39 -87t100 -34q46 0 69 7v-64q-37 -11 -80 -11zM544 56q182 0 291.5 130.5t109.5 351.5q0 222 -109 352t-292 130t-292 -130t-109 -352t109.5 -352t291.5 -130z" />
    <glyph glyph-name="u01F1" unicode="&#x1f1;" horiz-adv-x="2505" 
d="M1403 0v62l925 1303v5h-896v73h997v-62l-923 -1303v-5h928v-73h-1031zM128 1443h449q328 0 508 -189t180 -532q0 -344 -180 -533t-508 -189h-449v1443zM208 1370v-1297h365q295 0 453.5 168.5t158.5 479.5q0 313 -159 481t-453 168h-365z" />
    <glyph glyph-name="u01F2" unicode="&#x1f2;" horiz-adv-x="2260" 
d="M1398 0v65l704 942v2h-704v68h795v-66l-705 -941v-2h706v-68h-796zM128 1443h449q328 0 508 -189t180 -532q0 -344 -180 -533t-508 -189h-449v1443zM208 1370v-1297h365q295 0 453.5 168.5t158.5 479.5q0 313 -159 481t-453 168h-365z" />
    <glyph glyph-name="u01F3" unicode="&#x1f3;" horiz-adv-x="2064" 
d="M1202 0v65l704 942v2h-704v68h795v-66l-705 -941v-2h706v-68h-796zM525 -14q-203 0 -331.5 153.5t-128.5 398.5q0 246 128.5 399.5t330.5 153.5q146 0 256 -84.5t147 -213.5h2v713h78v-1506h-73v290h-3q-38 -134 -148.5 -219t-257.5 -85zM534 1020q-173 0 -281.5 -133
t-108.5 -348t108.5 -349t281.5 -134q174 0 285 134.5t111 347.5t-111 347.5t-285 134.5z" />
    <glyph glyph-name="Gacute" unicode="&#x1f4;" horiz-adv-x="1358" 
d="M731 1553h-78l279 290h96zM1281 571q0 -276 -155.5 -434t-426.5 -158q-186 0 -330 94t-223 264.5t-79 392.5q0 331 173.5 532.5t458.5 201.5q217 0 374.5 -120t198.5 -317h-81q-43 166 -176.5 264.5t-315.5 98.5q-250 0 -400.5 -180t-150.5 -479q0 -304 152 -491
t399 -187q232 0 367.5 136.5t135.5 369.5v83h-503v72h582v-143z" />
    <glyph glyph-name="gacute" unicode="&#x1f5;" horiz-adv-x="1119" 
d="M578 1253h-74l230 303h93zM529 59q174 0 283.5 134t109.5 346q0 213 -109.5 347t-283.5 134q-172 0 -278.5 -133t-106.5 -348q0 -214 106.5 -347t278.5 -133zM545 -361q-170 0 -283 68t-135 180h81q21 -80 113 -129.5t229 -49.5q167 0 269.5 79t102.5 215v285h-2
q-37 -130 -146 -214.5t-254 -84.5q-203 0 -329 152.5t-126 398.5q0 247 126.5 399.5t329.5 152.5q145 0 254.5 -85t148.5 -217h3v288h73v-1070q0 -172 -125 -270t-330 -98z" />
    <glyph glyph-name="Ngrave" unicode="&#x1f8;" horiz-adv-x="1341" 
d="M640 1553l-297 290h95l280 -290h-78zM206 0h-78v1443h82l919 -1299h6v1299h79v-1443h-75l-927 1307h-6v-1307z" />
    <glyph glyph-name="ngrave" unicode="&#x1f9;" horiz-adv-x="1074" 
d="M594 1253h-74l-249 303h93zM119 0v1077h73v-237h3q38 115 137 183t235 68q178 0 286 -107.5t108 -288.5v-695h-78v686q0 155 -90.5 244.5t-242.5 89.5q-158 0 -255.5 -105.5t-97.5 -273.5v-641h-78z" />
    <glyph glyph-name="Aringacute" unicode="&#x1fa;" horiz-adv-x="1221" 
d="M1115 0l-180 481h-649l-179 -481h-86l550 1443h80l549 -1443h-85zM608 1340l-296 -788h598l-297 788h-5zM611 1498q-71 0 -121.5 51t-50.5 122t50.5 122t121.5 51t121.5 -51t50.5 -122t-50.5 -122t-121.5 -51zM611 1546q52 0 88 36t36 89q0 52 -36 88.5t-88 36.5
t-88 -36.5t-36 -88.5q0 -53 36 -89t88 -36zM719 2086h88l-167 -169h-67z" />
    <glyph glyph-name="aringacute" unicode="&#x1fb;" horiz-adv-x="1030" 
d="M453 55q161 0 274 100.5t113 243.5v161l-359 -27q-155 -11 -236 -73t-81 -170q0 -103 81.5 -169t207.5 -66zM443 -14q-158 0 -257.5 84.5t-99.5 219.5q0 138 97.5 216t287.5 92l369 27v96q0 141 -81.5 220t-226.5 79q-137 0 -224 -67t-106 -189h-75q14 149 125 238
t281 89q177 0 280.5 -98t103.5 -267v-726h-75v232h-2q-40 -110 -150 -178t-247 -68zM532 1220q-71 0 -121.5 51t-50.5 122t50.5 122t121.5 51t121.5 -51t50.5 -122t-50.5 -122t-121.5 -51zM408 1393q0 -52 36 -88.5t88 -36.5t88 36.5t36 88.5t-36 88.5t-88 36.5t-88 -36.5
t-36 -88.5zM492 1649l146 172h82l-161 -172h-67z" />
    <glyph glyph-name="AEacute" unicode="&#x1fc;" horiz-adv-x="1908" 
d="M1363 1553h-78l279 290h96zM815 1373l-441 -881h625v881h-184zM999 0v422h-659l-210 -422h-84l722 1443h1021v-73h-712v-597h676v-72h-676v-628h712v-73h-790z" />
    <glyph glyph-name="aeacute" unicode="&#x1fd;" horiz-adv-x="1830" 
d="M944 1253h-74l230 303h93zM1318 -14q-155 0 -266 78t-160 225h-6q-44 -141 -160.5 -222t-272.5 -81q-165 0 -266 83t-101 217q0 132 97 207t284 86l373 24v127q0 136 -84 213t-229 77q-138 0 -226 -68t-104 -188h-76q15 148 125.5 237.5t279.5 89.5q153 0 254.5 -76.5
t115.5 -210.5h6q47 130 155 208.5t259 78.5q206 0 327.5 -139.5t121.5 -373.5v-46h-848v-9q0 -212 109.5 -339.5t292.5 -127.5q140 0 233 67.5t118 177.5h79q-28 -140 -144 -227.5t-287 -87.5zM1312 1021q-170 0 -277.5 -116.5t-116.5 -306.5h768q-1 191 -103 307t-271 116z
M454 55q161 0 273.5 101.5t112.5 246.5v134l-362 -23q-154 -10 -234 -68t-80 -159q0 -102 80.5 -167t209.5 -65z" />
    <glyph glyph-name="Oslashacute" unicode="&#x1fe;" horiz-adv-x="1420" 
d="M1081 1843l-297 -290h-78l279 290h96zM1136 1189l-784 -1008q143 -128 358 -128q257 0 409.5 181t152.5 488q0 287 -136 467zM308 226l787 1010q-149 154 -385 154q-258 0 -410 -181t-152 -487q0 -316 160 -496zM1338 1449l-151 -195q166 -200 166 -532
q0 -342 -173.5 -542.5t-469.5 -200.5q-243 0 -407 139l-157 -202l-51 37l162 208q-190 201 -190 561q0 340 174 541t469 201q265 0 434 -164l144 184z" />
    <glyph glyph-name="oslashacute" unicode="&#x1ff;" horiz-adv-x="1089" 
d="M813 1556l-249 -303h-74l230 303h93zM843 882l-534 -751q98 -75 235 -75q182 0 291.5 130.5t109.5 351.5q0 214 -102 344zM263 174l537 753q-104 93 -256 93q-183 0 -292 -130t-109 -352q0 -231 120 -364zM997 1099l-109 -153q136 -152 136 -408q0 -252 -132 -402
t-348 -150q-161 0 -277 85l-110 -154l-53 35l114 160q-153 151 -153 426q0 253 131.5 403t347.5 150q176 0 300 -102l102 143z" />
    <glyph glyph-name="Adblgrave" unicode="&#x200;" horiz-adv-x="1221" 
d="M1115 0l-180 481h-649l-179 -481h-86l550 1443h80l549 -1443h-85zM608 1340l-296 -788h598l-297 788h-5zM700 1553l-298 290h93l280 -290h-75zM433 1553l-297 290h92l280 -290h-75z" />
    <glyph glyph-name="adblgrave" unicode="&#x201;" horiz-adv-x="1030" 
d="M453 55q161 0 274 100.5t113 243.5v161l-359 -27q-155 -11 -236 -73t-81 -170q0 -103 81.5 -169t207.5 -66zM443 -14q-158 0 -257.5 84.5t-99.5 219.5q0 138 97.5 216t287.5 92l369 27v96q0 141 -81.5 220t-226.5 79q-137 0 -224 -67t-106 -189h-75q14 149 125 238
t281 89q177 0 280.5 -98t103.5 -267v-726h-75v232h-2q-40 -110 -150 -178t-247 -68zM447 1253h-72l-247 303h92zM691 1253h-72l-247 303h92z" />
    <glyph glyph-name="Ainvertedbreve" unicode="&#x202;" horiz-adv-x="1221" 
d="M1115 0l-180 481h-649l-179 -481h-86l550 1443h80l549 -1443h-85zM608 1340l-296 -788h598l-297 788h-5zM342 1553q0 106 75.5 171t193.5 65t193.5 -65t75.5 -171h-61q0 77 -58 128t-150 51t-150 -51t-58 -128h-61z" />
    <glyph glyph-name="ainvertedbreve" unicode="&#x203;" horiz-adv-x="1030" 
d="M453 55q161 0 274 100.5t113 243.5v161l-359 -27q-155 -11 -236 -73t-81 -170q0 -103 81.5 -169t207.5 -66zM443 -14q-158 0 -257.5 84.5t-99.5 219.5q0 138 97.5 216t287.5 92l369 27v96q0 141 -81.5 220t-226.5 79q-137 0 -224 -67t-106 -189h-75q14 149 125 238
t281 89q177 0 280.5 -98t103.5 -267v-726h-75v232h-2q-40 -110 -150 -178t-247 -68zM260 1253q0 117 75.5 185t196.5 68t196.5 -68t75.5 -185h-62q0 88 -58 142t-152 54t-152 -54t-58 -142h-62z" />
    <glyph glyph-name="Edblgrave" unicode="&#x204;" horiz-adv-x="1068" 
d="M637 1553l-298 290h93l280 -290h-75zM370 1553l-297 290h92l280 -290h-75zM969 73v-73h-841v1443h841v-73h-762v-594h726v-72h-726v-631h762z" />
    <glyph glyph-name="edblgrave" unicode="&#x205;" horiz-adv-x="1062" 
d="M536 1021q-168 0 -275 -118t-116 -311h773q-1 191 -106.5 310t-275.5 119zM905 301h79q-27 -139 -145.5 -227t-293.5 -88q-221 0 -350.5 146.5t-129.5 404.5q0 250 129.5 402t342.5 152q208 0 334 -142.5t126 -377.5v-45h-853v-4q0 -218 109 -342t293 -124
q144 0 239.5 68t119.5 177zM452 1253h-72l-247 303h92zM696 1253h-72l-247 303h92z" />
    <glyph glyph-name="Einvertedbreve" unicode="&#x206;" horiz-adv-x="1068" 
d="M969 73v-73h-841v1443h841v-73h-762v-594h726v-72h-726v-631h762zM279 1553q0 106 75.5 171t193.5 65t193.5 -65t75.5 -171h-61q0 77 -58 128t-150 51t-150 -51t-58 -128h-61z" />
    <glyph glyph-name="einvertedbreve" unicode="&#x207;" horiz-adv-x="1062" 
d="M536 1021q-168 0 -275 -118t-116 -311h773q-1 191 -106.5 310t-275.5 119zM905 301h79q-27 -139 -145.5 -227t-293.5 -88q-221 0 -350.5 146.5t-129.5 404.5q0 250 129.5 402t342.5 152q208 0 334 -142.5t126 -377.5v-45h-853v-4q0 -218 109 -342t293 -124
q144 0 239.5 68t119.5 177zM265 1253q0 117 75.5 185t196.5 68t196.5 -68t75.5 -185h-62q0 88 -58 142t-152 54t-152 -54t-58 -142h-62z" />
    <glyph glyph-name="Idblgrave" unicode="&#x208;" horiz-adv-x="335" 
d="M207 0h-79v1443h79v-1443zM256 1553l-298 290h93l280 -290h-75zM-11 1553l-297 290h92l280 -290h-75z" />
    <glyph glyph-name="idblgrave" unicode="&#x209;" horiz-adv-x="336" 
d="M129 0v1077h78v-1077h-78zM83 1253h-72l-247 303h92zM327 1253h-72l-247 303h92z" />
    <glyph glyph-name="Iinvertedbreve" unicode="&#x20a;" horiz-adv-x="335" 
d="M207 0h-79v1443h79v-1443zM-102 1553q0 106 75.5 171t193.5 65t193.5 -65t75.5 -171h-61q0 77 -58 128t-150 51t-150 -51t-58 -128h-61z" />
    <glyph glyph-name="iinvertedbreve" unicode="&#x20b;" horiz-adv-x="336" 
d="M129 0v1077h78v-1077h-78zM-104 1253q0 117 75.5 185t196.5 68t196.5 -68t75.5 -185h-62q0 88 -58 142t-152 54t-152 -54t-58 -142h-62z" />
    <glyph glyph-name="Odblgrave" unicode="&#x20c;" horiz-adv-x="1420" 
d="M799 1553l-298 290h93l280 -290h-75zM532 1553l-297 290h92l280 -290h-75zM710 1464q295 0 469 -201t174 -541q0 -342 -173.5 -542.5t-469.5 -200.5t-469.5 200.5t-173.5 542.5q0 340 174 541t469 201zM710 1390q-258 0 -410 -181t-152 -487q0 -307 152.5 -488
t409.5 -181t409.5 181t152.5 488q0 306 -152.5 487t-409.5 181z" />
    <glyph glyph-name="odblgrave" unicode="&#x20d;" horiz-adv-x="1089" 
d="M544 -14q-216 0 -347.5 150t-131.5 402q0 253 131.5 403t347.5 150q217 0 348.5 -150t131.5 -403q0 -252 -132 -402t-348 -150zM544 56q182 0 291.5 130.5t109.5 351.5q0 222 -109 352t-292 130t-292 -130t-109 -352t109.5 -352t291.5 -130zM459 1252h-72l-247 303h92z
M703 1252h-72l-247 303h92z" />
    <glyph glyph-name="Oinvertedbreve" unicode="&#x20e;" horiz-adv-x="1420" 
d="M441 1553q0 106 75.5 171t193.5 65t193.5 -65t75.5 -171h-61q0 77 -58 128t-150 51t-150 -51t-58 -128h-61zM710 1464q295 0 469 -201t174 -541q0 -342 -173.5 -542.5t-469.5 -200.5t-469.5 200.5t-173.5 542.5q0 340 174 541t469 201zM710 1390q-258 0 -410 -181
t-152 -487q0 -307 152.5 -488t409.5 -181t409.5 181t152.5 488q0 306 -152.5 487t-409.5 181z" />
    <glyph glyph-name="oinvertedbreve" unicode="&#x20f;" horiz-adv-x="1089" 
d="M544 -14q-216 0 -347.5 150t-131.5 402q0 253 131.5 403t347.5 150q217 0 348.5 -150t131.5 -403q0 -252 -132 -402t-348 -150zM544 56q182 0 291.5 130.5t109.5 351.5q0 222 -109 352t-292 130t-292 -130t-109 -352t109.5 -352t291.5 -130zM272 1252q0 117 75.5 185
t196.5 68t196.5 -68t75.5 -185h-62q0 88 -58 142t-152 54t-152 -54t-58 -142h-62z" />
    <glyph glyph-name="Rdblgrave" unicode="&#x210;" horiz-adv-x="1150" 
d="M584 1553l-298 290h93l280 -290h-75zM317 1553l-297 290h92l280 -290h-75zM207 1371v-683h387q181 0 284 91t103 250q0 161 -103.5 251.5t-285.5 90.5h-385zM207 616v-616h-79v1443h471q214 0 338.5 -110.5t124.5 -301.5q0 -156 -88.5 -262.5t-245.5 -137.5l371 -631h-93
l-361 619q-19 -3 -51 -3h-387z" />
    <glyph glyph-name="rdblgrave" unicode="&#x211;" horiz-adv-x="614" 
d="M119 0v1077h73v-213h3q32 110 106.5 168.5t182.5 58.5q55 0 100 -18v-78q-44 22 -112 22q-125 0 -200 -97t-75 -251v-669h-78zM257 1253h-72l-247 303h92zM501 1253h-72l-247 303h92z" />
    <glyph glyph-name="Rinvertedbreve" unicode="&#x212;" horiz-adv-x="1150" 
d="M207 1371v-683h387q181 0 284 91t103 250q0 161 -103.5 251.5t-285.5 90.5h-385zM207 616v-616h-79v1443h471q214 0 338.5 -110.5t124.5 -301.5q0 -156 -88.5 -262.5t-245.5 -137.5l371 -631h-93l-361 619q-19 -3 -51 -3h-387zM226 1553q0 106 75.5 171t193.5 65
t193.5 -65t75.5 -171h-61q0 77 -58 128t-150 51t-150 -51t-58 -128h-61z" />
    <glyph glyph-name="rinvertedbreve" unicode="&#x213;" horiz-adv-x="614" 
d="M119 0v1077h73v-213h3q32 110 106.5 168.5t182.5 58.5q55 0 100 -18v-78q-44 22 -112 22q-125 0 -200 -97t-75 -251v-669h-78zM70 1253q0 117 75.5 185t196.5 68t196.5 -68t75.5 -185h-62q0 88 -58 142t-152 54t-152 -54t-58 -142h-62z" />
    <glyph glyph-name="Udblgrave" unicode="&#x214;" horiz-adv-x="1332" 
d="M755 1553l-298 290h93l280 -290h-75zM488 1553l-297 290h92l280 -290h-75zM207 1443v-939q0 -207 124 -329t336 -122t336 122t124 329v939h79v-942q0 -237 -145.5 -379.5t-393.5 -142.5t-393.5 142.5t-145.5 379.5v942h79z" />
    <glyph glyph-name="udblgrave" unicode="&#x215;" horiz-adv-x="1074" 
d="M955 1077v-1077h-73v235h-3q-36 -110 -140.5 -179.5t-237.5 -69.5q-175 0 -281.5 106t-106.5 286v699h78v-687q0 -157 88 -245.5t238 -88.5q156 0 258 104t102 273v644h78zM449 1252h-72l-247 303h92zM693 1252h-72l-247 303h92z" />
    <glyph glyph-name="Uinvertedbreve" unicode="&#x216;" horiz-adv-x="1332" 
d="M207 1443v-939q0 -207 124 -329t336 -122t336 122t124 329v939h79v-942q0 -237 -145.5 -379.5t-393.5 -142.5t-393.5 142.5t-145.5 379.5v942h79zM397 1553q0 106 75.5 171t193.5 65t193.5 -65t75.5 -171h-61q0 77 -58 128t-150 51t-150 -51t-58 -128h-61z" />
    <glyph glyph-name="uinvertedbreve" unicode="&#x217;" horiz-adv-x="1074" 
d="M955 1077v-1077h-73v235h-3q-36 -110 -140.5 -179.5t-237.5 -69.5q-175 0 -281.5 106t-106.5 286v699h78v-687q0 -157 88 -245.5t238 -88.5q156 0 258 104t102 273v644h78zM262 1252q0 117 75.5 185t196.5 68t196.5 -68t75.5 -185h-62q0 88 -58 142t-152 54t-152 -54
t-58 -142h-62z" />
    <glyph glyph-name="Scommaaccent" unicode="&#x218;" horiz-adv-x="1137" 
d="M57 385h79q9 -147 134 -240t313 -93q183 0 299.5 92.5t116.5 234.5q0 113 -81 183t-263 116l-171 42q-201 51 -294.5 136.5t-93.5 220.5q0 167 137 277t336 110q203 0 340 -106t144 -266h-79q-8 130 -122.5 214.5t-284.5 84.5q-165 0 -277.5 -88.5t-112.5 -223.5
q0 -107 81 -174t257 -111l161 -41q211 -52 307.5 -138.5t96.5 -229.5q0 -180 -139 -293t-364 -113q-222 0 -366.5 113t-153.5 293zM521 -493h-63l99 344h78z" />
    <glyph glyph-name="scommaaccent" unicode="&#x219;" horiz-adv-x="923" 
d="M94 801q0 127 106.5 208.5t263.5 81.5q162 0 265.5 -88.5t116.5 -235.5h-76q-12 115 -93.5 185.5t-213.5 70.5q-122 0 -207.5 -61.5t-85.5 -157.5q0 -78 54.5 -124t171.5 -74l167 -41q161 -39 230.5 -104t69.5 -176q0 -133 -112 -216t-286 -83q-171 0 -284 91t-122 227
h78q11 -108 102.5 -179.5t227.5 -71.5q137 0 228 63t91 164q0 84 -57 134.5t-189 81.5l-173 42q-139 33 -206 96.5t-67 166.5zM408 -493h-63l99 344h78z" />
    <glyph glyph-name="Tcommaaccent" unicode="&#x21a;" horiz-adv-x="1138" 
d="M512 -493h-63l99 344h78zM609 0h-80v1370h-508v73h1096v-73h-508v-1370z" />
    <glyph glyph-name="tcommaaccent" unicode="&#x21b;" horiz-adv-x="551" 
d="M298 -493h-63l99 344h78zM179 1354h77v-277h217v-68h-217v-762q0 -96 37 -138t119 -42q67 0 75 2v-69q-12 -2 -85 -2q-118 0 -170.5 57.5t-52.5 189.5v764h-158v68h158v277z" />
    <glyph glyph-name="Hcaron" unicode="&#x21e;" horiz-adv-x="1327" 
d="M1199 0h-79v705h-913v-705h-79v1443h79v-666h913v666h79v-1443zM629 1553l-271 290h83l221 -239h2l221 239h83l-271 -290h-68z" />
    <glyph glyph-name="hcaron" unicode="&#x21f;" horiz-adv-x="1088" 
d="M129 0v1506h78v-666h3q38 115 137.5 183t234.5 68q177 0 285 -108.5t108 -288.5v-694h-77v685q0 155 -90 245t-242 90q-159 0 -259 -106t-100 -275v-639h-78zM134 1616l-271 290h83l221 -239h2l221 239h83l-271 -290h-68z" />
    <glyph glyph-name="Adotaccent" unicode="&#x226;" horiz-adv-x="1221" 
d="M1115 0l-180 481h-649l-179 -481h-86l550 1443h80l549 -1443h-85zM608 1340l-296 -788h598l-297 788h-5zM611 1563q-32 0 -54.5 22.5t-22.5 53.5t22.5 53.5t54.5 22.5t54.5 -22.5t22.5 -53.5t-22.5 -53.5t-54.5 -22.5z" />
    <glyph glyph-name="adotaccent" unicode="&#x227;" horiz-adv-x="1030" 
d="M453 55q161 0 274 100.5t113 243.5v161l-359 -27q-155 -11 -236 -73t-81 -170q0 -103 81.5 -169t207.5 -66zM443 -14q-158 0 -257.5 84.5t-99.5 219.5q0 138 97.5 216t287.5 92l369 27v96q0 141 -81.5 220t-226.5 79q-137 0 -224 -67t-106 -189h-75q14 149 125 238
t281 89q177 0 280.5 -98t103.5 -267v-726h-75v232h-2q-40 -110 -150 -178t-247 -68zM532 1256q-32 0 -55 23t-23 54t23 54t55 23t55 -23t23 -54t-23 -54t-55 -23z" />
    <glyph glyph-name="Ecedilla" unicode="&#x228;" horiz-adv-x="1068" 
d="M969 1370h-762v-594h726v-72h-726v-631h762v-73h-387l-58 -141q96 0 151.5 -41t55.5 -111q0 -75 -60.5 -122.5t-156.5 -47.5q-72 -2 -128 16v56q43 -17 122 -17q68 0 113.5 32t45.5 81q0 50 -41 76t-119 26h-52v43l64 150h-391v1443h841v-73z" />
    <glyph glyph-name="ecedilla" unicode="&#x229;" horiz-adv-x="1062" 
d="M145 592h773q-1 191 -106.5 310t-275.5 119q-168 0 -275 -118t-116 -311zM997 526h-853v-4q0 -218 109 -342t293 -124q144 0 239.5 68t119.5 177h79q-26 -134 -136 -220.5t-274 -93.5l-53 -128q96 0 151.5 -41t55.5 -111q0 -75 -60.5 -122.5t-156.5 -47.5q-72 -2 -128 16
v56q43 -17 122 -17q68 0 113.5 32t45.5 81q0 50 -41 76t-119 26h-52v43l58 137q-206 12 -325.5 157.5t-119.5 392.5q0 250 129.5 402t342.5 152q208 0 334 -142.5t126 -377.5v-45z" />
    <glyph glyph-name="Odieresismacron" unicode="&#x22a;" horiz-adv-x="1420" 
d="M710 1464q295 0 469 -201t174 -541q0 -342 -173.5 -542.5t-469.5 -200.5t-469.5 200.5t-173.5 542.5q0 340 174 541t469 201zM710 1390q-258 0 -410 -181t-152 -487q0 -307 152.5 -488t409.5 -181t409.5 181t152.5 488q0 306 -152.5 487t-409.5 181zM561 1691
q25 0 44 -18.5t19 -44.5t-18.5 -44.5t-44.5 -18.5t-45 18.5t-19 44.5t19 44.5t45 18.5zM420 1919h580v-57h-580v57zM859 1691q26 0 45 -18.5t19 -44.5t-19 -44.5t-45 -18.5t-44.5 18.5t-18.5 44.5t19 44.5t44 18.5z" />
    <glyph glyph-name="odieresismacron" unicode="&#x22b;" horiz-adv-x="1089" 
d="M392 1255q-27 0 -46.5 19t-19.5 46t19.5 46t46.5 19t46.5 -19t19.5 -46t-19.5 -46t-46.5 -19zM696 1255q-27 0 -46.5 19t-19.5 46t19.5 46t46.5 19q28 0 47 -19t19 -46t-19 -46t-47 -19zM837 1658v-58h-596v58h596zM544 -14q-216 0 -347.5 150t-131.5 402
q0 253 131.5 403t347.5 150q217 0 348.5 -150t131.5 -403q0 -252 -132 -402t-348 -150zM544 56q182 0 291.5 130.5t109.5 351.5q0 222 -109 352t-292 130t-292 -130t-109 -352t109.5 -352t291.5 -130z" />
    <glyph glyph-name="Otildemacron" unicode="&#x22c;" horiz-adv-x="1420" 
d="M830 1548q-34 0 -63 15.5t-49 37.5l-38.5 44t-41.5 37.5t-48 15.5q-44 0 -66 -35.5t-22 -96.5h-60q0 87 38.5 139t108.5 52q35 0 64 -15.5t49.5 -37.5t39 -44t41 -37.5t47.5 -15.5q85 0 85 132h61q0 -86 -39 -138.5t-107 -52.5zM1000 1919v-57h-580v57h580zM710 1464
q295 0 469 -201t174 -541q0 -342 -173.5 -542.5t-469.5 -200.5t-469.5 200.5t-173.5 542.5q0 340 174 541t469 201zM710 1390q-258 0 -410 -181t-152 -487q0 -307 152.5 -488t409.5 -181t409.5 181t152.5 488q0 306 -152.5 487t-409.5 181z" />
    <glyph glyph-name="otildemacron" unicode="&#x22d;" horiz-adv-x="1089" 
d="M685 1236q-36 0 -67.5 17t-55 41l-45.5 48t-47.5 41t-52.5 17q-91 0 -91 -153h-60q0 98 38.5 155t111.5 57q36 0 68.5 -17t56 -41l45.5 -48t47.5 -41t51.5 -17q89 0 89 154h61q0 -97 -39 -155t-111 -58zM842 1658v-58h-596v58h596zM544 -14q-216 0 -347.5 150t-131.5 402
q0 253 131.5 403t347.5 150q217 0 348.5 -150t131.5 -403q0 -252 -132 -402t-348 -150zM544 56q182 0 291.5 130.5t109.5 351.5q0 222 -109 352t-292 130t-292 -130t-109 -352t109.5 -352t291.5 -130z" />
    <glyph glyph-name="Odotaccent" unicode="&#x22e;" horiz-adv-x="1420" 
d="M710 1563q-32 0 -54.5 22.5t-22.5 53.5t22.5 53.5t54.5 22.5t54.5 -22.5t22.5 -53.5t-22.5 -53.5t-54.5 -22.5zM710 1464q295 0 469 -201t174 -541q0 -342 -173.5 -542.5t-469.5 -200.5t-469.5 200.5t-173.5 542.5q0 340 174 541t469 201zM710 1390q-258 0 -410 -181
t-152 -487q0 -307 152.5 -488t409.5 -181t409.5 181t152.5 488q0 306 -152.5 487t-409.5 181z" />
    <glyph glyph-name="odotaccent" unicode="&#x22f;" horiz-adv-x="1089" 
d="M544 1255q-32 0 -55 23t-23 54t23 54t55 23t55 -23t23 -54t-23 -54t-55 -23zM544 -14q-216 0 -347.5 150t-131.5 402q0 253 131.5 403t347.5 150q217 0 348.5 -150t131.5 -403q0 -252 -132 -402t-348 -150zM544 56q182 0 291.5 130.5t109.5 351.5q0 222 -109 352
t-292 130t-292 -130t-109 -352t109.5 -352t291.5 -130z" />
    <glyph glyph-name="Odotaccentmacron" unicode="&#x230;" horiz-adv-x="1420" 
d="M710 1560q-31 0 -53.5 22t-22.5 53t22.5 53t53.5 22t53.5 -22t22.5 -53t-22.5 -53t-53.5 -22zM1000 1919v-57h-580v57h580zM710 1464q295 0 469 -201t174 -541q0 -342 -173.5 -542.5t-469.5 -200.5t-469.5 200.5t-173.5 542.5q0 340 174 541t469 201zM710 1390
q-258 0 -410 -181t-152 -487q0 -307 152.5 -488t409.5 -181t409.5 181t152.5 488q0 306 -152.5 487t-409.5 181z" />
    <glyph glyph-name="odotaccentmacron" unicode="&#x231;" horiz-adv-x="1089" 
d="M544 -14q-216 0 -347.5 150t-131.5 402q0 253 131.5 403t347.5 150q217 0 348.5 -150t131.5 -403q0 -252 -132 -402t-348 -150zM544 56q182 0 291.5 130.5t109.5 351.5q0 222 -109 352t-292 130t-292 -130t-109 -352t109.5 -352t291.5 -130zM544 1255q-32 0 -54.5 22.5
t-22.5 54.5q0 31 23 53.5t54 22.5t54 -22.5t23 -53.5q0 -32 -22.5 -54.5t-54.5 -22.5zM837 1658v-58h-596v58h596z" />
    <glyph glyph-name="Ymacron" unicode="&#x232;" horiz-adv-x="1172" 
d="M626 0h-79v629l-525 814h93l469 -733h5l469 733h92l-524 -814v-629zM876 1679v-57h-580v57h580z" />
    <glyph glyph-name="ymacron" unicode="&#x233;" horiz-adv-x="919" 
d="M180 -369q-32 0 -54 9v69q24 -8 57 -8q72 0 116 43.5t87 155.5l33 85l-412 1092h83l369 -1001h2l369 1001h82l-423 -1126q-72 -192 -133.5 -256t-175.5 -64zM753 1365v-58h-596v58h596z" />
    <glyph glyph-name="dotlessj" unicode="&#x237;" horiz-adv-x="336" 
d="M207 1077v-1165q0 -142 -67 -208.5t-211 -66.5h-30v69h27q108 0 155.5 47.5t47.5 154.5v1169h78z" />
    <glyph glyph-name="quoteright" unicode="&#x2bc;" horiz-adv-x="404" 
d="M180 984h-72l131 459h78z" />
    <glyph glyph-name="quoteright" unicode="&#x2019;" horiz-adv-x="404" 
d="M180 984h-72l131 459h78z" />
    <glyph glyph-name="circumflex" unicode="&#x2c6;" horiz-adv-x="758" 
d="M410 1556l268 -303h-80l-217 249h-3l-217 -249h-81l268 303h62z" />
    <glyph glyph-name="caron" unicode="&#x2c7;" horiz-adv-x="758" 
d="M410 1253h-62l-268 303h81l217 -249h3l217 249h80z" />
    <glyph glyph-name="breve" unicode="&#x2d8;" horiz-adv-x="856" 
d="M156 1503h62q0 -88 58 -142t152 -54t152 54t58 142h62q0 -117 -75.5 -185t-196.5 -68t-196.5 68t-75.5 185z" />
    <glyph glyph-name="dotaccent" unicode="&#x2d9;" horiz-adv-x="827" 
d="M414 1256q-32 0 -55 23t-23 54t23 54t55 23t55 -23t23 -54t-23 -54t-55 -23z" />
    <glyph glyph-name="ring" unicode="&#x2da;" horiz-adv-x="770" 
d="M385 1235q-71 0 -121.5 51t-50.5 122t50.5 122t121.5 51t121.5 -51t50.5 -122t-50.5 -122t-121.5 -51zM385 1283q52 0 88 36.5t36 88.5t-36 88.5t-88 36.5t-88 -36.5t-36 -88.5t36 -88.5t88 -36.5z" />
    <glyph glyph-name="ogonek" unicode="&#x2db;" horiz-adv-x="626" 
d="M470 -309v-62q-50 -25 -113 -25q-84 0 -135 47t-51 125q0 142 154 241l55 -5q-140 -95 -140 -217q0 -58 35.5 -92.5t98.5 -34.5q55 0 96 23z" />
    <glyph glyph-name="tilde" unicode="&#x2dc;" horiz-adv-x="758" 
d="M514 1255q-36 0 -67.5 17t-55 41l-45.5 48t-47.5 41t-52.5 17q-91 0 -91 -153h-60q0 98 38.5 155t111.5 57q36 0 68.5 -17t56 -41l45.5 -48t47.5 -41t51.5 -17q89 0 89 154h61q0 -97 -39 -155t-111 -58z" />
    <glyph glyph-name="hungarumlaut" unicode="&#x2dd;" horiz-adv-x="857" 
d="M408 1253l226 303h92l-247 -303h-71zM164 1253l226 303h92l-247 -303h-71z" />
    <glyph glyph-name="gravecmb" unicode="&#x300;" 
d="M51 1253h-74l-249 303h93z" />
    <glyph glyph-name="acutecmb" unicode="&#x301;" 
d="M20 1253h-74l230 303h93z" />
    <glyph glyph-name="circumflexcmb" unicode="&#x302;" 
d="M31 1556l268 -303h-80l-217 249h-3l-217 -249h-81l268 303h62z" />
    <glyph glyph-name="tildecmb" unicode="&#x303;" 
d="M136 1255q-36 0 -67.5 17t-55 41l-45.5 48t-47.5 41t-52.5 17q-91 0 -91 -153h-60q0 98 38.5 155t111.5 57q36 0 68.5 -17t56 -41l45.5 -48t47.5 -41t51.5 -17q89 0 89 154h61q0 -97 -39 -155t-111 -58z" />
    <glyph glyph-name="macroncmb" unicode="&#x304;" 
d="M293 1366v-58h-596v58h596z" />
    <glyph glyph-name="brevecmb" unicode="&#x306;" 
d="M-272 1503h62q0 -88 58 -142t152 -54t152 54t58 142h62q0 -117 -75.5 -185t-196.5 -68t-196.5 68t-75.5 185z" />
    <glyph glyph-name="dotaccentcmb" unicode="&#x307;" 
d="M0 1256q-32 0 -55 23t-23 54t23 54t55 23t55 -23t23 -54t-23 -54t-55 -23z" />
    <glyph glyph-name="dieresiscmb" unicode="&#x308;" 
d="M-152 1256q-28 0 -48 19.5t-20 47.5q0 27 20 46.5t48 19.5q27 0 47 -19.5t20 -46.5q0 -28 -20 -47.5t-47 -19.5zM152 1256q-27 0 -47 19.5t-20 47.5q0 27 20 46.5t47 19.5q28 0 48 -19.5t20 -46.5q0 -28 -20 -47.5t-48 -19.5z" />
    <glyph glyph-name="hookabovecmb" unicode="&#x309;" 
d="M-115 1438v58q48 28 112 28q70 0 113 -39t43 -101q0 -49 -31.5 -91t-81.5 -63l-35 44q83 34 83 106q0 39 -28.5 63t-74.5 24q-56 0 -100 -29z" />
    <glyph glyph-name="ringcmb" unicode="&#x30a;" 
d="M0 1234q-71 0 -121.5 51t-50.5 122t50.5 122t121.5 51t121.5 -51t50.5 -122t-50.5 -122t-121.5 -51zM0 1282q52 0 88 36.5t36 88.5t-36 88.5t-88 36.5t-88 -36.5t-36 -88.5t36 -88.5t88 -36.5z" />
    <glyph glyph-name="hungarumlautcmb" unicode="&#x30b;" 
d="M86 1253l226 303h92l-247 -303h-71zM-158 1253l226 303h92l-247 -303h-71z" />
    <glyph glyph-name="caroncmb" unicode="&#x30c;" 
d="M31 1253h-62l-268 303h81l217 -249h3l217 249h80z" />
    <glyph glyph-name="dblgravecmb" unicode="&#x30f;" 
d="M-85 1253h-72l-247 303h92zM159 1253h-72l-247 303h92z" />
    <glyph glyph-name="invertedbrevecmb" unicode="&#x311;" 
d="M-272 1253q0 117 75.5 185t196.5 68t196.5 -68t75.5 -185h-62q0 88 -58 142t-152 54t-152 -54t-58 -142h-62z" />
    <glyph glyph-name="horncmb" unicode="&#x31b;" 
d="M0 1027v67q10 -12 55 -12q155 0 155 163v123h74v-141q0 -102 -59.5 -157t-159.5 -55q-48 0 -65 12z" />
    <glyph glyph-name="dotbelowcmb" unicode="&#x323;" 
d="M0 -295q-32 0 -54.5 22.5t-22.5 53.5t22.5 53.5t54.5 22.5t54.5 -22.5t22.5 -53.5t-22.5 -53.5t-54.5 -22.5z" />
    <glyph glyph-name="dieresisbelowcmb" unicode="&#x324;" 
d="M-152 -279q-28 0 -48 19.5t-20 47.5q0 27 20 46.5t48 19.5q27 0 47 -19.5t20 -46.5q0 -28 -20 -47.5t-47 -19.5zM152 -279q-27 0 -47 19.5t-20 47.5q0 27 20 46.5t47 19.5q28 0 48 -19.5t20 -46.5q0 -28 -20 -47.5t-48 -19.5z" />
    <glyph glyph-name="ringbelowcmb" unicode="&#x325;" 
d="M0 -492q-71 0 -121.5 51t-50.5 122t50.5 122t121.5 51t121.5 -51t50.5 -122t-50.5 -122t-121.5 -51zM0 -444q52 0 88 36.5t36 88.5t-36 88.5t-88 36.5t-88 -36.5t-36 -88.5t36 -88.5t88 -36.5z" />
    <glyph glyph-name="commabelowcmb" unicode="&#x326;" 
d="M-57 -493h-63l99 344h78z" />
    <glyph glyph-name="cedillacmb" unicode="&#x327;" 
d="M-93 -193v43l67 157l60 -7l-58 -141q96 0 151.5 -41t55.5 -111q0 -75 -60.5 -122.5t-156.5 -47.5q-72 -2 -128 16v56q43 -17 122 -17q68 0 113.5 32t45.5 81q0 50 -41 76t-119 26h-52z" />
    <glyph glyph-name="ogonekcmb" unicode="&#x328;" 
d="M119 -309v-62q-50 -25 -113 -25q-84 0 -135 47t-51 125q0 142 154 241l55 -5q-140 -95 -140 -217q0 -58 35.5 -92.5t98.5 -34.5q55 0 96 23z" />
    <glyph glyph-name="circumflexbelowcmb" unicode="&#x32d;" 
d="M-34 -147h68l271 -290h-83l-221 238h-2l-221 -238h-83z" />
    <glyph glyph-name="brevebelowcmb" unicode="&#x32e;" 
d="M-269 -155h61q0 -77 58 -128.5t150 -51.5t150 51.5t58 128.5h61q0 -107 -75.5 -171.5t-193.5 -64.5t-193.5 64.5t-75.5 171.5z" />
    <glyph glyph-name="tildebelowcmb" unicode="&#x330;" 
d="M135 -366q-36 0 -67.5 17t-55 41l-45.5 48t-47.5 41t-52.5 17q-91 0 -91 -153h-60q0 98 38.5 155t111.5 57q36 0 68.5 -17t56 -41l45.5 -48t47.5 -41t51.5 -17q89 0 89 154h61q0 -97 -39 -155t-111 -58z" />
    <glyph glyph-name="macronbelowcmb" unicode="&#x331;" 
d="M290 -205v-57h-580v57h580z" />
    <glyph glyph-name="greekquestionmark" unicode="&#x37e;" horiz-adv-x="496" 
d="M248 760q-29 0 -49.5 20.5t-20.5 49.5t20.5 49.5t49.5 20.5t49.5 -20.5t20.5 -49.5t-20.5 -49.5t-49.5 -20.5zM203 -222h-63l65 402h84z" />
    <glyph glyph-name="tonosgreek" unicode="&#x384;" horiz-adv-x="621" 
d="M205 1253l88 316h98l-121 -316h-65z" />
    <glyph glyph-name="dieresistonosgreek" unicode="&#x385;" horiz-adv-x="889" 
d="M247 1256q-28 0 -48 19.5t-20 47.5q0 27 20 46.5t48 19.5q27 0 47 -19.5t20 -46.5q0 -28 -20 -47.5t-47 -19.5zM642 1256q-27 0 -47 19.5t-20 47.5q0 27 20 46.5t47 19.5q28 0 48 -19.5t20 -46.5q0 -28 -20 -47.5t-48 -19.5zM457 1253h-64l48 316h97z" />
    <glyph glyph-name="Alphatonosgreek" unicode="&#x386;" horiz-adv-x="1220" 
d="M1114 0l-180 481h-649l-179 -481h-86l550 1443h80l549 -1443h-85zM607 1340l-296 -788h598l-297 788h-5zM202 1109h-67l94 334h99z" />
    <glyph glyph-name="anoteleia" unicode="&#x387;" horiz-adv-x="496" 
d="M248 936q-29 0 -49.5 20.5t-20.5 49.5t20.5 49.5t49.5 20.5t49.5 -20.5t20.5 -49.5t-20.5 -49.5t-49.5 -20.5z" />
    <glyph glyph-name="Epsilontonosgreek" unicode="&#x388;" horiz-adv-x="1283" 
d="M115 1109h-67l94 334h99zM1204 73v-73h-841v1443h841v-73h-762v-594h726v-72h-726v-631h762z" />
    <glyph glyph-name="Etatonosgreek" unicode="&#x389;" horiz-adv-x="1562" 
d="M115 1109h-67l94 334h99zM1434 0h-79v705h-913v-705h-79v1443h79v-666h913v666h79v-1443z" />
    <glyph glyph-name="Iotatonosgreek" unicode="&#x38a;" horiz-adv-x="570" 
d="M442 0h-79v1443h79v-1443zM115 1109h-67l94 334h99z" />
    <glyph glyph-name="Omicrontonosgreek" unicode="&#x38c;" horiz-adv-x="1553" 
d="M843 1464q295 0 469 -201t174 -541q0 -342 -173.5 -542.5t-469.5 -200.5t-469.5 200.5t-173.5 542.5q0 340 174 541t469 201zM843 1390q-258 0 -410 -181t-152 -487q0 -307 152.5 -488t409.5 -181t409.5 181t152.5 488q0 306 -152.5 487t-409.5 181zM108 1109h-67l94 334
h99z" />
    <glyph glyph-name="Upsilontonosgreek" unicode="&#x38e;" horiz-adv-x="1477" 
d="M109 1110h-67l94 334h99zM931 0h-79v629l-525 814h93l469 -733h5l469 733h92l-524 -814v-629z" />
    <glyph glyph-name="Omegatonosgreek" unicode="&#x38f;" horiz-adv-x="1609" 
d="M1427 771q0 274 -157.5 446.5t-411.5 172.5q-255 0 -413 -171.5t-158 -447.5q0 -228 108.5 -391t336.5 -278v-102h-520v73h431v5q-436 226 -436 695q0 202 81.5 359.5t230 244.5t339.5 87t339.5 -88t229 -245t80.5 -358q0 -469 -436 -695v-5h431v-73h-520v102
q228 115 336.5 278t108.5 391zM117 1109h-67l94 334h99z" />
    <glyph glyph-name="iotadieresistonosgreek" unicode="&#x390;" horiz-adv-x="462" 
d="M120 1077h78v-830q0 -100 35.5 -143.5t123.5 -43.5q43 0 73 9l7 -69q-34 -9 -91 -9q-122 0 -174 57.5t-52 191.5v837zM-17 1256q-28 0 -48 19.5t-20 47.5q0 27 20 46.5t48 19.5q27 0 47 -19.5t20 -46.5q0 -28 -20 -47.5t-47 -19.5zM378 1256q-27 0 -47 19.5t-20 47.5
q0 27 20 46.5t47 19.5q28 0 48 -19.5t20 -46.5q0 -28 -20 -47.5t-48 -19.5zM193 1253h-64l48 316h97z" />
    <glyph glyph-name="Alphagreek" unicode="&#x391;" horiz-adv-x="1221" 
d="M1115 0l-180 481h-649l-179 -481h-86l550 1443h80l549 -1443h-85zM608 1340l-296 -788h598l-297 788h-5z" />
    <glyph glyph-name="Betagreek" unicode="&#x392;" horiz-adv-x="1165" 
d="M625 0h-497v1443h486q188 0 304.5 -97t116.5 -254q0 -129 -77.5 -221t-206.5 -117v-6q158 -17 259 -114t101 -249q0 -178 -130 -281.5t-356 -103.5zM207 1371v-593h376q170 0 271 83t101 225q0 130 -96 207.5t-257 77.5h-395zM207 72h410q194 0 304 84.5t110 230.5
q0 150 -115 235t-320 85h-389v-635z" />
    <glyph glyph-name="Gammagreek" unicode="&#x393;" horiz-adv-x="1013" 
d="M207 0h-79v1443h810v-73h-731v-1370z" />
    <glyph glyph-name="Deltagreek" unicode="&#x394;" horiz-adv-x="1264" 
d="M1220 0h-1176v57l548 1386h80l548 -1386v-57zM136 78v-5h991v5l-493 1265h-5z" />
    <glyph glyph-name="Epsilongreek" unicode="&#x395;" horiz-adv-x="1047" 
d="M969 73v-73h-841v1443h841v-73h-762v-594h726v-72h-726v-631h762z" />
    <glyph glyph-name="Zetagreek" unicode="&#x396;" horiz-adv-x="1173" 
d="M71 0v62l925 1303v5h-896v73h997v-62l-923 -1303v-5h928v-73h-1031z" />
    <glyph glyph-name="Etagreek" unicode="&#x397;" horiz-adv-x="1327" 
d="M1199 0h-79v705h-913v-705h-79v1443h79v-666h913v666h79v-1443z" />
    <glyph glyph-name="Thetagreek" unicode="&#x398;" horiz-adv-x="1423" 
d="M1053 691h-683v73h683v-73zM712 1464q296 0 470 -200.5t174 -541.5q0 -342 -173.5 -542.5t-470.5 -200.5t-471 200.5t-174 542.5q0 341 174.5 541.5t470.5 200.5zM712 1390q-259 0 -411.5 -180.5t-152.5 -487.5t152.5 -488t411.5 -181q258 0 410.5 181t152.5 488
t-152 487.5t-411 180.5z" />
    <glyph glyph-name="Iotagreek" unicode="&#x399;" horiz-adv-x="335" 
d="M207 0h-79v1443h79v-1443z" />
    <glyph glyph-name="Kappagreek" unicode="&#x39a;" horiz-adv-x="1142" 
d="M207 0h-79v1443h79v-806h6l750 806h101l-594 -636l660 -807h-101l-615 751l-207 -223v-528z" />
    <glyph glyph-name="Lambdagreek" unicode="&#x39b;" horiz-adv-x="1181" 
d="M1075 0l-482 1334h-5l-481 -1334h-86l530 1443h80l529 -1443h-85z" />
    <glyph glyph-name="Mugreek" unicode="&#x39c;" horiz-adv-x="1604" 
d="M1476 1443v-1443h-76v1279h-4l-556 -1276h-76l-556 1276h-4v-1279h-76v1443h88l583 -1340h6l581 1340h90z" />
    <glyph glyph-name="Nugreek" unicode="&#x39d;" horiz-adv-x="1341" 
d="M206 0h-78v1443h82l919 -1299h6v1299h79v-1443h-75l-927 1307h-6v-1307z" />
    <glyph glyph-name="Xigreek" unicode="&#x39e;" horiz-adv-x="1177" 
d="M78 1443h1020v-75h-1020v75zM1034 704h-891v75h891v-75zM78 75h1020v-75h-1020v75z" />
    <glyph glyph-name="Omicrongreek" unicode="&#x39f;" horiz-adv-x="1420" 
d="M710 1464q295 0 469 -201t174 -541q0 -342 -173.5 -542.5t-469.5 -200.5t-469.5 200.5t-173.5 542.5q0 340 174 541t469 201zM710 1390q-258 0 -410 -181t-152 -487q0 -307 152.5 -488t409.5 -181t409.5 181t152.5 488q0 306 -152.5 487t-409.5 181z" />
    <glyph glyph-name="Pigreek" unicode="&#x3a0;" horiz-adv-x="1307" 
d="M1179 0h-79v1370h-893v-1370h-79v1443h1051v-1443z" />
    <glyph glyph-name="Rhogreek" unicode="&#x3a1;" horiz-adv-x="1116" 
d="M128 1443h469q211 0 337.5 -117.5t126.5 -313.5q0 -195 -127 -312.5t-337 -117.5h-390v-582h-79v1443zM207 1371v-717h377q183 0 289.5 96t106.5 262q0 167 -106.5 263t-289.5 96h-377z" />
    <glyph glyph-name="Sigmagreek" unicode="&#x3a3;" horiz-adv-x="1150" 
d="M171 78v-5h908v-73h-1008v62l469 675l-450 640v66h981v-73h-880v-5l438 -622v-5z" />
    <glyph glyph-name="Taugreek" unicode="&#x3a4;" horiz-adv-x="1138" 
d="M609 0h-80v1370h-508v73h1096v-73h-508v-1370z" />
    <glyph glyph-name="Upsilongreek" unicode="&#x3a5;" horiz-adv-x="1172" 
d="M626 0h-79v629l-525 814h93l469 -733h5l469 733h92l-524 -814v-629z" />
    <glyph glyph-name="Phigreek" unicode="&#x3a6;" horiz-adv-x="1553" 
d="M1414 722q0 271 -158.5 424.5t-440.5 157.5v-1163q281 2 440 156.5t159 424.5zM138 722q0 -270 159 -424.5t439 -156.5v1163q-281 -4 -439.5 -157.5t-158.5 -424.5zM815 -59h-79v127q-318 4 -498.5 177.5t-180.5 476.5t180.5 476.5t498.5 177.5v116h79v-116
q319 -4 500 -177.5t181 -476.5t-181 -476.5t-500 -177.5v-127z" />
    <glyph glyph-name="Chigreek" unicode="&#x3a7;" horiz-adv-x="1215" 
d="M42 0l516 722v2l-514 719h95l469 -658h2l471 658h92l-518 -721v-2l515 -720h-95l-468 656h-2l-471 -656h-92z" />
    <glyph glyph-name="Psigreek" unicode="&#x3a8;" horiz-adv-x="1441" 
d="M760 0h-79v353q-277 0 -425 144.5t-148 414.5v531h79v-530q0 -236 126.5 -360.5t367.5 -125.5v1016h79v-1016q241 1 367.5 125.5t126.5 360.5v530h79v-531q0 -270 -148 -414.5t-425 -144.5v-353z" />
    <glyph glyph-name="Omegagreek" unicode="&#x3a9;" horiz-adv-x="1504" 
d="M1322 771q0 274 -157.5 446.5t-411.5 172.5q-255 0 -413 -171.5t-158 -447.5q0 -228 108.5 -391t336.5 -278v-102h-520v73h431v5q-436 226 -436 695q0 202 81.5 359.5t230 244.5t339.5 87t339.5 -88t229 -245t80.5 -358q0 -469 -436 -695v-5h431v-73h-520v102
q228 115 336.5 278t108.5 391z" />
    <glyph glyph-name="Iotadieresisgreek" unicode="&#x3aa;" horiz-adv-x="373" 
d="M245 0h-79v1443h79v-1443zM53 1563q-28 0 -48 19.5t-20 47.5q0 27 20 46.5t48 19.5q27 0 47 -19.5t20 -46.5q0 -28 -20 -47.5t-47 -19.5zM357 1563q-27 0 -47 19.5t-20 47.5q0 27 20 46.5t47 19.5q28 0 48 -19.5t20 -46.5q0 -28 -20 -47.5t-48 -19.5z" />
    <glyph glyph-name="Upsilondieresisgreek" unicode="&#x3ab;" horiz-adv-x="1218" 
d="M673 0h-79v629l-525 814h93l469 -733h5l469 733h92l-524 -814v-629zM481 1563q-28 0 -48 19.5t-20 47.5q0 27 20 46.5t48 19.5q27 0 47 -19.5t20 -46.5q0 -28 -20 -47.5t-47 -19.5zM785 1563q-27 0 -47 19.5t-20 47.5q0 27 20 46.5t47 19.5q28 0 48 -19.5t20 -46.5
q0 -28 -20 -47.5t-48 -19.5z" />
    <glyph glyph-name="alphatonosgreek" unicode="&#x3ac;" horiz-adv-x="1214" 
d="M526 56q166 0 274.5 136.5t108.5 345.5t-110.5 345.5t-274.5 136.5q-166 0 -273 -136t-107 -346q0 -212 106.5 -347t275.5 -135zM521 -14q-200 0 -328 155t-128 398q0 242 127.5 397t326.5 155q131 0 244 -84.5t148 -217.5h3v288h73v-865q0 -79 26.5 -114.5t84.5 -35.5
q34 0 64 9l7 -69q-35 -10 -82 -10q-169 0 -178 187v105h-2q-33 -124 -143 -211t-243 -87zM503 1253l88 316h98l-121 -316h-65z" />
    <glyph glyph-name="epsilontonosgreek" unicode="&#x3ad;" horiz-adv-x="1025" 
d="M478 1253l88 316h98l-121 -316h-65zM489 -14q-194 0 -304 79.5t-110 218.5q0 103 60 173t167 92v3q-96 13 -150.5 77t-54.5 162q0 136 111 218t299 82q186 0 304 -90.5t138 -244.5h-78q-13 119 -113 191.5t-257 72.5q-152 0 -240.5 -63t-88.5 -167q0 -102 72.5 -152
t223.5 -50h148v-70h-149q-147 0 -230 -61t-83 -168q0 -111 88 -172t247 -61q152 0 261 70t137 187h79q-29 -145 -161.5 -236t-315.5 -91z" />
    <glyph glyph-name="etatonosgreek" unicode="&#x3ae;" horiz-adv-x="1208" 
d="M1095 -353h-78v1031q0 155 -86.5 248.5t-233.5 93.5q-163 0 -259.5 -104.5t-96.5 -279.5v-636h-78v864q0 79 -27.5 115t-85.5 36q-39 0 -69 -10v69q36 10 84 10q81 0 121.5 -45t46.5 -141q1 -2 2 -29t1 -29h2q43 118 141 184.5t233 66.5q171 0 277 -108.5t106 -281.5
v-1054zM478 1253l88 316h98l-121 -316h-65z" />
    <glyph glyph-name="iotatonosgreek" unicode="&#x3af;" horiz-adv-x="462" 
d="M120 1077h78v-830q0 -100 35.5 -143.5t123.5 -43.5q43 0 73 9l7 -69q-34 -9 -91 -9q-122 0 -174 57.5t-52 191.5v837zM129 1253l88 316h98l-121 -316h-65z" />
    <glyph glyph-name="upsilondieresistonosgreek" unicode="&#x3b0;" horiz-adv-x="1032" 
d="M305 1256q-28 0 -48 19.5t-20 47.5q0 27 20 46.5t48 19.5q27 0 47 -19.5t20 -46.5q0 -28 -20 -47.5t-47 -19.5zM700 1256q-27 0 -47 19.5t-20 47.5q0 27 20 46.5t47 19.5q28 0 48 -19.5t20 -46.5q0 -28 -20 -47.5t-48 -19.5zM515 1253h-64l48 316h97zM512 -14
q-193 0 -296 110.5t-103 315.5v665h78v-661q0 -175 82 -267t239 -92q172 0 264.5 129t92.5 366q0 318 -87 525h80q85 -206 85 -517q0 -275 -113.5 -424.5t-321.5 -149.5z" />
    <glyph glyph-name="alphagreek" unicode="&#x3b1;" horiz-adv-x="1214" 
d="M526 56q166 0 274.5 136.5t108.5 345.5t-110.5 345.5t-274.5 136.5q-166 0 -273 -136t-107 -346q0 -212 106.5 -347t275.5 -135zM521 -14q-200 0 -328 155t-128 398q0 242 127.5 397t326.5 155q131 0 244 -84.5t148 -217.5h3v288h73v-865q0 -79 26.5 -114.5t84.5 -35.5
q34 0 64 9l7 -69q-35 -10 -82 -10q-169 0 -178 187v105h-2q-33 -124 -143 -211t-243 -87z" />
    <glyph glyph-name="betagreek" unicode="&#x3b2;" horiz-adv-x="1119" 
d="M423 779v71h135q146 0 232 82t86 218t-87.5 218t-232.5 82q-177 0 -268.5 -110t-91.5 -326v-470q0 -225 111 -356.5t304 -131.5q164 0 264 99t100 256q0 177 -114.5 272.5t-313.5 95.5h-124zM119 1022q0 241 112 369.5t321 128.5q186 0 293 -99t107 -267
q0 -122 -67.5 -212.5t-190.5 -120.5v-2q174 -28 267 -133t93 -271q0 -193 -121 -311t-314 -118q-158 0 -268.5 78.5t-150.5 219.5h-3v-637h-78v1375z" />
    <glyph glyph-name="gammagreek" unicode="&#x3b3;" horiz-adv-x="999" 
d="M904 914q0 -119 -22 -222.5t-74.5 -215t-124 -222t-186.5 -265.5v-327h-77v322l-384 1093h83l347 -1005h2q198 270 279.5 454t81.5 388q0 83 -13 163h76q12 -72 12 -163z" />
    <glyph glyph-name="deltagreek" unicode="&#x3b4;" horiz-adv-x="1064" 
d="M535 -14q-214 0 -345.5 139.5t-131.5 366.5q0 225 119 360t318 146v4q-137 55 -197 118.5t-60 151.5q0 116 91.5 182t249.5 66q187 0 314 -67l-3 -71q-146 69 -314 69q-125 0 -193 -46.5t-68 -131.5q0 -77 66 -131t251 -129q198 -83 284 -211t86 -318q0 -221 -131 -359.5
t-336 -138.5zM533 55q174 0 283 118t109 309q0 110 -31.5 198.5t-86.5 144.5t-127 86t-154 30q-169 0 -280 -119t-111 -329q0 -195 110 -316.5t288 -121.5z" />
    <glyph glyph-name="epsilongreek" unicode="&#x3b5;" horiz-adv-x="1025" 
d="M489 -14q-194 0 -304 79.5t-110 218.5q0 103 60 173t167 92v3q-96 13 -150.5 77t-54.5 162q0 136 111 218t299 82q186 0 304 -90.5t138 -244.5h-78q-13 119 -113 191.5t-257 72.5q-152 0 -240.5 -63t-88.5 -167q0 -102 72.5 -152t223.5 -50h148v-70h-149q-147 0 -230 -61
t-83 -168q0 -111 88 -172t247 -61q152 0 261 70t137 187h79q-29 -145 -161.5 -236t-315.5 -91z" />
    <glyph glyph-name="zetagreek" unicode="&#x3b6;" horiz-adv-x="849" 
d="M778 -342l-66 15q54 82 54 179q0 67 -53 116t-192 99q-259 92 -357.5 199.5t-98.5 302.5q0 234 177.5 468.5t457.5 393.5v3h-553v72h681v-72q-317 -175 -500.5 -400.5t-183.5 -462.5q0 -89 17.5 -148.5t67.5 -110.5t126 -91t206 -89q161 -59 221 -120t60 -154
q0 -110 -64 -200z" />
    <glyph glyph-name="etagreek" unicode="&#x3b7;" horiz-adv-x="1208" 
d="M1095 -353h-78v1031q0 155 -86.5 248.5t-233.5 93.5q-163 0 -259.5 -104.5t-96.5 -279.5v-636h-78v864q0 79 -27.5 115t-85.5 36q-39 0 -69 -10v69q36 10 84 10q81 0 121.5 -45t46.5 -141q1 -2 2 -29t1 -29h2q43 118 141 184.5t233 66.5q171 0 277 -108.5t106 -281.5
v-1054z" />
    <glyph glyph-name="thetagreek" unicode="&#x3b8;" horiz-adv-x="1114" 
d="M558 -14q-236 0 -355 194t-119 575q0 376 120.5 570.5t353.5 194.5q232 0 352 -195t120 -571q0 -381 -119 -574.5t-353 -193.5zM558 56q193 0 292.5 169t101.5 499h-789q2 -329 102 -498.5t293 -169.5zM163 794h789q-4 323 -104 489.5t-290 166.5q-192 0 -292 -166.5
t-103 -489.5z" />
    <glyph glyph-name="iotagreek" unicode="&#x3b9;" horiz-adv-x="462" 
d="M120 1077h78v-830q0 -100 35.5 -143.5t123.5 -43.5q43 0 73 9l7 -69q-34 -9 -91 -9q-122 0 -174 57.5t-52 191.5v837z" />
    <glyph glyph-name="kappagreek" unicode="&#x3ba;" horiz-adv-x="1071" 
d="M122 0v1077h77v-689h2l493 568q62 72 109.5 100t108.5 28q51 0 78 -10v-69q-30 10 -70 10q-45 0 -82.5 -23.5t-92.5 -87.5l-210 -243l472 -661h-92l-430 604l-286 -323v-281h-77z" />
    <glyph glyph-name="lambdagreek" unicode="&#x3bb;" horiz-adv-x="1091" 
d="M40 0l444 1040l-75 207q-44 119 -89.5 160.5t-127.5 41.5q-40 0 -70 -10v71q38 10 80 10q106 0 165 -53t109 -196l389 -1107q21 -59 48 -80.5t77 -21.5q36 0 64 9l7 -69q-33 -10 -79 -10q-75 0 -114.5 31t-70.5 120l-278 799h-2l-395 -942h-82z" />
    <glyph glyph-name="mugreek" unicode="&#x3bc;" horiz-adv-x="1194" 
d="M119 -353v1430h78v-677q0 -162 85 -252.5t237 -90.5q159 0 258 106t99 274v640h78v-865q0 -79 26.5 -114.5t84.5 -35.5q34 0 64 9l7 -69q-30 -10 -83 -10q-82 0 -124.5 44t-48.5 137q-2 6 -2 59h-2q-41 -113 -137.5 -179.5t-221.5 -66.5q-119 0 -206 55.5t-112 148.5h-2
v-543h-78z" />
    <glyph glyph-name="nugreek" unicode="&#x3bd;" horiz-adv-x="994" 
d="M415 0l-379 1077h83l347 -1005h2q195 266 274.5 450.5t79.5 391.5q0 75 -13 163h78q12 -80 12 -163q0 -229 -85.5 -424t-307.5 -490h-91z" />
    <glyph glyph-name="xigreek" unicode="&#x3be;" horiz-adv-x="882" 
d="M778 -342l-66 15q54 82 54 180q0 68 -53 116t-194 99q-182 67 -279 126.5t-136 126t-39 163.5q0 145 90.5 229t259.5 105v2q-147 40 -216.5 111t-69.5 186q0 122 86 204t241 111v2h-325v72h671v-66l-113 -10q-242 -22 -366 -100.5t-124 -212.5q0 -127 110 -192t317 -65
h100v-72h-99q-484 0 -484 -301q0 -80 36 -135t120.5 -104t248.5 -111q166 -61 230 -121.5t64 -157.5q0 -110 -64 -200z" />
    <glyph glyph-name="omicrongreek" unicode="&#x3bf;" horiz-adv-x="1079" 
d="M539 -14q-215 0 -344.5 149.5t-129.5 402.5t129.5 403t344.5 150q216 0 345.5 -150t129.5 -403t-130 -402.5t-345 -149.5zM539 56q179 0 288 130.5t109 351.5q0 220 -109.5 351t-287.5 131t-286.5 -130.5t-108.5 -351.5q0 -222 108 -352t287 -130z" />
    <glyph glyph-name="pigreek" unicode="&#x3c0;" horiz-adv-x="1290" 
d="M301 1v1005h-232v71h1144v-71h-223v-796q0 -77 27 -112.5t85 -35.5q32 0 64 9l6 -69q-32 -10 -81 -10q-91 0 -133.5 51t-42.5 160v803h-539v-1005h-75z" />
    <glyph glyph-name="rhogreek" unicode="&#x3c1;" horiz-adv-x="1091" 
d="M556 56q177 0 284 133t107 352q0 216 -106.5 347.5t-280.5 131.5q-184 0 -287.5 -126t-103.5 -351q0 -214 109 -350.5t278 -136.5zM91 -353v899q0 251 127 398t342 147q206 0 336 -153.5t130 -399.5q0 -248 -126.5 -400t-333.5 -152q-138 0 -248.5 83.5t-145.5 214.5h-3
v-637h-78z" />
    <glyph glyph-name="sigmafinalgreek" unicode="&#x3c2;" horiz-adv-x="1023" 
d="M778 -342l-66 15q54 82 54 179q0 68 -52.5 116.5t-192.5 98.5q-257 91 -356.5 205.5t-99.5 300.5q0 232 124.5 375t344.5 143q172 0 288 -92.5t143 -245.5h-78q-25 121 -119.5 194t-230.5 73q-185 0 -289 -123t-104 -324q0 -110 34.5 -182t124 -134t258.5 -125
q161 -59 221 -120t60 -154q0 -110 -64 -200z" />
    <glyph glyph-name="sigmagreek" unicode="&#x3c3;" horiz-adv-x="1208" 
d="M533 -14q-209 0 -338.5 149t-129.5 390q0 257 135 404.5t370 147.5h566v-71h-365v-3q112 -54 175 -177t63 -289q0 -247 -131.5 -399t-344.5 -152zM532 57q181 0 291.5 131.5t110.5 346.5q0 218 -101.5 343.5t-277.5 125.5q-190 0 -300.5 -129t-110.5 -350
q0 -210 107 -339t281 -129z" />
    <glyph glyph-name="taugreek" unicode="&#x3c4;" horiz-adv-x="986" 
d="M674 -9q-131 0 -186 60.5t-55 202.5v752h-373v71h867v-71h-417v-752q0 -103 40.5 -148.5t135.5 -45.5q48 0 81 9l6 -69q-32 -9 -99 -9z" />
    <glyph glyph-name="upsilongreek" unicode="&#x3c5;" horiz-adv-x="1032" 
d="M512 -14q-193 0 -296 110.5t-103 315.5v665h78v-661q0 -175 82 -267t239 -92q172 0 264.5 129t92.5 366q0 318 -87 525h80q85 -206 85 -517q0 -275 -113.5 -424.5t-321.5 -149.5z" />
    <glyph glyph-name="phigreek" unicode="&#x3c6;" horiz-adv-x="1369" 
d="M647 -353v339q-272 8 -431.5 157.5t-159.5 394.5q0 248 158.5 397t432.5 156v263h75v-263q274 -7 432.5 -156t158.5 -397q0 -245 -159.5 -394.5t-431.5 -157.5v-339h-75zM722 53q232 4 372.5 137t140.5 348q0 216 -140 350t-373 136v-971zM647 53v971q-233 -2 -373 -136
t-140 -350q0 -215 140.5 -348t372.5 -137z" />
    <glyph glyph-name="chigreek" unicode="&#x3c7;" horiz-adv-x="1149" 
d="M179 -353l386 697l-275 551q-36 71 -68 95.5t-88 24.5q-35 0 -65 -10v69q37 10 79 10q77 0 120 -33t87 -121l259 -517h2l361 664h85l-408 -735l256 -513q35 -69 66.5 -94.5t84.5 -25.5q35 0 64 10l6 -70q-38 -10 -76 -10q-78 0 -121 31.5t-88 122.5l-242 479h-2
l-338 -625h-85z" />
    <glyph glyph-name="psigreek" unicode="&#x3c8;" horiz-adv-x="1299" 
d="M609 -353v339q-236 0 -366 110t-130 314v667h78v-664q0 -168 106.5 -262t311.5 -94v1297h76v-1298q217 5 334 137.5t117 376.5q0 161 -20.5 280.5t-67.5 226.5h80q86 -200 86 -496q0 -273 -138.5 -432.5t-390.5 -163.5v-338h-76z" />
    <glyph glyph-name="omegagreek" unicode="&#x3c9;" horiz-adv-x="1462" 
d="M432 -17q-166 0 -256.5 134t-90.5 382q0 153 46 313.5t120 264.5h90q-83 -109 -130 -262t-47 -316q0 -214 70.5 -329.5t201.5 -115.5q121 0 189 95.5t68 264.5v330h77v-330q0 -169 67.5 -264.5t188.5 -95.5q131 0 202 116t71 329q0 163 -47 316t-130 262h89
q74 -103 120 -263.5t46 -314.5q0 -248 -90.5 -382t-256.5 -134q-111 0 -188.5 66.5t-108.5 188.5h-4q-31 -122 -108.5 -188.5t-188.5 -66.5z" />
    <glyph glyph-name="iotadieresisgreek" unicode="&#x3ca;" horiz-adv-x="462" 
d="M17 1256q-28 0 -48 19.5t-20 47.5q0 27 20 46.5t48 19.5q27 0 47 -19.5t20 -46.5q0 -28 -20 -47.5t-47 -19.5zM321 1256q-27 0 -47 19.5t-20 47.5q0 27 20 46.5t47 19.5q28 0 48 -19.5t20 -46.5q0 -28 -20 -47.5t-48 -19.5zM120 1077h78v-830q0 -100 35.5 -143.5
t123.5 -43.5q43 0 73 9l7 -69q-34 -9 -91 -9q-122 0 -174 57.5t-52 191.5v837z" />
    <glyph glyph-name="upsilondieresisgreek" unicode="&#x3cb;" horiz-adv-x="1032" 
d="M358 1256q-28 0 -48 19.5t-20 47.5q0 27 20 46.5t48 19.5q27 0 47 -19.5t20 -46.5q0 -28 -20 -47.5t-47 -19.5zM662 1256q-27 0 -47 19.5t-20 47.5q0 27 20 46.5t47 19.5q28 0 48 -19.5t20 -46.5q0 -28 -20 -47.5t-48 -19.5zM512 -14q-193 0 -296 110.5t-103 315.5v665
h78v-661q0 -175 82 -267t239 -92q172 0 264.5 129t92.5 366q0 318 -87 525h80q85 -206 85 -517q0 -275 -113.5 -424.5t-321.5 -149.5z" />
    <glyph glyph-name="omicrontonosgreek" unicode="&#x3cc;" horiz-adv-x="1079" 
d="M539 -14q-215 0 -344.5 149.5t-129.5 402.5t129.5 403t344.5 150q216 0 345.5 -150t129.5 -403t-130 -402.5t-345 -149.5zM539 56q179 0 288 130.5t109 351.5q0 220 -109.5 351t-287.5 131t-286.5 -130.5t-108.5 -351.5q0 -222 108 -352t287 -130zM505 1253l88 316h98
l-121 -316h-65z" />
    <glyph glyph-name="upsilontonosgreek" unicode="&#x3cd;" horiz-adv-x="1032" 
d="M456 1253l88 316h98l-121 -316h-65zM512 -14q-193 0 -296 110.5t-103 315.5v665h78v-661q0 -175 82 -267t239 -92q172 0 264.5 129t92.5 366q0 318 -87 525h80q85 -206 85 -517q0 -275 -113.5 -424.5t-321.5 -149.5z" />
    <glyph glyph-name="omegatonosgreek" unicode="&#x3ce;" horiz-adv-x="1462" 
d="M432 -17q-166 0 -256.5 134t-90.5 382q0 153 46 313.5t120 264.5h90q-83 -109 -130 -262t-47 -316q0 -214 70.5 -329.5t201.5 -115.5q121 0 189 95.5t68 264.5v330h77v-330q0 -169 67.5 -264.5t188.5 -95.5q131 0 202 116t71 329q0 163 -47 316t-130 262h89
q74 -103 120 -263.5t46 -314.5q0 -248 -90.5 -382t-256.5 -134q-111 0 -188.5 66.5t-108.5 188.5h-4q-31 -122 -108.5 -188.5t-188.5 -66.5zM707 1253l88 316h98l-121 -316h-65z" />
    <glyph glyph-name="Iocyrillic" unicode="&#x401;" horiz-adv-x="1067" 
d="M406 1563q-28 0 -48 19.5t-20 47.5q0 27 20 46.5t48 19.5q27 0 47 -19.5t20 -46.5q0 -28 -20 -47.5t-47 -19.5zM710 1563q-27 0 -47 19.5t-20 47.5q0 27 20 46.5t47 19.5q28 0 48 -19.5t20 -46.5q0 -28 -20 -47.5t-48 -19.5zM979 73v-73h-841v1443h841v-73h-762v-594h726
v-72h-726v-631h762z" />
    <glyph glyph-name="Djecyrillic" unicode="&#x402;" horiz-adv-x="1558" 
d="M1068 -12q-76 0 -108 13v72q33 -10 106 -10q144 0 229.5 98.5t85.5 259.5q0 172 -101.5 273t-273.5 101q-116 0 -222 -51t-166 -133v-611h-79v1370h-508v73h1096v-73h-509v-654h5q70 71 171 111t215 40q206 0 328.5 -121.5t122.5 -323.5q0 -194 -108.5 -314t-283.5 -120z
" />
    <glyph glyph-name="Gjecyrillic" unicode="&#x403;" horiz-adv-x="1024" 
d="M557 1553h-78l279 290h96zM217 0h-79v1443h824v-73h-745v-1370z" />
    <glyph glyph-name="Ecyrillic" unicode="&#x404;" horiz-adv-x="1345" 
d="M1277 422q-25 -199 -181.5 -321t-383.5 -122q-290 0 -462.5 203.5t-172.5 547.5q0 337 172 535.5t463 198.5q218 0 380 -134.5t186 -334.5h-80q-24 168 -163 281.5t-323 113.5q-245 0 -394 -165t-159 -448h743v-72h-743q4 -300 154.5 -476t398.5 -176q191 0 326.5 101.5
t158.5 267.5h80z" />
    <glyph glyph-name="Dzecyrillic" unicode="&#x405;" horiz-adv-x="1157" 
d="M67 385h79q9 -147 134 -240t313 -93q183 0 299.5 92.5t116.5 234.5q0 113 -81 183t-263 116l-171 42q-201 51 -294.5 136.5t-93.5 220.5q0 167 137 277t336 110q203 0 340 -106t144 -266h-79q-8 130 -122.5 214.5t-284.5 84.5q-165 0 -277.5 -88.5t-112.5 -223.5
q0 -107 81 -174t257 -111l161 -41q211 -52 307.5 -138.5t96.5 -229.5q0 -180 -139 -293t-364 -113q-222 0 -366.5 113t-153.5 293z" />
    <glyph glyph-name="Icyrillic" unicode="&#x406;" horiz-adv-x="355" 
d="M217 0h-79v1443h79v-1443z" />
    <glyph glyph-name="Yicyrillic" unicode="&#x407;" horiz-adv-x="355" 
d="M217 0h-79v1443h79v-1443zM25 1563q-28 0 -48 19.5t-20 47.5q0 27 20 46.5t48 19.5q27 0 47 -19.5t20 -46.5q0 -28 -20 -47.5t-47 -19.5zM329 1563q-27 0 -47 19.5t-20 47.5q0 27 20 46.5t47 19.5q28 0 48 -19.5t20 -46.5q0 -28 -20 -47.5t-48 -19.5z" />
    <glyph glyph-name="Jecyrillic" unicode="&#x408;" horiz-adv-x="971" 
d="M51 320h78q7 -119 92 -194.5t214 -75.5q150 0 234.5 89t84.5 250v1054h80v-1058q0 -189 -106.5 -299t-291.5 -110q-165 0 -273 96.5t-112 247.5z" />
    <glyph glyph-name="Ljecyrillic" unicode="&#x409;" horiz-adv-x="2064" 
d="M372 470q-6 -108 -23 -189.5t-49 -149.5t-86.5 -104t-130.5 -36q-13 0 -58 9v73q24 -8 54 -8q56 0 96 31t64 89t37 128.5t18 163.5l58 966h791v-588h387q210 0 337 -116.5t127 -310.5t-126.5 -311t-337.5 -117h-466v1370h-637zM1143 73h374q184 0 290.5 95.5t106.5 259.5
t-107 259.5t-290 95.5h-374v-710z" />
    <glyph glyph-name="Njecyrillic" unicode="&#x40a;" horiz-adv-x="2099" 
d="M1184 73h374q183 0 289.5 87.5t106.5 236.5q0 142 -107 225t-289 83h-374v-632zM217 705v-705h-79v1443h79v-666h887v666h80v-666h386q211 0 337.5 -103.5t126.5 -276.5q0 -180 -126.5 -288.5t-336.5 -108.5h-467v705h-887z" />
    <glyph glyph-name="Tshecyrillic" unicode="&#x40b;" horiz-adv-x="1578" 
d="M1003 795q-112 0 -218 -51t-167 -133v-611h-79v1370h-508v73h1096v-73h-509v-654h5q72 73 172 112t213 39q201 0 323 -128.5t122 -340.5v-398h-80v389q0 185 -100.5 295.5t-269.5 110.5z" />
    <glyph glyph-name="Kjecyrillic" unicode="&#x40c;" horiz-adv-x="1165" 
d="M882 1843l-297 -290h-78l279 290h96zM304 746l835 -746h-114l-803 718h-5v-718h-79v1443h79v-679h5l753 679h107z" />
    <glyph glyph-name="Ushortcyrillic" unicode="&#x40e;" horiz-adv-x="1138" 
d="M316 1789h64q0 -84 57 -133t149 -49t149 49t57 133h64q0 -109 -74.5 -172.5t-195.5 -63.5t-195.5 63.5t-74.5 172.5zM265 -9q-44 0 -69 10v73q27 -9 69 -9q89 0 151 70t127 210l-511 1098h87l463 -1005h6l437 1005h84l-468 -1062q-29 -66 -51.5 -112.5t-50.5 -94.5
t-55.5 -78.5t-61 -56t-72.5 -37t-85 -11.5z" />
    <glyph glyph-name="Dzhecyrillic" unicode="&#x40f;" horiz-adv-x="1334" 
d="M629 0h-491v1443h79v-1370h900v1370h79v-1443h-491v-285h-76v285z" />
    <glyph glyph-name="Acyrillic" unicode="&#x410;" horiz-adv-x="1241" 
d="M1125 0l-180 481h-649l-179 -481h-86l550 1443h80l549 -1443h-85zM618 1340l-296 -788h598l-297 788h-5z" />
    <glyph glyph-name="Becyrillic" unicode="&#x411;" horiz-adv-x="1150" 
d="M1072 415q0 -188 -126.5 -301.5t-336.5 -113.5h-471v1443h811v-73h-732v-540h391q211 0 337.5 -113t126.5 -302zM217 73h379q183 0 289.5 92t106.5 250q0 157 -107 249.5t-289 92.5h-379v-684z" />
    <glyph glyph-name="Vecyrillic" unicode="&#x412;" horiz-adv-x="1185" 
d="M635 0h-497v1443h486q188 0 304.5 -97t116.5 -254q0 -129 -77.5 -221t-206.5 -117v-6q158 -17 259 -114t101 -249q0 -178 -130 -281.5t-356 -103.5zM217 1371v-593h376q170 0 271 83t101 225q0 130 -96 207.5t-257 77.5h-395zM217 72h410q194 0 304 84.5t110 230.5
q0 150 -115 235t-320 85h-389v-635z" />
    <glyph glyph-name="Gecyrillic" unicode="&#x413;" horiz-adv-x="1024" 
d="M217 0h-79v1443h824v-73h-745v-1370z" />
    <glyph glyph-name="Decyrillic" unicode="&#x414;" horiz-adv-x="1372" 
d="M347 467q-9 -142 -35.5 -237.5t-83.5 -150.5v-6h854v1297h-681zM91 0v-286h-75v359h96q137 68 157 399l59 971h833v-1370h187v-359h-76v286h-1181z" />
    <glyph glyph-name="Iecyrillic" unicode="&#x415;" horiz-adv-x="1067" 
d="M979 73v-73h-841v1443h841v-73h-762v-594h726v-72h-726v-631h762z" />
    <glyph glyph-name="Zhecyrillic" unicode="&#x416;" horiz-adv-x="1804" 
d="M1027 747l757 -747h-111l-727 718h-5v-718h-80v718h-5l-728 -718h-109l756 745l-702 698h107l676 -679h5v679h80v-679h5l677 679h104z" />
    <glyph glyph-name="Zecyrillic" unicode="&#x417;" horiz-adv-x="1121" 
d="M366 712v72h172q178 0 282.5 85.5t104.5 223.5q0 130 -99.5 216t-263.5 86q-154 0 -256 -83t-120 -215h-77q18 165 141 268t314 103q195 0 318 -106t123 -265q0 -130 -81.5 -221.5t-224.5 -119.5v-5q169 -13 263.5 -110t94.5 -251q0 -178 -138.5 -296t-360.5 -118
q-207 0 -345 111t-148 274h78q10 -131 127.5 -222t288.5 -91q188 0 302.5 97.5t114.5 246.5q0 154 -110.5 237t-325.5 83h-174z" />
    <glyph glyph-name="Iicyrillic" unicode="&#x418;" horiz-adv-x="1361" 
d="M1145 0v1311h-7l-922 -1311h-78v1443h78v-1312h8l921 1312h79v-1443h-79z" />
    <glyph glyph-name="Iishortcyrillic" unicode="&#x419;" horiz-adv-x="1361" 
d="M411 1789h64q0 -84 57 -133t149 -49t149 49t57 133h64q0 -109 -74.5 -172.5t-195.5 -63.5t-195.5 63.5t-74.5 172.5zM1145 0v1311h-7l-922 -1311h-78v1443h78v-1312h8l921 1312h79v-1443h-79z" />
    <glyph glyph-name="Kacyrillic" unicode="&#x41a;" horiz-adv-x="1168" 
d="M304 746l835 -746h-114l-803 718h-5v-718h-79v1443h79v-679h5l753 679h107z" />
    <glyph glyph-name="Elcyrillic" unicode="&#x41b;" horiz-adv-x="1288" 
d="M1150 0h-79v1370h-644l-55 -900q-7 -110 -24.5 -193.5t-50 -150t-86.5 -101t-128 -34.5q-13 0 -58 9v73q24 -8 54 -8q103 0 153.5 107t61.5 305l58 966h798v-1443z" />
    <glyph glyph-name="Emcyrillic" unicode="&#x41c;" horiz-adv-x="1624" 
d="M1486 1443v-1443h-76v1279h-4l-556 -1276h-76l-556 1276h-4v-1279h-76v1443h88l583 -1340h6l581 1340h90z" />
    <glyph glyph-name="Encyrillic" unicode="&#x41d;" horiz-adv-x="1347" 
d="M1209 0h-79v705h-913v-705h-79v1443h79v-666h913v666h79v-1443z" />
    <glyph glyph-name="Ocyrillic" unicode="&#x41e;" horiz-adv-x="1440" 
d="M720 1464q295 0 469 -201t174 -541q0 -342 -173.5 -542.5t-469.5 -200.5t-469.5 200.5t-173.5 542.5q0 340 174 541t469 201zM720 1390q-258 0 -410 -181t-152 -487q0 -307 152.5 -488t409.5 -181t409.5 181t152.5 488q0 306 -152.5 487t-409.5 181z" />
    <glyph glyph-name="Pecyrillic" unicode="&#x41f;" horiz-adv-x="1334" 
d="M1196 0h-79v1370h-900v-1370h-79v1443h1058v-1443z" />
    <glyph glyph-name="Ercyrillic" unicode="&#x420;" horiz-adv-x="1136" 
d="M138 1443h469q211 0 337.5 -117.5t126.5 -313.5q0 -195 -127 -312.5t-337 -117.5h-390v-582h-79v1443zM217 1371v-717h377q183 0 289.5 96t106.5 262q0 167 -106.5 263t-289.5 96h-377z" />
    <glyph glyph-name="Escyrillic" unicode="&#x421;" horiz-adv-x="1345" 
d="M712 -21q-290 0 -462.5 203.5t-172.5 547.5q0 337 172 535.5t463 198.5q218 0 380 -134.5t186 -334.5h-80q-24 168 -163 281.5t-323 113.5q-254 0 -404 -178t-150 -482q0 -310 150.5 -493.5t403.5 -183.5q191 0 326.5 101.5t158.5 267.5h80q-25 -199 -181.5 -321
t-383.5 -122z" />
    <glyph glyph-name="Tecyrillic" unicode="&#x422;" horiz-adv-x="1158" 
d="M619 0h-80v1370h-508v73h1096v-73h-508v-1370z" />
    <glyph glyph-name="Ucyrillic" unicode="&#x423;" horiz-adv-x="1138" 
d="M265 -9q-44 0 -69 10v73q27 -9 69 -9q89 0 151 70t127 210l-511 1098h87l463 -1005h6l437 1005h84l-468 -1062q-29 -66 -51.5 -112.5t-50.5 -94.5t-55.5 -78.5t-61 -56t-72.5 -37t-85 -11.5z" />
    <glyph glyph-name="Efcyrillic" unicode="&#x424;" horiz-adv-x="1527" 
d="M724 217v1012q-264 -2 -420.5 -139.5t-156.5 -366.5t157 -366.5t420 -139.5zM1379 723q0 230 -156 367t-420 139v-1012q263 2 419.5 139.5t156.5 366.5zM724 145q-303 2 -479.5 157.5t-176.5 420.5t176.5 420.5t479.5 157.5v155h79v-155q302 -2 479 -157.5t177 -420.5
t-176.5 -420.5t-479.5 -157.5v-158h-79v158z" />
    <glyph glyph-name="Xacyrillic" unicode="&#x425;" horiz-adv-x="1235" 
d="M52 0l516 722v2l-514 719h95l469 -658h2l471 658h92l-518 -721v-2l515 -720h-95l-468 656h-2l-471 -656h-92z" />
    <glyph glyph-name="Tsecyrillic" unicode="&#x426;" horiz-adv-x="1400" 
d="M1376 -285h-75v285h-1163v1443h79v-1370h893v1370h79v-1370h187v-358z" />
    <glyph glyph-name="Checyrillic" unicode="&#x427;" horiz-adv-x="1226" 
d="M1088 0h-79v737h-4q-64 -65 -169.5 -113t-247.5 -48q-213 0 -346 131t-133 347v389h79v-380q0 -192 111.5 -302.5t288.5 -110.5q83 0 159 20.5t127.5 52.5t85 62t49.5 56v602h79v-1443z" />
    <glyph glyph-name="Shacyrillic" unicode="&#x428;" horiz-adv-x="1770" 
d="M138 0v1443h79v-1370h629v1370h79v-1370h628v1370h79v-1443h-1494z" />
    <glyph glyph-name="Shchacyrillic" unicode="&#x429;" horiz-adv-x="1844" 
d="M1820 -285h-76v285h-1606v1443h79v-1370h629v1370h79v-1370h628v1370h79v-1370h188v-358z" />
    <glyph glyph-name="Hardsigncyrillic" unicode="&#x42a;" horiz-adv-x="1389" 
d="M861 0h-467v1370h-352v73h431v-588h387q210 0 337 -116.5t127 -310.5t-126.5 -311t-336.5 -117zM473 73h374q184 0 290.5 95.5t106.5 259.5t-107 259.5t-290 95.5h-374v-710z" />
    <glyph glyph-name="Yericyrillic" unicode="&#x42b;" horiz-adv-x="1509" 
d="M1371 0h-79v1443h79v-1443zM138 0v1443h79v-588h387q210 0 337 -116.5t127 -310.5t-126.5 -311t-337.5 -117h-466zM217 73h374q184 0 290.5 95.5t106.5 259.5t-107 259.5t-290 95.5h-374v-710z" />
    <glyph glyph-name="Softsigncyrillic" unicode="&#x42c;" horiz-adv-x="1133" 
d="M138 0v1443h79v-588h387q210 0 337 -116.5t127 -310.5t-126.5 -311t-337.5 -117h-466zM217 73h374q184 0 290.5 95.5t106.5 259.5t-107 259.5t-290 95.5h-374v-710z" />
    <glyph glyph-name="Ereversedcyrillic" unicode="&#x42d;" horiz-adv-x="1353" 
d="M649 -21q-234 0 -394 121.5t-188 321.5h80q26 -163 166.5 -266t335.5 -103q248 0 395.5 177t150.5 475h-736v72h734q-11 281 -158 447t-386 166q-185 0 -330 -113.5t-172 -281.5h-80q18 132 100.5 239.5t209.5 168.5t272 61q290 0 458.5 -200.5t168.5 -541.5
q0 -344 -167.5 -543.5t-459.5 -199.5z" />
    <glyph glyph-name="IUcyrillic" unicode="&#x42e;" horiz-adv-x="1853" 
d="M1152 -24q-287 0 -453 195.5t-171 533.5h-311v-705h-79v1443h79v-666h312q14 321 180.5 505.5t442.5 184.5q289 0 456.5 -200t167.5 -545t-167 -545.5t-457 -200.5zM1152 1393q-249 0 -396.5 -182t-147.5 -489t147 -489.5t397 -182.5q249 0 396 182.5t147 489.5t-147 489
t-396 182z" />
    <glyph glyph-name="IAcyrillic" unicode="&#x42f;" horiz-adv-x="1157" 
d="M940 685v685h-374q-185 0 -290.5 -91.5t-105.5 -251.5t105.5 -251t290.5 -91h374zM545 612l-416 -612h-92l423 622q-167 25 -268.5 131.5t-101.5 273.5q0 191 125 303.5t338 112.5h466v-1443h-79v612h-395z" />
    <glyph glyph-name="acyrillic" unicode="&#x430;" horiz-adv-x="1050" 
d="M463 55q161 0 274 100.5t113 243.5v161l-359 -27q-155 -11 -236 -73t-81 -170q0 -103 81.5 -169t207.5 -66zM453 -14q-158 0 -257.5 84.5t-99.5 219.5q0 138 97.5 216t287.5 92l369 27v96q0 141 -81.5 220t-226.5 79q-137 0 -224 -67t-106 -189h-75q14 149 125 238
t281 89q177 0 280.5 -98t103.5 -267v-726h-75v232h-2q-40 -110 -150 -178t-247 -68z" />
    <glyph glyph-name="becyrillic" unicode="&#x431;" horiz-adv-x="1125" 
d="M569 -20q-231 0 -355.5 160t-124.5 457q0 199 18.5 343.5t57.5 250.5t104.5 170t156.5 94.5t216 32.5q88 0 160 7q115 10 177 37v-68q-52 -29 -171 -39q-76 -9 -165 -9q-125 -1 -209.5 -33.5t-141.5 -107.5t-87.5 -189t-45.5 -289h4q50 131 158 203.5t255 72.5
q216 0 345 -147.5t129 -392.5q0 -252 -131 -402.5t-350 -150.5zM569 51q184 0 293 130.5t109 351.5q0 215 -108.5 342t-293.5 127t-293.5 -127t-108.5 -342q0 -221 108.5 -351.5t293.5 -130.5z" />
    <glyph glyph-name="vecyrillic" unicode="&#x432;" horiz-adv-x="983" 
d="M523 1008h-317v-417h307q123 0 193.5 58t70.5 159q0 95 -66.5 147.5t-187.5 52.5zM517 523h-311v-455h328q147 0 223.5 59t76.5 175q0 108 -84 164.5t-233 56.5zM129 0v1077h400q150 0 237 -70.5t87 -192.5q0 -97 -56 -165t-148 -85v-4q112 -10 186.5 -78.5t74.5 -180.5
q0 -146 -97.5 -223.5t-277.5 -77.5h-406z" />
    <glyph glyph-name="gecyrillic" unicode="&#x433;" horiz-adv-x="859" 
d="M804 1009h-598v-1009h-77v1077h675v-68z" />
    <glyph glyph-name="decyrillic" unicode="&#x434;" horiz-adv-x="1188" 
d="M902 68v941h-546q-24 -389 -41 -559q-13 -138 -37 -232.5t-71 -146.5v-3h695zM98 -285h-74v353h85q105 69 133 387q29 323 44 622h693v-1009h178v-353h-74v285h-985v-285z" />
    <glyph glyph-name="iecyrillic" unicode="&#x435;" horiz-adv-x="1082" 
d="M546 1021q-168 0 -275 -118t-116 -311h773q-1 191 -106.5 310t-275.5 119zM915 301h79q-27 -139 -145.5 -227t-293.5 -88q-221 0 -350.5 146.5t-129.5 404.5q0 250 129.5 402t342.5 152q208 0 334 -142.5t126 -377.5v-45h-853v-4q0 -218 109 -342t293 -124
q144 0 239.5 68t119.5 177z" />
    <glyph glyph-name="zhecyrillic" unicode="&#x436;" horiz-adv-x="1424" 
d="M830 563l568 -563h-108l-537 535h-4v-535h-77v535h-4l-537 -535h-105l566 560l-542 517h104l514 -495h4v495h77v-495h4l514 495h102z" />
    <glyph glyph-name="zecyrillic" unicode="&#x437;" horiz-adv-x="939" 
d="M477 -19q-171 0 -279.5 80t-133.5 212h78q23 -99 110 -161.5t225 -62.5q141 0 224.5 64.5t83.5 176.5q0 115 -84 173t-235 58h-173v68h173q133 0 208 59t75 160q0 98 -72.5 156.5t-197.5 58.5q-132 0 -214.5 -64.5t-104.5 -168.5h-77q25 133 126.5 217t268.5 84
q162 0 254.5 -76t92.5 -205q0 -94 -61 -162t-156 -86v-5q111 -15 182.5 -82.5t71.5 -179.5q0 -148 -105 -231t-280 -83z" />
    <glyph glyph-name="iicyrillic" unicode="&#x438;" horiz-adv-x="1100" 
d="M206 0h-77v1077h77v-955h5l683 955h77v-1077h-77v954h-4z" />
    <glyph glyph-name="iishortcyrillic" unicode="&#x439;" horiz-adv-x="1100" 
d="M295 1503h65q0 -91 56 -144.5t152 -53.5t152 53.5t56 144.5h65q0 -117 -74 -185t-199 -68t-199 68t-74 185zM206 0h-77v1077h77v-955h5l683 955h77v-1077h-77v954h-4z" />
    <glyph glyph-name="kacyrillic" unicode="&#x43a;" horiz-adv-x="948" 
d="M289 561l633 -561h-109l-603 535h-4v-535h-77v1077h77v-495h4l580 495h104z" />
    <glyph glyph-name="elcyrillic" unicode="&#x43b;" horiz-adv-x="1090" 
d="M327 450q-7 -84 -16.5 -146t-28 -124t-44 -101t-66 -63.5t-93.5 -24.5q-41 0 -56 10v71q18 -9 54 -9q35 0 62.5 20t46 53t32 85t21.5 107t14 127q24 272 42 622h666v-1077h-77v1009h-518q-25 -412 -39 -559z" />
    <glyph glyph-name="emcyrillic" unicode="&#x43c;" horiz-adv-x="1382" 
d="M206 0h-77v1077h90l472 -976h4l470 976h87v-1077h-77v929h-5l-448 -921h-62l-449 921h-5v-929z" />
    <glyph glyph-name="encyrillic" unicode="&#x43d;" horiz-adv-x="1089" 
d="M883 0v524h-677v-524h-77v1077h77v-485h677v485h77v-1077h-77z" />
    <glyph glyph-name="ocyrillic" unicode="&#x43e;" horiz-adv-x="1109" 
d="M554 -14q-216 0 -347.5 150t-131.5 402q0 253 131.5 403t347.5 150q217 0 348.5 -150t131.5 -403q0 -252 -132 -402t-348 -150zM554 56q182 0 291.5 130.5t109.5 351.5q0 222 -109 352t-292 130t-292 -130t-109 -352t109.5 -352t291.5 -130z" />
    <glyph glyph-name="pecyrillic" unicode="&#x43f;" horiz-adv-x="1079" 
d="M873 0v1009h-667v-1009h-77v1077h821v-1077h-77z" />
    <glyph glyph-name="ercyrillic" unicode="&#x440;" horiz-adv-x="1139" 
d="M608 1091q203 0 329.5 -153.5t126.5 -399.5t-126 -399t-329 -153q-146 0 -254.5 84t-144.5 214h-3v-637h-78v1430h73v-288h3q37 131 147.5 216.5t255.5 85.5zM599 56q172 0 279 133.5t107 348.5t-107 348.5t-279 133.5q-173 0 -282.5 -134t-109.5 -348
q0 -213 109.5 -347.5t282.5 -134.5z" />
    <glyph glyph-name="escyrillic" unicode="&#x441;" horiz-adv-x="1037" 
d="M968 774h-78q-30 110 -123.5 178t-224.5 68q-181 0 -288.5 -130.5t-107.5 -351.5t107.5 -351.5t289.5 -130.5q128 0 220 63t124 168h78q-33 -136 -147 -218.5t-276 -82.5q-217 0 -345.5 149t-128.5 403q0 253 129 403t345 150q163 0 278.5 -89.5t147.5 -227.5z" />
    <glyph glyph-name="tecyrillic" unicode="&#x442;" horiz-adv-x="940" 
d="M900 1077v-68h-391v-1009h-77v1009h-392v68h860z" />
    <glyph glyph-name="ucyrillic" unicode="&#x443;" horiz-adv-x="954" 
d="M197 -369q-32 0 -54 9v69q24 -8 57 -8q72 0 116 43.5t87 155.5l33 85l-412 1092h83l369 -1001h2l369 1001h82l-423 -1126q-72 -192 -133.5 -256t-175.5 -64z" />
    <glyph glyph-name="efcyrillic" unicode="&#x444;" horiz-adv-x="1379" 
d="M652 51v969q-228 -6 -363.5 -135.5t-135.5 -349.5q0 -219 135.5 -348t363.5 -136zM1226 536q0 220 -135.5 349t-362.5 135v-969q227 7 362.5 136t135.5 349zM652 -18q-264 7 -420.5 154.5t-156.5 398.5q0 252 157 400t420 155v358h76v-358q262 -7 419 -154.5t157 -399.5
t-157 -399.5t-419 -154.5v-335h-76v335z" />
    <glyph glyph-name="hacyrillic" unicode="&#x445;" horiz-adv-x="917" 
d="M459 485h-2l-347 -485h-90l395 546l-394 531h92l345 -471h3l344 471h92l-394 -529l392 -548h-90z" />
    <glyph glyph-name="tsecyrillic" unicode="&#x446;" horiz-adv-x="1156" 
d="M1125 -285h-75v285h-921v1077h77v-1009h664v1009h77v-1009h178v-353z" />
    <glyph glyph-name="checyrillic" unicode="&#x447;" horiz-adv-x="1008" 
d="M879 0h-77v543h-4q-52 -63 -136 -100t-186 -37q-177 0 -276.5 106t-99.5 280v285h77v-275q0 -150 80 -238t223 -88q109 0 193.5 47.5t128.5 118.5v435h77v-1077z" />
    <glyph glyph-name="shacyrillic" unicode="&#x448;" horiz-adv-x="1565" 
d="M129 0v1077h77v-1009h538v1009h77v-1009h538v1009h77v-1077h-1307z" />
    <glyph glyph-name="shchacyrillic" unicode="&#x449;" horiz-adv-x="1645" 
d="M1613 -285h-74v285h-1410v1077h77v-1009h538v1009h77v-1009h538v1009h77v-1009h177v-353z" />
    <glyph glyph-name="hardsigncyrillic" unicode="&#x44a;" horiz-adv-x="1122" 
d="M681 0h-351v1009h-290v68h367v-395h274q170 0 270.5 -92t100.5 -248q0 -157 -100.5 -249.5t-270.5 -92.5zM681 615h-274v-547h274q134 0 214 74.5t80 199.5q0 124 -80.5 198.5t-213.5 74.5z" />
    <glyph glyph-name="yericyrillic" unicode="&#x44b;" horiz-adv-x="1250" 
d="M1044 0v1077h77v-1077h-77zM481 615h-275v-547h275q133 0 213 74.5t80 199.5q0 124 -80 198.5t-213 74.5zM129 0v1077h77v-395h275q168 0 269 -92t101 -248t-101 -249t-269 -93h-352z" />
    <glyph glyph-name="softsigncyrillic" unicode="&#x44c;" horiz-adv-x="921" 
d="M481 615h-275v-547h275q133 0 213 74.5t80 199.5q0 124 -80 198.5t-213 74.5zM129 0v1077h77v-395h275q168 0 269 -92t101 -248t-101 -249t-269 -93h-352z" />
    <glyph glyph-name="ereversedcyrillic" unicode="&#x44d;" horiz-adv-x="1046" 
d="M152 287q33 -105 126 -168t222 -63q179 0 284.5 126t107.5 342h-572v68h570q-12 197 -116 312.5t-273 115.5q-131 0 -226.5 -68.5t-125.5 -177.5h-78q31 138 148.5 227.5t281.5 89.5q216 0 343 -150t127 -403q0 -254 -127 -403t-344 -149q-162 0 -278 82.5t-148 218.5h78
z" />
    <glyph glyph-name="iucyrillic" unicode="&#x44e;" horiz-adv-x="1494" 
d="M950 -20q-213 0 -339 146t-130 398h-275v-524h-77v1077h77v-485h277q14 231 140 365t327 134q215 0 342 -150t127 -406t-127.5 -405.5t-341.5 -149.5zM950 51q178 0 284.5 131t106.5 353q0 224 -106.5 354.5t-284.5 130.5q-179 0 -285 -130.5t-106 -354.5
q0 -223 106 -353.5t285 -130.5z" />
    <glyph glyph-name="iacyrillic" unicode="&#x44f;" horiz-adv-x="954" 
d="M459 502h289v507h-289q-134 0 -214 -69.5t-80 -186.5q0 -113 80.5 -182t213.5 -69zM748 0v434h-274l-325 -434h-92l333 444q-140 16 -221 98t-81 210q0 150 100.5 237.5t270.5 87.5h366v-1077h-77z" />
    <glyph glyph-name="iocyrillic" unicode="&#x451;" horiz-adv-x="1082" 
d="M546 1021q-168 0 -275 -118t-116 -311h773q-1 191 -106.5 310t-275.5 119zM915 301h79q-27 -139 -145.5 -227t-293.5 -88q-221 0 -350.5 146.5t-129.5 404.5q0 250 129.5 402t342.5 152q208 0 334 -142.5t126 -377.5v-45h-853v-4q0 -218 109 -342t293 -124
q144 0 239.5 68t119.5 177zM395 1256q-28 0 -48 19.5t-20 47.5q0 27 20 46.5t48 19.5q27 0 47 -19.5t20 -46.5q0 -28 -20 -47.5t-47 -19.5zM699 1256q-27 0 -47 19.5t-20 47.5q0 27 20 46.5t47 19.5q28 0 48 -19.5t20 -46.5q0 -28 -20 -47.5t-48 -19.5z" />
    <glyph glyph-name="djecyrillic" unicode="&#x452;" horiz-adv-x="1125" 
d="M234 840h2q39 115 138.5 183t234.5 68q177 0 285 -108.5t108 -288.5v-786q0 -145 -68.5 -208t-210.5 -63h-29v69h26q108 0 156 47.5t48 154.5v777q0 155 -90 245t-242 90q-159 0 -258.5 -106t-99.5 -275v-639h-78v1278h-133v62h133v166h78v-166h283v-62h-283v-438z" />
    <glyph glyph-name="gjecyrillic" unicode="&#x453;" horiz-adv-x="862" 
d="M472 1253h-74l230 303h93zM804 1009h-598v-1009h-77v1077h675v-68z" />
    <glyph glyph-name="ecyrillic" unicode="&#x454;" horiz-adv-x="1061" 
d="M901 287h79q-33 -136 -147.5 -218.5t-275.5 -82.5q-217 0 -346 149t-129 403q0 253 129 403t345 150q164 0 279.5 -89.5t146.5 -227.5h-78q-30 110 -123.5 178t-224.5 68q-169 0 -275 -115.5t-118 -312.5h571v-68h-573q2 -215 109.5 -341.5t286.5 -126.5q128 0 220 63
t124 168z" />
    <glyph glyph-name="dzecyrillic" unicode="&#x455;" horiz-adv-x="943" 
d="M104 801q0 127 106.5 208.5t263.5 81.5q162 0 265.5 -88.5t116.5 -235.5h-76q-12 115 -93.5 185.5t-213.5 70.5q-122 0 -207.5 -61.5t-85.5 -157.5q0 -78 54.5 -124t171.5 -74l167 -41q161 -39 230.5 -104t69.5 -176q0 -133 -112 -216t-286 -83q-171 0 -284 91t-122 227
h78q11 -108 102.5 -179.5t227.5 -71.5q137 0 228 63t91 164q0 84 -57 134.5t-189 81.5l-173 42q-139 33 -206 96.5t-67 166.5z" />
    <glyph glyph-name="icyrillic" unicode="&#x456;" horiz-adv-x="377" 
d="M149 0v1077h78v-1077h-78zM188 1341q-26 0 -44 18t-18 43q0 26 18 44t44 18t44.5 -18t18.5 -44q0 -25 -18.5 -43t-44.5 -18z" />
    <glyph glyph-name="yicyrillic" unicode="&#x457;" horiz-adv-x="356" 
d="M48 1341q-26 0 -44.5 18.5t-18.5 43.5q0 26 18.5 44t44.5 18t44.5 -18t18.5 -44t-18.5 -44t-44.5 -18zM307 1341q-26 0 -44.5 18.5t-18.5 43.5q0 26 18.5 44t44.5 18t44.5 -18t18.5 -44t-18.5 -44t-44.5 -18zM129 0v1077h78v-1077h-78z" />
    <glyph glyph-name="jecyrillic" unicode="&#x458;" horiz-adv-x="360" 
d="M217 1077v-1165q0 -145 -68 -210t-210 -65h-30v69h27q107 0 155 47.5t48 154.5v1169h78zM178 1341q-26 0 -44 18t-18 43q0 26 18 44t44 18t44.5 -18t18.5 -44q0 -25 -18.5 -43t-44.5 -18z" />
    <glyph glyph-name="ljecyrillic" unicode="&#x459;" horiz-adv-x="1677" 
d="M327 450q-7 -84 -16.5 -146t-28 -124t-44 -101t-66 -63.5t-93.5 -24.5q-41 0 -56 10v71q18 -9 54 -9q35 0 62.5 20t46 53t32 85t21.5 107t14 127q24 272 42 622h667v-395h274q170 0 270.5 -92t100.5 -248q0 -157 -100.5 -249.5t-270.5 -92.5h-351v1009h-519
q-25 -412 -39 -559zM1236 615h-274v-547h274q134 0 214 74.5t80 199.5q0 124 -80.5 198.5t-213.5 74.5z" />
    <glyph glyph-name="njecyrillic" unicode="&#x45a;" horiz-adv-x="1654" 
d="M1217 552h-277v-484h277q133 0 211.5 66t78.5 176q0 111 -79 176.5t-211 65.5zM863 0v550h-657v-550h-77v1077h77v-459h657v459h77v-457h277q168 0 267.5 -84t99.5 -226t-99.5 -226t-267.5 -84h-354z" />
    <glyph glyph-name="tshecyrillic" unicode="&#x45b;" horiz-adv-x="1125" 
d="M234 840h2q39 115 138.5 183t234.5 68q177 0 285 -108.5t108 -288.5v-694h-78v685q0 155 -90 245t-242 90q-159 0 -258.5 -106t-99.5 -275v-639h-78v1278h-133v62h133v166h78v-166h283v-62h-283v-438z" />
    <glyph glyph-name="kjecyrillic" unicode="&#x45c;" horiz-adv-x="948" 
d="M745 1556l-249 -303h-74l230 303h93zM289 561l633 -561h-109l-603 535h-4v-535h-77v1077h77v-495h4l580 495h104z" />
    <glyph glyph-name="ushortcyrillic" unicode="&#x45e;" horiz-adv-x="954" 
d="M220 1503h65q0 -91 56 -144.5t152 -53.5t152 53.5t56 144.5h65q0 -117 -74 -185t-199 -68t-199 68t-74 185zM197 -369q-32 0 -54 9v69q24 -8 57 -8q72 0 116 43.5t87 155.5l33 85l-412 1092h83l369 -1001h2l369 1001h82l-423 -1126q-72 -192 -133.5 -256t-175.5 -64z" />
    <glyph glyph-name="dzhecyrillic" unicode="&#x45f;" horiz-adv-x="1079" 
d="M950 0h-373v-285h-75v285h-373v1077h77v-1009h667v1009h77v-1077z" />
    <glyph glyph-name="Geupturncyrillic" unicode="&#x490;" horiz-adv-x="1024" 
d="M217 1370v-1370h-79v1443h749v258h75v-331h-745z" />
    <glyph glyph-name="geupturncyrillic" unicode="&#x491;" horiz-adv-x="859" 
d="M804 1009h-598v-1009h-77v1077h600v257h75v-325z" />
    <glyph glyph-name="baht" unicode="&#xe3f;" horiz-adv-x="1192" 
d="M549 72h21q205 0 315 83.5t110 239.5q0 153 -116 238t-325 85h-5v-646zM196 72h289v646h-289v-646zM196 1371v-582h289v582h-289zM557 1371h-8v-582q172 2 271.5 78.5t99.5 215.5q0 134 -98 211t-265 77zM715 764v-7q159 -14 259.5 -113.5t100.5 -251.5q0 -186 -129 -289
t-368 -103h-29v-167h-64v167h-368v1443h368v154h64v-154h18q201 0 317 -94t116 -257q0 -131 -77 -217.5t-208 -110.5z" />
    <glyph glyph-name="Aringbelow" unicode="&#x1e00;" horiz-adv-x="1221" 
d="M1115 0l-180 481h-649l-179 -481h-86l550 1443h80l549 -1443h-85zM608 1340l-296 -788h598l-297 788h-5zM611 -492q-71 0 -121.5 51t-50.5 122t50.5 122t121.5 51t121.5 -51t50.5 -122t-50.5 -122t-121.5 -51zM611 -444q52 0 88 36.5t36 88.5t-36 88.5t-88 36.5
t-88 -36.5t-36 -88.5t36 -88.5t88 -36.5z" />
    <glyph glyph-name="aringbelow" unicode="&#x1e01;" horiz-adv-x="1030" 
d="M453 55q161 0 274 100.5t113 243.5v161l-359 -27q-155 -11 -236 -73t-81 -170q0 -103 81.5 -169t207.5 -66zM443 -14q-158 0 -257.5 84.5t-99.5 219.5q0 138 97.5 216t287.5 92l369 27v96q0 141 -81.5 220t-226.5 79q-137 0 -224 -67t-106 -189h-75q14 149 125 238
t281 89q177 0 280.5 -98t103.5 -267v-726h-75v232h-2q-40 -110 -150 -178t-247 -68zM518 -492q-71 0 -121.5 51t-50.5 122t50.5 122t121.5 51t121.5 -51t50.5 -122t-50.5 -122t-121.5 -51zM518 -444q52 0 88 36.5t36 88.5t-36 88.5t-88 36.5t-88 -36.5t-36 -88.5t36 -88.5
t88 -36.5z" />
    <glyph glyph-name="Bdotaccent" unicode="&#x1e02;" horiz-adv-x="1165" 
d="M516 1563q-32 0 -54.5 22.5t-22.5 53.5t22.5 53.5t54.5 22.5t54.5 -22.5t22.5 -53.5t-22.5 -53.5t-54.5 -22.5zM625 0h-497v1443h486q188 0 304.5 -97t116.5 -254q0 -129 -77.5 -221t-206.5 -117v-6q158 -17 259 -114t101 -249q0 -178 -130 -281.5t-356 -103.5zM207 1371
v-593h376q170 0 271 83t101 225q0 130 -96 207.5t-257 77.5h-395zM207 72h410q194 0 304 84.5t110 230.5q0 150 -115 235t-320 85h-389v-635z" />
    <glyph glyph-name="bdotaccent" unicode="&#x1e03;" horiz-adv-x="1129" 
d="M168 1626q-32 0 -54.5 22.5t-22.5 53.5t22.5 53.5t54.5 22.5t54.5 -22.5t22.5 -53.5t-22.5 -53.5t-54.5 -22.5zM611 -14q-144 0 -253 81.5t-151 220.5h-3v-288h-75v1506h78v-713h3q40 136 148.5 217t252.5 81q201 0 327 -153t126 -399t-126 -399.5t-327 -153.5zM600 1020
q-173 0 -283 -135t-110 -347t109.5 -347t282.5 -135t279.5 133.5t106.5 349.5q0 215 -106.5 348t-278.5 133z" />
    <glyph glyph-name="Bdotbelow" unicode="&#x1e04;" horiz-adv-x="1165" 
d="M516 -295q-32 0 -54.5 22.5t-22.5 53.5t22.5 53.5t54.5 22.5t54.5 -22.5t22.5 -53.5t-22.5 -53.5t-54.5 -22.5zM625 0h-497v1443h486q188 0 304.5 -97t116.5 -254q0 -129 -77.5 -221t-206.5 -117v-6q158 -17 259 -114t101 -249q0 -178 -130 -281.5t-356 -103.5zM207 1371
v-593h376q170 0 271 83t101 225q0 130 -96 207.5t-257 77.5h-395zM207 72h410q194 0 304 84.5t110 230.5q0 150 -115 235t-320 85h-389v-635z" />
    <glyph glyph-name="bdotbelow" unicode="&#x1e05;" horiz-adv-x="1129" 
d="M600 -295q-32 0 -54.5 22.5t-22.5 53.5t22.5 53.5t54.5 22.5t54.5 -22.5t22.5 -53.5t-22.5 -53.5t-54.5 -22.5zM611 -14q-144 0 -253 81.5t-151 220.5h-3v-288h-75v1506h78v-713h3q40 136 148.5 217t252.5 81q201 0 327 -153t126 -399t-126 -399.5t-327 -153.5zM600 1020
q-173 0 -283 -135t-110 -347t109.5 -347t282.5 -135t279.5 133.5t106.5 349.5q0 215 -106.5 348t-278.5 133z" />
    <glyph glyph-name="Blinebelow" unicode="&#x1e06;" horiz-adv-x="1165" 
d="M625 0h-497v1443h486q188 0 304.5 -97t116.5 -254q0 -129 -77.5 -221t-206.5 -117v-6q158 -17 259 -114t101 -249q0 -178 -130 -281.5t-356 -103.5zM207 1371v-593h376q170 0 271 83t101 225q0 130 -96 207.5t-257 77.5h-395zM207 72h410q194 0 304 84.5t110 230.5
q0 150 -115 235t-320 85h-389v-635zM806 -205v-57h-580v57h580z" />
    <glyph glyph-name="blinebelow" unicode="&#x1e07;" horiz-adv-x="1129" 
d="M890 -205v-57h-580v57h580zM611 -14q-144 0 -253 81.5t-151 220.5h-3v-288h-75v1506h78v-713h3q40 136 148.5 217t252.5 81q201 0 327 -153t126 -399t-126 -399.5t-327 -153.5zM600 1020q-173 0 -283 -135t-110 -347t109.5 -347t282.5 -135t279.5 133.5t106.5 349.5
q0 215 -106.5 348t-278.5 133z" />
    <glyph glyph-name="Ccedillaacute" unicode="&#x1e08;" horiz-adv-x="1326" 
d="M1031 1844l-297 -290h-78l279 290h96zM1269 981h-79q-23 174 -162.5 291.5t-325.5 117.5q-254 0 -404 -178t-150 -482q0 -310 150.5 -493.5t403.5 -183.5q192 0 328.5 105.5t159.5 277.5h79q-24 -199 -172.5 -324t-368.5 -133l-50 -120q96 0 151.5 -41t55.5 -111
q0 -75 -60.5 -122.5t-156.5 -47.5q-72 -2 -128 16v56q43 -17 122 -17q68 0 113.5 32t45.5 81q0 50 -41 76t-119 26h-52v43l55 130q-274 14 -435.5 216t-161.5 534q0 337 172 535.5t463 198.5q220 0 382 -138.5t185 -344.5z" />
    <glyph glyph-name="ccedillaacute" unicode="&#x1e09;" horiz-adv-x="1028" 
d="M808 1556l-249 -303h-74l230 303h93zM969 753h-77q-24 118 -119.5 192.5t-233.5 74.5q-181 0 -288.5 -130.5t-107.5 -351.5t107.5 -351.5t289.5 -130.5q137 0 232 71t119 188h78q-24 -141 -132.5 -231t-267.5 -97l-53 -128q96 0 151.5 -41t55.5 -111q0 -75 -60.5 -122.5
t-156.5 -47.5q-72 -2 -128 16v56q43 -17 122 -17q68 0 113.5 32t45.5 81q0 50 -41 76t-119 26h-52v43l58 137q-202 12 -321 160t-119 391q0 253 129 403t345 150q170 0 287.5 -96t142.5 -242z" />
    <glyph glyph-name="Ddotaccent" unicode="&#x1e0a;" horiz-adv-x="1332" 
d="M552 1563q-32 0 -54.5 22.5t-22.5 53.5t22.5 53.5t54.5 22.5t54.5 -22.5t22.5 -53.5t-22.5 -53.5t-54.5 -22.5zM128 1443h449q328 0 508 -189t180 -532q0 -344 -180 -533t-508 -189h-449v1443zM208 1370v-1297h365q295 0 453.5 168.5t158.5 479.5q0 313 -159 481
t-453 168h-365z" />
    <glyph glyph-name="ddotaccent" unicode="&#x1e0b;" horiz-adv-x="1136" 
d="M968 1626q-32 0 -54.5 22.5t-22.5 53.5t22.5 53.5t54.5 22.5t54.5 -22.5t22.5 -53.5t-22.5 -53.5t-54.5 -22.5zM525 -14q-203 0 -331.5 153.5t-128.5 398.5q0 246 128.5 399.5t330.5 153.5q146 0 256 -84.5t147 -213.5h2v713h78v-1506h-73v290h-3q-38 -134 -148.5 -219
t-257.5 -85zM534 1020q-173 0 -281.5 -133t-108.5 -348t108.5 -349t281.5 -134q174 0 285 134.5t111 347.5t-111 347.5t-285 134.5z" />
    <glyph glyph-name="Ddotbelow" unicode="&#x1e0c;" horiz-adv-x="1332" 
d="M552 -295q-32 0 -54.5 22.5t-22.5 53.5t22.5 53.5t54.5 22.5t54.5 -22.5t22.5 -53.5t-22.5 -53.5t-54.5 -22.5zM128 1443h449q328 0 508 -189t180 -532q0 -344 -180 -533t-508 -189h-449v1443zM208 1370v-1297h365q295 0 453.5 168.5t158.5 479.5q0 313 -159 481
t-453 168h-365z" />
    <glyph glyph-name="ddotbelow" unicode="&#x1e0d;" horiz-adv-x="1136" 
d="M546 -295q-32 0 -54.5 22.5t-22.5 53.5t22.5 53.5t54.5 22.5t54.5 -22.5t22.5 -53.5t-22.5 -53.5t-54.5 -22.5zM525 -14q-203 0 -331.5 153.5t-128.5 398.5q0 246 128.5 399.5t330.5 153.5q146 0 256 -84.5t147 -213.5h2v713h78v-1506h-73v290h-3q-38 -134 -148.5 -219
t-257.5 -85zM534 1020q-173 0 -281.5 -133t-108.5 -348t108.5 -349t281.5 -134q174 0 285 134.5t111 347.5t-111 347.5t-285 134.5z" />
    <glyph glyph-name="Dlinebelow" unicode="&#x1e0e;" horiz-adv-x="1332" 
d="M842 -205v-57h-580v57h580zM128 1443h449q328 0 508 -189t180 -532q0 -344 -180 -533t-508 -189h-449v1443zM208 1370v-1297h365q295 0 453.5 168.5t158.5 479.5q0 313 -159 481t-453 168h-365z" />
    <glyph glyph-name="dlinebelow" unicode="&#x1e0f;" horiz-adv-x="1136" 
d="M836 -205v-57h-580v57h580zM525 -14q-203 0 -331.5 153.5t-128.5 398.5q0 246 128.5 399.5t330.5 153.5q146 0 256 -84.5t147 -213.5h2v713h78v-1506h-73v290h-3q-38 -134 -148.5 -219t-257.5 -85zM534 1020q-173 0 -281.5 -133t-108.5 -348t108.5 -349t281.5 -134
q174 0 285 134.5t111 347.5t-111 347.5t-285 134.5z" />
    <glyph glyph-name="Dcommaaccent" unicode="&#x1e10;" horiz-adv-x="1332" 
d="M495 -493h-63l99 344h78zM128 1443h449q328 0 508 -189t180 -532q0 -344 -180 -533t-508 -189h-449v1443zM208 1370v-1297h365q295 0 453.5 168.5t158.5 479.5q0 313 -159 481t-453 168h-365z" />
    <glyph glyph-name="dcommaaccent" unicode="&#x1e11;" horiz-adv-x="1136" 
d="M489 -493h-63l99 344h78zM525 -14q-203 0 -331.5 153.5t-128.5 398.5q0 246 128.5 399.5t330.5 153.5q146 0 256 -84.5t147 -213.5h2v713h78v-1506h-73v290h-3q-38 -134 -148.5 -219t-257.5 -85zM534 1020q-173 0 -281.5 -133t-108.5 -348t108.5 -349t281.5 -134
q174 0 285 134.5t111 347.5t-111 347.5t-285 134.5z" />
    <glyph glyph-name="Dcircumflexbelow" unicode="&#x1e12;" horiz-adv-x="1332" 
d="M128 1443h449q328 0 508 -189t180 -532q0 -344 -180 -533t-508 -189h-449v1443zM208 1370v-1297h365q295 0 453.5 168.5t158.5 479.5q0 313 -159 481t-453 168h-365zM518 -147h68l271 -290h-83l-221 238h-2l-221 -238h-83z" />
    <glyph glyph-name="dcircumflexbelow" unicode="&#x1e13;" horiz-adv-x="1136" 
d="M525 -14q-203 0 -331.5 153.5t-128.5 398.5q0 246 128.5 399.5t330.5 153.5q146 0 256 -84.5t147 -213.5h2v713h78v-1506h-73v290h-3q-38 -134 -148.5 -219t-257.5 -85zM534 1020q-173 0 -281.5 -133t-108.5 -348t108.5 -349t281.5 -134q174 0 285 134.5t111 347.5
t-111 347.5t-285 134.5zM512 -147h68l271 -290h-83l-221 238h-2l-221 -238h-83z" />
    <glyph glyph-name="Emacrongrave" unicode="&#x1e14;" horiz-adv-x="1068" 
d="M258 1622v57h580v-57h-580zM597 1776h-74l-224 203h91zM969 73v-73h-841v1443h841v-73h-762v-594h726v-72h-726v-631h762z" />
    <glyph glyph-name="emacrongrave" unicode="&#x1e15;" horiz-adv-x="1062" 
d="M536 1021q-168 0 -275 -118t-116 -311h773q-1 191 -106.5 310t-275.5 119zM905 301h79q-27 -139 -145.5 -227t-293.5 -88q-221 0 -350.5 146.5t-129.5 404.5q0 250 129.5 402t342.5 152q208 0 334 -142.5t126 -377.5v-45h-853v-4q0 -218 109 -342t293 -124
q144 0 239.5 68t119.5 177zM594 1526h-74l-244 295h89zM830 1366v-58h-596v58h596z" />
    <glyph glyph-name="Emacronacute" unicode="&#x1e16;" horiz-adv-x="1068" 
d="M838 1622h-580v57h580v-57zM499 1776l207 203h91l-224 -203h-74zM969 73v-73h-841v1443h841v-73h-762v-594h726v-72h-726v-631h762z" />
    <glyph glyph-name="emacronacute" unicode="&#x1e17;" horiz-adv-x="1062" 
d="M536 1021q-168 0 -275 -118t-116 -311h773q-1 191 -106.5 310t-275.5 119zM905 301h79q-27 -139 -145.5 -227t-293.5 -88q-221 0 -350.5 146.5t-129.5 404.5q0 250 129.5 402t342.5 152q208 0 334 -142.5t126 -377.5v-45h-853v-4q0 -218 109 -342t293 -124
q144 0 239.5 68t119.5 177zM480 1526l229 295h89l-244 -295h-74zM830 1366v-58h-596v58h596z" />
    <glyph glyph-name="Ecircumflexbelow" unicode="&#x1e18;" horiz-adv-x="1068" 
d="M969 73v-73h-841v1443h841v-73h-762v-594h726v-72h-726v-631h762zM514 -147h68l271 -290h-83l-221 238h-2l-221 -238h-83z" />
    <glyph glyph-name="ecircumflexbelow" unicode="&#x1e19;" horiz-adv-x="1062" 
d="M536 1021q-168 0 -275 -118t-116 -311h773q-1 191 -106.5 310t-275.5 119zM905 301h79q-27 -139 -145.5 -227t-293.5 -88q-221 0 -350.5 146.5t-129.5 404.5q0 250 129.5 402t342.5 152q208 0 334 -142.5t126 -377.5v-45h-853v-4q0 -218 109 -342t293 -124
q144 0 239.5 68t119.5 177zM511 -147h68l271 -290h-83l-221 238h-2l-221 -238h-83z" />
    <glyph glyph-name="Etildebelow" unicode="&#x1e1a;" horiz-adv-x="1068" 
d="M683 -366q-36 0 -67.5 17t-55 41l-45.5 48t-47.5 41t-52.5 17q-91 0 -91 -153h-60q0 98 38.5 155t111.5 57q36 0 68.5 -17t56 -41l45.5 -48t47 -41t52 -17q89 0 89 154h61q0 -97 -39 -155t-111 -58zM969 73v-73h-841v1443h841v-73h-762v-594h726v-72h-726v-631h762z" />
    <glyph glyph-name="etildebelow" unicode="&#x1e1b;" horiz-adv-x="1062" 
d="M680 -366q-36 0 -67.5 17t-55 41l-45.5 48t-47.5 41t-52.5 17q-91 0 -91 -153h-60q0 98 38.5 155t111.5 57q36 0 68.5 -17t56 -41l45.5 -48t47.5 -41t51.5 -17q89 0 89 154h61q0 -97 -39 -155t-111 -58zM536 1021q-168 0 -275 -118t-116 -311h773q-1 191 -106.5 310
t-275.5 119zM905 301h79q-27 -139 -145.5 -227t-293.5 -88q-221 0 -350.5 146.5t-129.5 404.5q0 250 129.5 402t342.5 152q208 0 334 -142.5t126 -377.5v-45h-853v-4q0 -218 109 -342t293 -124q144 0 239.5 68t119.5 177z" />
    <glyph glyph-name="Ecedillabreve" unicode="&#x1e1c;" horiz-adv-x="1068" 
d="M756 1789h61q0 -107 -75.5 -171.5t-193.5 -64.5t-193.5 64.5t-75.5 171.5h61q0 -77 58 -128.5t150 -51.5t150 51.5t58 128.5zM969 1370h-762v-594h726v-72h-726v-631h762v-73h-387l-58 -141q96 0 151.5 -41t55.5 -111q0 -75 -60.5 -122.5t-156.5 -47.5q-72 -2 -128 16v56
q43 -17 122 -17q68 0 113.5 32t45.5 81q0 50 -41 76t-119 26h-52v43l64 150h-391v1443h841v-73z" />
    <glyph glyph-name="ecedillabreve" unicode="&#x1e1d;" horiz-adv-x="1062" 
d="M747 1503h62q0 -117 -75.5 -185t-196.5 -68t-196.5 68t-75.5 185h62q0 -88 58 -142t152 -54t152 54t58 142zM145 592h773q-1 191 -106.5 310t-275.5 119q-168 0 -275 -118t-116 -311zM997 526h-853v-4q0 -218 109 -342t293 -124q144 0 239.5 68t119.5 177h79
q-26 -134 -136 -220.5t-274 -93.5l-53 -128q96 0 151.5 -41t55.5 -111q0 -75 -60.5 -122.5t-156.5 -47.5q-72 -2 -128 16v56q43 -17 122 -17q68 0 113.5 32t45.5 81q0 50 -41 76t-119 26h-52v43l58 137q-206 12 -325.5 157.5t-119.5 392.5q0 250 129.5 402t342.5 152
q208 0 334 -142.5t126 -377.5v-45z" />
    <glyph glyph-name="Fdotaccent" unicode="&#x1e1e;" horiz-adv-x="1033" 
d="M543 1563q-32 0 -54.5 22.5t-22.5 53.5t22.5 53.5t54.5 22.5t54.5 -22.5t22.5 -53.5t-22.5 -53.5t-54.5 -22.5zM207 0h-79v1443h830v-73h-751v-603h691v-72h-691v-695z" />
    <glyph glyph-name="fdotaccent" unicode="&#x1e1f;" horiz-adv-x="536" 
d="M319 1589q-32 0 -54.5 22.5t-22.5 53.5t22.5 53.5t54.5 22.5t54.5 -22.5t22.5 -53.5t-22.5 -53.5t-54.5 -22.5zM171 0v1009h-150v68h150v153q0 250 238 250q49 0 79 -9v-68q-33 9 -75 9q-80 0 -122 -44t-42 -143v-148h231v-68h-231v-1009h-78z" />
    <glyph glyph-name="Gmacron" unicode="&#x1e20;" horiz-adv-x="1358" 
d="M1281 571q0 -276 -155.5 -434t-426.5 -158q-186 0 -330 94t-223 264.5t-79 392.5q0 331 173.5 532.5t458.5 201.5q217 0 374.5 -120t198.5 -317h-81q-43 166 -176.5 264.5t-315.5 98.5q-250 0 -400.5 -180t-150.5 -479q0 -304 152 -491t399 -187q232 0 367.5 136.5
t135.5 369.5v83h-503v72h582v-143zM989 1679v-57h-580v57h580z" />
    <glyph glyph-name="gmacron" unicode="&#x1e21;" horiz-adv-x="1119" 
d="M851 1366v-58h-596v58h596zM529 59q174 0 283.5 134t109.5 346q0 213 -109.5 347t-283.5 134q-172 0 -278.5 -133t-106.5 -348q0 -214 106.5 -347t278.5 -133zM545 -361q-170 0 -283 68t-135 180h81q21 -80 113 -129.5t229 -49.5q167 0 269.5 79t102.5 215v285h-2
q-37 -130 -146 -214.5t-254 -84.5q-203 0 -329 152.5t-126 398.5q0 247 126.5 399.5t329.5 152.5q145 0 254.5 -85t148.5 -217h3v288h73v-1070q0 -172 -125 -270t-330 -98z" />
    <glyph glyph-name="Hdotaccent" unicode="&#x1e22;" horiz-adv-x="1327" 
d="M1199 0h-79v705h-913v-705h-79v1443h79v-666h913v666h79v-1443zM663 1563q-32 0 -54.5 22.5t-22.5 53.5t22.5 53.5t54.5 22.5t54.5 -22.5t22.5 -53.5t-22.5 -53.5t-54.5 -22.5z" />
    <glyph glyph-name="hdotaccent" unicode="&#x1e23;" horiz-adv-x="1088" 
d="M129 0v1506h78v-666h3q38 115 137.5 183t234.5 68q177 0 285 -108.5t108 -288.5v-694h-77v685q0 155 -90 245t-242 90q-159 0 -259 -106t-100 -275v-639h-78zM168 1626q-32 0 -54.5 22.5t-22.5 53.5t22.5 53.5t54.5 22.5t54.5 -22.5t22.5 -53.5t-22.5 -53.5t-54.5 -22.5z
" />
    <glyph glyph-name="Hdotbelow" unicode="&#x1e24;" horiz-adv-x="1327" 
d="M1199 0h-79v705h-913v-705h-79v1443h79v-666h913v666h79v-1443zM663 -295q-32 0 -54.5 22.5t-22.5 53.5t22.5 53.5t54.5 22.5t54.5 -22.5t22.5 -53.5t-22.5 -53.5t-54.5 -22.5z" />
    <glyph glyph-name="hdotbelow" unicode="&#x1e25;" horiz-adv-x="1088" 
d="M129 0v1506h78v-666h3q38 115 137.5 183t234.5 68q177 0 285 -108.5t108 -288.5v-694h-77v685q0 155 -90 245t-242 90q-159 0 -259 -106t-100 -275v-639h-78zM551 -295q-32 0 -54.5 22.5t-22.5 53.5t22.5 53.5t54.5 22.5t54.5 -22.5t22.5 -53.5t-22.5 -53.5t-54.5 -22.5z
" />
    <glyph glyph-name="Hdieresis" unicode="&#x1e26;" horiz-adv-x="1327" 
d="M1199 0h-79v705h-913v-705h-79v1443h79v-666h913v666h79v-1443zM511 1563q-28 0 -48 19.5t-20 47.5q0 27 20 46.5t48 19.5q27 0 47 -19.5t20 -46.5q0 -28 -20 -47.5t-47 -19.5zM815 1563q-27 0 -47 19.5t-20 47.5q0 27 20 46.5t47 19.5q28 0 48 -19.5t20 -46.5
q0 -28 -20 -47.5t-48 -19.5z" />
    <glyph glyph-name="hdieresis" unicode="&#x1e27;" horiz-adv-x="1088" 
d="M129 0v1506h78v-666h3q38 115 137.5 183t234.5 68q177 0 285 -108.5t108 -288.5v-694h-77v685q0 155 -90 245t-242 90q-159 0 -259 -106t-100 -275v-639h-78zM16 1626q-28 0 -48 19.5t-20 47.5q0 27 20 46.5t48 19.5q27 0 47 -19.5t20 -46.5q0 -28 -20 -47.5t-47 -19.5z
M320 1626q-27 0 -47 19.5t-20 47.5q0 27 20 46.5t47 19.5q28 0 48 -19.5t20 -46.5q0 -28 -20 -47.5t-48 -19.5z" />
    <glyph glyph-name="Hcedilla" unicode="&#x1e28;" horiz-adv-x="1327" 
d="M1120 1443h79v-1443h-79v705h-913v-705h-6l-58 -141q96 0 151.5 -41t55.5 -111q0 -75 -60.5 -122.5t-156.5 -47.5q-72 -2 -128 16v56q43 -17 122 -17q68 0 113.5 32t45.5 81q0 50 -41 76t-119 26h-52v43l64 150h-10v1443h79v-666h913v666z" />
    <glyph glyph-name="hcedilla" unicode="&#x1e29;" horiz-adv-x="1088" 
d="M207 840h3q38 115 137.5 183t234.5 68q177 0 285 -108.5t108 -288.5v-694h-77v685q0 155 -90 245t-242 90q-159 0 -259 -106t-100 -275v-639h-5l-58 -141q96 0 151.5 -41t55.5 -111q0 -75 -60.5 -122.5t-156.5 -47.5q-72 -2 -128 16v56q43 -17 122 -17q68 0 113.5 32
t45.5 81q0 50 -41 76t-119 26h-52v43l64 150h-10v1506h78v-666z" />
    <glyph glyph-name="Hbrevebelow" unicode="&#x1e2a;" horiz-adv-x="1327" 
d="M394 -155h61q0 -77 58 -128.5t150 -51.5t150 51.5t58 128.5h61q0 -107 -75.5 -171.5t-193.5 -64.5t-193.5 64.5t-75.5 171.5zM1199 0h-79v705h-913v-705h-79v1443h79v-666h913v666h79v-1443z" />
    <glyph glyph-name="hbrevebelow" unicode="&#x1e2b;" horiz-adv-x="1088" 
d="M282 -155h61q0 -77 58 -128.5t150 -51.5t150 51.5t58 128.5h61q0 -107 -75.5 -171.5t-193.5 -64.5t-193.5 64.5t-75.5 171.5zM129 0v1506h78v-666h3q38 115 137.5 183t234.5 68q177 0 285 -108.5t108 -288.5v-694h-77v685q0 155 -90 245t-242 90q-159 0 -259 -106
t-100 -275v-639h-78z" />
    <glyph glyph-name="Itildebelow" unicode="&#x1e2c;" horiz-adv-x="335" 
d="M207 0h-79v1443h79v-1443zM302 -366q-36 0 -67.5 17t-55 41l-45.5 48t-47.5 41t-52.5 17q-91 0 -91 -153h-60q0 98 38.5 155t111.5 57q36 0 68.5 -17t56 -41l45.5 -48t47.5 -41t51.5 -17q89 0 89 154h61q0 -97 -39 -155t-111 -58z" />
    <glyph glyph-name="itildebelow" unicode="&#x1e2d;" horiz-adv-x="336" 
d="M129 0v1077h78v-1077h-78zM168 1341q-26 0 -44 18t-18 43q0 26 18 44t44 18t44.5 -18t18.5 -44q0 -25 -18.5 -43t-44.5 -18zM303 -366q-36 0 -67.5 17t-55 41l-45.5 48t-47.5 41t-52.5 17q-91 0 -91 -153h-60q0 98 38.5 155t111.5 57q36 0 68.5 -17t56 -41l45.5 -48
t47 -41t52 -17q89 0 89 154h61q0 -97 -39 -155t-111 -58z" />
    <glyph glyph-name="Idieresisacute" unicode="&#x1e2e;" horiz-adv-x="335" 
d="M207 0h-79v1443h79v-1443zM118 1776l207 203h91l-224 -203h-74zM18 1565q-26 0 -45 18.5t-19 44.5t19 44.5t45 18.5t44.5 -18.5t18.5 -44.5t-18.5 -44.5t-44.5 -18.5zM316 1565q-26 0 -44.5 18.5t-18.5 44.5t18.5 44.5t44.5 18.5t45 -18.5t19 -44.5t-19 -44.5t-45 -18.5z
" />
    <glyph glyph-name="idieresisacute" unicode="&#x1e2f;" horiz-adv-x="336" 
d="M121 1530l222 284h93l-240 -284h-75zM16 1256q-28 0 -48 19.5t-20 47.5q0 27 20 46.5t48 19.5q27 0 47 -19.5t20 -46.5q0 -28 -20 -47.5t-47 -19.5zM320 1256q-27 0 -47 19.5t-20 47.5q0 27 20 46.5t47 19.5q28 0 48 -19.5t20 -46.5q0 -28 -20 -47.5t-48 -19.5zM129 0
v1077h78v-1077h-78z" />
    <glyph glyph-name="Kacute" unicode="&#x1e30;" horiz-adv-x="1142" 
d="M576 1553h-78l279 290h96zM207 0h-79v1443h79v-806h6l750 806h101l-594 -636l660 -807h-101l-615 751l-207 -223v-528z" />
    <glyph glyph-name="kacute" unicode="&#x1e31;" horiz-adv-x="938" 
d="M200 1616h-78l279 290h96zM208 524l609 553h102l-507 -464l511 -613h-95l-474 565l-147 -132v-433h-78v1506h78v-982h1z" />
    <glyph glyph-name="Kdotbelow" unicode="&#x1e32;" horiz-adv-x="1142" 
d="M544 -295q-32 0 -54.5 22.5t-22.5 53.5t22.5 53.5t54.5 22.5t54.5 -22.5t22.5 -53.5t-22.5 -53.5t-54.5 -22.5zM207 0h-79v1443h79v-806h6l750 806h101l-594 -636l660 -807h-101l-615 751l-207 -223v-528z" />
    <glyph glyph-name="kdotbelow" unicode="&#x1e33;" horiz-adv-x="938" 
d="M487 -295q-32 0 -54.5 22.5t-22.5 53.5t22.5 53.5t54.5 22.5t54.5 -22.5t22.5 -53.5t-22.5 -53.5t-54.5 -22.5zM208 524l609 553h102l-507 -464l511 -613h-95l-474 565l-147 -132v-433h-78v1506h78v-982h1z" />
    <glyph glyph-name="Klinebelow" unicode="&#x1e34;" horiz-adv-x="1142" 
d="M207 0h-79v1443h79v-806h6l750 806h101l-594 -636l660 -807h-101l-615 751l-207 -223v-528zM834 -205v-57h-580v57h580z" />
    <glyph glyph-name="klinebelow" unicode="&#x1e35;" horiz-adv-x="938" 
d="M208 524l609 553h102l-507 -464l511 -613h-95l-474 565l-147 -132v-433h-78v1506h78v-982h1zM777 -205v-57h-580v57h580z" />
    <glyph glyph-name="Ldotbelow" unicode="&#x1e36;" horiz-adv-x="1024" 
d="M546 -295q-32 0 -54.5 22.5t-22.5 53.5t22.5 53.5t54.5 22.5t54.5 -22.5t22.5 -53.5t-22.5 -53.5t-54.5 -22.5zM964 73v-73h-836v1443h79v-1370h757z" />
    <glyph glyph-name="ldotbelow" unicode="&#x1e37;" horiz-adv-x="336" 
d="M168 -295q-32 0 -54.5 22.5t-22.5 53.5t22.5 53.5t54.5 22.5t54.5 -22.5t22.5 -53.5t-22.5 -53.5t-54.5 -22.5zM129 0v1506h78v-1506h-78z" />
    <glyph glyph-name="Ldotbelowmacron" unicode="&#x1e38;" horiz-adv-x="1024" 
d="M546 -295q-32 0 -54.5 22.5t-22.5 53.5t22.5 53.5t54.5 22.5t54.5 -22.5t22.5 -53.5t-22.5 -53.5t-54.5 -22.5zM964 73v-73h-836v1443h79v-1370h757zM457 1679v-57h-580v57h580z" />
    </font>
</defs>
</svg>
