<?xml version="1.0" standalone="no"?>
<!DOCTYPE svg PUBLIC "-//W3C//DTD SVG 1.1//EN" "http://www.w3.org/Graphics/SVG/1.1/DTD/svg11.dtd" >
<svg>
<metadata>
Created by FontForge 20090622 at Mon Aug 27 07:00:38 2018
 By deploy user
&#194;&#169; 2013 The Monotype Corporation. All Rights Reserved. Hebrew OpenType Layout logic copyright &#194;&#169; 2003 &#38; 2007, Ralph Hancock &#38; John Hudson. This layout logic for Biblical Hebrew is open source software under the MIT License; see embedded license description for details.
</metadata>
<defs>
<font id="TimesNewRomanPS-ItalicMT" horiz-adv-x="1024" >
  <font-face 
    font-family="Times New Roman"
    font-weight="400"
    font-style="italic"
    font-stretch="normal"
    units-per-em="2048"
    panose-1="2 2 5 3 5 4 5 9 3 4"
    ascent="1638"
    descent="-410"
    x-height="881"
    cap-height="1356"
    bbox="-1019 -628 2730 2096"
    underline-thickness="100"
    underline-position="-173"
    slope="-16.333"
    unicode-range="U+0020-U+FFFC"
  />
<missing-glyph horiz-adv-x="1593" 
d="M284 0v1280h1024v-1280h-1024zM316 32h960v1216h-960v-1216z" />
    <glyph glyph-name="uniFB4F" unicode="&#x5d0;&#x200d;&#x5dc;" horiz-adv-x="1096" 
d="M742 583q77 138 182 236q-125 52 -125 142t75 174h25q4 -57 51 -79q122 -62 145.5 -96.5t23.5 -71.5q0 -38 -35 -93q-46 1 -109 11q-71 -54 -115 -139.5t-44 -129.5q0 -53 30 -103l33 -55q58 -98 58 -181q0 -60 -36.5 -122t-78.5 -94h-27q7 31 7 64q0 126 -59 211
l-257 366q-164 -51 -164 -223q0 -17 42 -167q10 -40 10 -88q1 -56 -28 -100.5t-76 -44.5h-196l5 28q95 22 103 149q8 135 26 210t82.5 151.5t169.5 119.5l-101 158q-36 57 -92 66q-68 10 -68 89q0 100 59 197l49 79q16 26 16 49q0 35 -62 69q-31 17 -31 59q0 51 47 103h24
q4 -29 36 -47l31 -14q50 -22 50 -79q0 -23 -30 -77l-22 -42l-31 -50q-40 -66 -40 -108q0 -47 78 -60q49 -8 93 -71z" />
    <glyph glyph-name=".notdef" horiz-adv-x="1593" 
d="M284 0v1280h1024v-1280h-1024zM316 32h960v1216h-960v-1216z" />
    <glyph glyph-name="glyph1" horiz-adv-x="0" 
 />
    <glyph glyph-name="glyph2" horiz-adv-x="512" 
 />
    <glyph glyph-name="space" unicode=" " horiz-adv-x="512" 
 />
    <glyph glyph-name="space" unicode="&#xa0;" horiz-adv-x="512" 
 />
    <glyph glyph-name="exclam" unicode="!" horiz-adv-x="682" 
d="M323 330h-38q49 181 69 276.5t45 249.5q50 318 61 371q20 90 65 137q21 23 58 23q28 0 47.5 -22t19.5 -59q0 -41 -19 -104q-41 -138 -162 -453q-58 -149 -64 -166zM256 172q43 0 73 -30t30 -73q0 -42 -30 -72t-73 -30q-42 0 -72 30t-30 72q0 43 30 73t72 30z" />
    <glyph glyph-name="quotedbl" unicode="&#x22;" horiz-adv-x="860" 
d="M661 803l29 292q12 114 16 134q14 64 34 98q16 25 46.5 42.5t65.5 17.5t54.5 -19t19.5 -50q0 -26 -14 -66q-38 -105 -63 -156l-141 -293h-47zM294 803l31 296q13 127 26 171q19 62 54.5 89.5t77.5 27.5q35 0 55.5 -20t20.5 -50q0 -24 -10 -53q-14 -42 -73 -166l-139 -295
h-43z" />
    <glyph glyph-name="numbersign" unicode="#" 
d="M225 -28l93 455h-171v82h187l69 343h-256v80h275l91 455h83l-91 -455h337l97 455h83l-95 -455h170v-80h-185l-70 -343h255v-82h-272l-93 -455h-81l91 455h-339l-95 -455h-83zM418 509h339l72 343h-341z" />
    <glyph glyph-name="dollar" unicode="$" 
d="M780 1284l-139 -480q156 -123 219 -230q44 -76 44 -171q0 -112 -64.5 -217t-170.5 -155.5t-270 -48.5l-32 -117h-66l35 117q-80 16 -133.5 40t-116.5 73l82 283h41q-11 -64 -11 -107q0 -77 42.5 -138t118.5 -87l174 612q-134 105 -187 190.5t-53 182.5q0 150 111.5 240.5
t241.5 90.5q33 0 89 -6l23 78h64l-26 -87q69 -20 110 -43.5t95 -71.5l-66 -241h-41q4 46 4 74q0 84 -39 149q-23 38 -79 70zM720 1302q-45 7 -70 7q-86 0 -148 -64.5t-62 -161.5q0 -56 31 -109.5t118 -130.5zM415 37q30 -3 45 -3q68 0 144.5 38t118 108t41.5 148
q0 66 -38.5 131.5t-140.5 153.5z" />
    <glyph glyph-name="percent" unicode="%" horiz-adv-x="1706" 
d="M1673 1387l-1434 -1441h-95l1434 1441h95zM541 1387q94 0 163 -75t69 -197q0 -186 -122 -320t-259 -134q-101 0 -171 76.5t-70 196.5q0 181 125.5 317t264.5 136zM548 1344q-49 0 -90 -39q-72 -66 -125 -214t-53 -273q0 -54 30 -86.5t72 -32.5q43 0 75 30
q71 66 130.5 213.5t59.5 279.5q0 56 -29.5 89t-69.5 33zM1432 669q97 0 167 -75.5t70 -200.5q0 -114 -57.5 -221t-149 -167t-175.5 -60q-100 0 -169.5 74t-69.5 190q0 185 124.5 322.5t259.5 137.5zM1444 628q-51 0 -89 -36q-68 -63 -124.5 -214t-56.5 -272q0 -55 29.5 -88
t69.5 -33q48 0 82 33q71 67 128 216t57 266q0 61 -28.5 94.5t-67.5 33.5z" />
    <glyph glyph-name="ampersand" unicode="&#x26;" horiz-adv-x="1593" 
d="M1077 711h405v-38q-88 -12 -143 -48t-130 -144q-99 -144 -164 -229q119 -201 257 -201q85 0 154 73h45q-60 -82 -127 -118.5t-159 -36.5q-96 0 -166 35.5t-139 119.5q-111 -83 -211.5 -119t-222.5 -36q-181 0 -279.5 94t-98.5 245q0 179 151 315q99 88 403 191
q-5 38 -7.5 71.5t-2.5 61.5q0 204 107 322t258 118q102 0 161.5 -56.5t59.5 -141.5q0 -107 -86 -205t-308 -170q72 -298 177 -499q155 187 155 299q0 24 -19 40t-70 19v38zM821 878q152 65 205 124q73 82 73 179q0 64 -35 101t-91 37q-72 0 -122 -63t-50 -208q0 -34 5 -76.5
t15 -93.5zM662 751q-193 -72 -278 -176.5t-85 -216.5q0 -126 80.5 -208.5t209.5 -82.5q71 0 127.5 21.5t155.5 91.5q-64 100 -123.5 261t-86.5 310z" />
    <glyph glyph-name="quotesingle" unicode="'" horiz-adv-x="438" 
d="M269 803l31 296q13 126 26 170q19 63 53.5 90.5t77.5 27.5q36 0 57 -20t21 -51q0 -23 -10 -51q-13 -38 -74 -167l-138 -295h-44z" />
    <glyph glyph-name="parenleft" unicode="(" horiz-adv-x="682" 
d="M385 -422l-34 -16q-119 227 -171 401q-40 136 -40 274q0 322 149 577q183 312 593 608l24 -35q-185 -137 -302 -307q-146 -212 -239 -512t-93 -546q0 -188 113 -444z" />
    <glyph glyph-name="parenright" unicode=")" horiz-adv-x="682" 
d="M298 1403l34 19q119 -226 170 -400q41 -136 41 -274q0 -323 -149 -577q-184 -313 -593 -609l-24 31q185 138 302 307q146 212 239 512.5t93 546.5q0 188 -113 444z" />
    <glyph glyph-name="asterisk" unicode="*" 
d="M639 1044q-4 69 -28 137q-34 98 -34 135q0 52 24.5 79t60.5 27q31 0 54 -27t23 -77q0 -45 -26.5 -125.5t-32.5 -148.5q55 35 99 85q68 79 101 98t67 19q33 0 55.5 -22.5t22.5 -53.5q0 -37 -33 -66t-165 -58q-77 -17 -128 -39q52 -27 127 -41q121 -22 158.5 -55t37.5 -72
q0 -30 -22.5 -52t-52.5 -22t-66.5 21t-98.5 94q-41 49 -102 92q2 -57 23 -124q36 -118 36 -161q0 -40 -24 -67.5t-51 -27.5q-37 0 -67 29q-21 21 -21 67q0 48 23 115.5t29 93t11 75.5q-59 -39 -103 -87q-73 -82 -110 -104q-26 -16 -54 -16q-34 0 -58 23t-24 51
q0 25 20.5 52.5t61.5 45.5q27 12 123 32q62 13 121 38q-54 27 -129 42q-123 26 -152 47q-45 33 -45 80q0 27 22.5 49.5t52.5 22.5q33 0 70 -21t92 -84.5t112 -98.5z" />
    <glyph glyph-name="plus" unicode="+" horiz-adv-x="1382" 
d="M687 141v499h-497v82h497v497h82v-497h499v-82h-499v-499h-82z" />
    <glyph glyph-name="comma" unicode="," horiz-adv-x="512" 
d="M-21 -225q75 34 122 86q36 40 36 77q0 18 -6 33q-4 8 -28 32t-27 33q-7 17 -7 39q0 43 29.5 74t69.5 31q41 0 72.5 -33t31.5 -83q0 -89 -70 -180t-203 -141z" />
    <glyph glyph-name="hyphen" unicode="-" horiz-adv-x="682" 
d="M613 511l-41 -133h-518l41 133h518z" />
    <glyph glyph-name="hyphen" unicode="&#xad;" horiz-adv-x="682" 
d="M613 511l-41 -133h-518l41 133h518z" />
    <glyph glyph-name="period" unicode="." horiz-adv-x="512" 
d="M170 179q43 0 72.5 -29.5t29.5 -71.5t-30 -71.5t-72 -29.5t-71.5 29.5t-29.5 71.5t29.5 71.5t71.5 29.5z" />
    <glyph glyph-name="slash" unicode="/" horiz-adv-x="569" 
d="M781 1422l-762 -1453h-88l767 1453h83z" />
    <glyph glyph-name="zero" unicode="0" 
d="M708 1384q128 0 215.5 -107t87.5 -338q0 -198 -65 -404t-183 -357q-94 -119 -197 -172q-60 -30 -139 -30q-130 0 -217.5 107t-87.5 339q0 229 88 460q103 270 263 410q105 92 235 92zM709 1332q-58 0 -117.5 -45.5t-123 -189.5t-121.5 -371q-75 -297 -75 -506
q0 -104 45 -155.5t109 -51.5q61 0 104 40q115 108 197 369q133 427 133 694q0 111 -45 163.5t-106 52.5z" />
    <glyph glyph-name="one" unicode="1" 
d="M855 1384l-322 -1121q-28 -99 -28 -143q0 -37 25.5 -56.5t119.5 -26.5l-10 -37h-515l14 37q82 2 108 13q42 18 63 48q33 46 67 165l232 805q21 73 23 84q3 20 3 39q0 35 -19 55t-52 20q-26 0 -81 -12l-13 36l337 94h48z" />
    <glyph glyph-name="two" unicode="2" 
d="M707 0h-675v37q516 452 682 709q77 119 77 250q0 104 -64 169.5t-166 65.5q-141 0 -232 -135l-35 16q51 129 149 200.5t212 71.5q129 0 217 -88.5t88 -214.5q0 -88 -31 -163q-48 -117 -177 -262q-196 -222 -523 -511h340q82 0 135 34t76 91h40z" />
    <glyph glyph-name="three" unicode="3" 
d="M313 741v29q242 37 361 144q86 76 86 181q0 79 -50 130.5t-121 51.5q-112 0 -199 -139l-37 11q52 116 133.5 175.5t178.5 59.5q118 0 191 -70.5t73 -178.5q0 -92 -68.5 -177t-235.5 -152q104 -43 157 -123.5t53 -193.5q0 -125 -72 -250.5t-197.5 -194t-263.5 -68.5
q-126 0 -191 44q-43 30 -43 70q0 35 25.5 60t62.5 25q26 0 52 -8q16 -5 78.5 -40t97.5 -46.5t72 -11.5q90 0 148.5 104.5t58.5 222.5q0 96 -39.5 171t-124.5 121.5t-186 52.5z" />
    <glyph glyph-name="four" unicode="4" 
d="M997 1356l-259 -892h162l-36 -124h-164l-105 -364h-147l106 364h-490l42 140l815 876h76zM775 1098l-583 -634h401z" />
    <glyph glyph-name="five" unicode="5" 
d="M528 1356h453l-46 -165h-407l-75 -167q162 -26 252 -101q139 -117 139 -327q0 -139 -51.5 -251.5t-126 -188.5t-159.5 -120q-116 -60 -234 -60q-101 0 -160 44q-40 30 -40 76q0 36 26 61.5t64 25.5q53 0 118 -53q40 -33 66 -44q21 -9 50 -9q113 0 208 112.5t95 292.5
q0 125 -50.5 213t-128.5 124t-208 50z" />
    <glyph glyph-name="six" unicode="6" 
d="M1076 1384v-39q-171 -40 -332 -168.5t-282 -329.5q108 46 176 46q127 0 216.5 -92t89.5 -248q0 -239 -154 -408t-332 -169q-162 0 -245.5 119.5t-83.5 276.5q0 205 95 404.5t257.5 342.5t337.5 211q104 40 257 54zM414 763q-143 -305 -143 -512q0 -107 54 -168.5
t124 -61.5q115 0 214.5 167.5t99.5 388.5q0 118 -58 182t-140 64q-35 0 -66.5 -11.5t-84.5 -48.5z" />
    <glyph glyph-name="seven" unicode="7" 
d="M397 1356h675v-34l-760 -1346l-80 37l665 1184h-322q-133 0 -181.5 -23.5t-112.5 -114.5h-41z" />
    <glyph glyph-name="eight" unicode="8" 
d="M691 759q96 -104 140.5 -195t44.5 -182q0 -163 -124 -284.5t-306 -121.5q-163 0 -265.5 99t-102.5 231q0 113 83.5 222t315.5 210q-89 109 -120.5 180t-31.5 141q0 133 99.5 229t250.5 96q144 0 235 -83t91 -194q0 -110 -73.5 -200t-236.5 -148zM652 801
q108 37 167.5 121t59.5 193q0 102 -57.5 160.5t-150.5 58.5q-89 0 -144 -56t-55 -145q0 -67 29 -124q42 -84 151 -208zM514 697q-149 -62 -225.5 -179.5t-76.5 -252.5q0 -109 67.5 -175.5t177.5 -66.5q114 0 192 80t78 191q0 84 -45.5 176.5t-167.5 226.5z" />
    <glyph glyph-name="nine" unicode="9" 
d="M59 -24v32q103 22 179 64q135 74 242.5 183t191.5 253q-61 -30 -95 -39t-76 -9q-151 0 -231 103t-80 240q0 239 155.5 410t330.5 171q159 0 244 -119.5t85 -279.5q0 -203 -94 -401t-255 -341t-338 -212q-105 -41 -259 -55zM722 591q141 286 141 511q0 109 -53.5 169
t-124.5 60q-118 0 -215.5 -165t-97.5 -392q0 -120 55.5 -181.5t139.5 -61.5q38 0 70 11.5t85 48.5z" />
    <glyph glyph-name="colon" unicode=":" horiz-adv-x="682" 
d="M435 906q42 0 72 -29.5t30 -71.5t-30 -72t-72 -30t-72 30t-30 72t30 71.5t72 29.5zM223 182q42 0 71 -29.5t29 -71.5q0 -41 -29.5 -70.5t-70.5 -29.5q-42 0 -71.5 29.5t-29.5 70.5q0 42 29.5 71.5t71.5 29.5z" />
    <glyph glyph-name="semicolon" unicode=";" horiz-adv-x="682" 
d="M438 904q42 0 72 -29.5t30 -72.5q0 -42 -30 -72t-72 -30t-72 30t-30 72q0 43 29.5 72.5t72.5 29.5zM36 -222q105 60 130 93.5t25 65.5q0 20 -7 35q-3 9 -25.5 34.5t-26.5 36.5q-8 17 -8 37q0 42 30 73t69 31q42 0 73 -33t31 -86q0 -67 -37.5 -131.5t-103.5 -116.5
q-24 -18 -133 -74z" />
    <glyph glyph-name="semicolon" unicode="&#x37e;" horiz-adv-x="682" 
d="M438 904q42 0 72 -29.5t30 -72.5q0 -42 -30 -72t-72 -30t-72 30t-30 72q0 43 29.5 72.5t72.5 29.5zM36 -222q105 60 130 93.5t25 65.5q0 20 -7 35q-3 9 -25.5 34.5t-26.5 36.5q-8 17 -8 37q0 42 30 73t69 31q42 0 73 -33t31 -86q0 -67 -37.5 -131.5t-103.5 -116.5
q-24 -18 -133 -74z" />
    <glyph glyph-name="less" unicode="&#x3c;" horiz-adv-x="1382" 
d="M150 706l1076 466v-87l-926 -402l926 -406v-90l-1076 470v49z" />
    <glyph glyph-name="equal" unicode="=" horiz-adv-x="1382" 
d="M200 883h1079v-82h-1079v82zM200 557h1079v-82h-1079v82z" />
    <glyph glyph-name="greater" unicode="&#x3e;" horiz-adv-x="1382" 
d="M1226 653l-1076 -466v86l927 402l-927 406v91l1076 -470v-49z" />
    <glyph glyph-name="question" unicode="?" 
d="M360 333h-38q14 127 61 219t184 237.5t181 234.5q31 63 31 130q0 79 -56 133.5t-144 54.5q-85 0 -138 -36q-30 -20 -30 -49q0 -20 16.5 -55t16.5 -58q0 -34 -24 -57t-59 -23t-59.5 25t-24.5 66q0 88 85.5 160t233.5 72q154 0 248.5 -86.5t94.5 -197.5q0 -89 -44 -155
q-58 -86 -220 -197.5t-223 -196.5t-92 -221zM300 172q42 0 72 -29.5t30 -72.5q0 -42 -30 -71.5t-72 -29.5t-72 29.5t-30 71.5q0 43 29.5 72.5t72.5 29.5z" />
    <glyph glyph-name="at" unicode="@" horiz-adv-x="1884" 
d="M1408 958l-117 -399q-65 -224 -79 -284t-14 -96q0 -32 21.5 -54t53.5 -22q73 0 175.5 73t175.5 237t73 342q0 171 -82.5 316t-233 222.5t-332.5 77.5q-231 0 -429 -122.5t-313.5 -352.5t-115.5 -478q0 -230 101.5 -418t285.5 -284.5t396 -96.5q263 0 475.5 141t328.5 412
h58q-90 -274 -327 -444t-540 -170q-238 0 -442 112.5t-317 319t-113 454.5q0 264 124 492.5t347.5 357t474.5 128.5q207 0 373.5 -85.5t253.5 -250t87 -349.5q0 -183 -81.5 -362.5t-207.5 -261.5t-263 -82q-76 0 -114.5 36t-38.5 101q0 56 18 147q-148 -179 -237 -232
t-157 -53q-71 0 -126 63.5t-55 169.5q0 145 94.5 325t250.5 293q115 83 206 83q67 0 111.5 -34.5t60.5 -103.5l33 110zM1057 917q-75 0 -152 -79q-113 -116 -193 -313q-59 -144 -59 -232q0 -63 35.5 -102.5t79.5 -39.5q58 0 122 44t134 135.5t102 183.5q56 159 56 259
q0 66 -36.5 105t-88.5 39z" />
    <glyph glyph-name="A" unicode="A" horiz-adv-x="1251" 
d="M1055 1387l-103 -1128q-8 -79 -8 -104q0 -40 15 -61q19 -29 51.5 -43t109.5 -14l-11 -37h-534l11 37h23q65 0 106 28q29 19 45 63q11 31 21 146l16 172h-388l-138 -187q-47 -63 -59 -90.5t-12 -51.5q0 -32 26 -55t86 -25l-11 -37h-401l11 37q74 3 130.5 49.5t168.5 198.5
l810 1102h35zM857 1054l-393 -535h341z" />
    <glyph glyph-name="B" unicode="B" horiz-adv-x="1251" 
d="M303 1319l14 37h484q122 0 217.5 -38t143 -106t47.5 -144q0 -117 -84.5 -211.5t-275.5 -139.5q123 -46 181 -122t58 -167q0 -101 -52 -193t-133.5 -143t-196.5 -75q-82 -17 -256 -17h-497l13 37q78 2 106 15q40 17 57 45q24 38 64 174l243 821q31 104 31 146
q0 37 -27.5 58.5t-104.5 21.5q-17 0 -32 1zM506 756q65 -2 94 -2q208 0 309.5 90.5t101.5 226.5q0 103 -62 160.5t-198 57.5q-36 0 -92 -12zM309 88q108 -14 169 -14q156 0 276.5 94t120.5 255q0 123 -74.5 192t-240.5 69q-32 0 -78 -3z" />
    <glyph glyph-name="C" unicode="C" horiz-adv-x="1366" 
d="M1441 1387l-101 -439h-36l-4 110q-5 60 -23 107t-54 81.5t-91 54t-122 19.5q-179 0 -313 -98q-171 -125 -268 -353q-80 -188 -80 -381q0 -197 115 -314.5t299 -117.5q139 0 247.5 62t201.5 191h47q-110 -175 -244 -257.5t-321 -82.5q-166 0 -294 69.5t-195 195.5t-67 271
q0 222 119 432t326.5 330t418.5 120q99 0 222 -47q54 -20 78 -20t42 10t60 57h37z" />
    <glyph glyph-name="D" unicode="D" horiz-adv-x="1479" 
d="M300 1319l12 37h433q275 0 407.5 -63t211.5 -198.5t79 -290.5q0 -133 -45.5 -258.5t-103 -201t-176.5 -166.5t-258 -134.5t-347 -43.5h-574l13 37q79 2 106 14q40 17 59 46q29 42 65 169l240 820q28 97 28 152q0 39 -26 60t-102 21h-22zM655 1281l-294 -1015
q-33 -114 -33 -141q0 -16 10.5 -31t28.5 -20q26 -9 84 -9q157 0 291.5 32.5t220.5 96.5q122 93 195 256t73 371q0 235 -112 349.5t-327 114.5q-53 0 -137 -4z" />
    <glyph glyph-name="E" unicode="E" horiz-adv-x="1251" 
d="M663 1283l-155 -536h127q136 0 197 41.5t105 153.5h37l-139 -492h-40q18 62 18 106q0 43 -17.5 69t-48 38.5t-128.5 12.5h-129l-131 -449q-19 -65 -19 -99q0 -26 25 -46q17 -14 85 -14h120q195 0 312.5 69t210.5 240h37l-128 -377h-1048l13 37q78 2 105 14q40 18 58 46
q27 41 64 172l238 818q28 99 28 151q0 38 -26.5 59.5t-103.5 21.5h-21l12 37h974l-84 -327h-37q7 46 7 77q0 53 -26 89q-34 46 -99 70q-48 18 -221 18h-172z" />
    <glyph glyph-name="F" unicode="F" horiz-adv-x="1251" 
d="M666 1284l-160 -537h178q120 0 179.5 37t122.5 158h38l-141 -494h-40q15 60 15 99q0 61 -40.5 94.5t-151.5 33.5h-180l-118 -409q-32 -109 -32 -145q0 -37 27.5 -57t134.5 -27l-12 -37h-536l13 37q78 2 104 14q40 17 59 46q27 41 64 169l239 817q29 99 29 155
q0 26 -13 44.5t-38.5 27.5t-101.5 9l12 37h1052l-100 -343h-38q11 62 11 102q0 66 -36.5 104.5t-93.5 54.5q-40 10 -179 10h-267z" />
    <glyph glyph-name="G" unicode="G" horiz-adv-x="1479" 
d="M1474 1387l-101 -427h-38q9 75 9 111q0 98 -86.5 173.5t-238.5 75.5q-311 0 -508 -292q-157 -231 -157 -517q0 -190 97 -328t299 -138q50 0 94.5 9t134.5 40l99 349q21 72 21 115q0 36 -26 55q-42 29 -136 29h-28l11 39h564l-10 -39q-77 -1 -112 -18t-60 -58
q-17 -27 -55 -157l-100 -343q-137 -59 -221 -78.5t-177 -19.5q-214 0 -347 80.5t-196.5 213t-63.5 263.5q0 176 74 334.5t184.5 268t240.5 172.5q179 87 376 87q145 0 262 -48q47 -19 69 -19q25 0 42.5 11.5t45.5 55.5h38z" />
    <glyph glyph-name="H" unicode="H" horiz-adv-x="1479" 
d="M505 751h626l99 335q28 98 28 152q0 26 -12.5 44.5t-38.5 27.5t-102 9l10 37h546l-12 -37q-69 1 -103 -14q-48 -21 -71 -54q-33 -47 -67 -165l-239 -819q-30 -102 -30 -146q0 -38 26.5 -57.5t126.5 -26.5l-11 -37h-528l14 37q78 2 104 14q40 18 58 46q26 39 64 170
l122 415h-629l-123 -415q-29 -100 -29 -146q0 -38 26 -57.5t126 -26.5l-8 -37h-532l13 37q79 2 105 14q40 18 59 46q26 41 64 170l240 819q29 100 29 152q0 26 -12.5 44.5t-39 27.5t-103.5 9l12 37h535l-11 -37q-67 1 -99 -14q-47 -20 -69 -53q-30 -44 -66 -166z" />
    <glyph glyph-name="I" unicode="I" horiz-adv-x="682" 
d="M505 37l-11 -37h-558l14 37q84 2 111 14q44 17 65 47q33 47 68 168l236 818q30 102 30 154q0 26 -13 44t-39.5 27.5t-103.5 9.5l12 37h524l-11 -37q-64 1 -95 -14q-45 -20 -68.5 -57t-60.5 -164l-235 -818q-32 -113 -32 -144q0 -25 12.5 -42.5t40 -27t114.5 -15.5z" />
    <glyph glyph-name="J" unicode="J" horiz-adv-x="909" 
d="M586 1356h534l-11 -37q-103 -1 -145 -37.5t-88 -195.5l-172 -597q-49 -169 -99 -258q-67 -120 -180.5 -191t-254.5 -71q-116 0 -178 53.5t-62 129.5q0 60 37.5 100t89.5 40q45 0 73.5 -27t28.5 -66q0 -32 -26 -62q-33 -38 -33 -52q0 -21 19 -38t51 -17q46 0 95.5 22
t93 67t76 108t66.5 172l49 173l149 514q33 113 33 141q0 38 -30 62t-127 30z" />
    <glyph glyph-name="K" unicode="K" horiz-adv-x="1366" 
d="M654 771l336 -519q90 -138 149 -176.5t155 -38.5l-11 -37h-578l9 37q69 7 97.5 33t28.5 59q0 30 -10 58q-8 20 -58 98l-275 431l-133 -449q-33 -108 -33 -145q0 -38 28 -58t138 -27l-16 -37h-536l13 37q78 2 105 14q40 18 59 46q26 41 64 170l239 819q27 94 27 151
q0 40 -25.5 61t-99.5 21h-20l12 37h509l-10 -37q-63 1 -94 -14q-43 -21 -63 -54t-59 -165l-105 -348l482 363q96 72 126 114q18 26 18 47q0 18 -18.5 35t-56.5 22l10 37h434l-9 -37q-71 -12 -119.5 -31.5t-99.5 -53.5q-15 -10 -195 -148z" />
    <glyph glyph-name="L" unicode="L" horiz-adv-x="1139" 
d="M939 0h-1005l14 37q80 2 107 13q42 18 62 47q31 46 66 166l239 825q30 102 30 150q0 38 -27.5 59t-103.5 21q-17 0 -27 1l12 37h553l-8 -37q-93 0 -132 -18t-65 -59q-18 -27 -59 -168l-235 -811q-27 -92 -27 -128q0 -24 27 -46q17 -15 77 -15h131q143 0 227 36
q62 27 114 81q28 30 99 149l26 45h37z" />
    <glyph glyph-name="M" unicode="M" horiz-adv-x="1706" 
d="M649 1356l125 -1092l787 1092h331v-37q-108 -7 -127 -14q-33 -13 -60.5 -52t-59.5 -150l-251 -860q-22 -75 -22 -118q0 -39 27 -59q38 -29 120 -29h24l-9 -37h-571l10 37h27q76 0 116 22q31 16 55.5 60.5t68.5 197.5l224 786l-791 -1103h-40l-127 1103l-242 -839
q-31 -107 -31 -144t27 -56.5t131 -26.5l-11 -37h-447l11 37h27q99 0 143 50q32 36 67 156l295 1011q-33 34 -63 46t-111 19l10 37h337z" />
    <glyph glyph-name="N" unicode="N" horiz-adv-x="1366" 
d="M587 1356l419 -1063l227 794q28 98 28 152q0 37 -26 58t-97 21q-12 0 -25 1l11 37h436l-12 -37q-68 1 -101 -14q-47 -21 -70 -54q-32 -47 -65 -164l-319 -1118h-36l-451 1144l-241 -845q-27 -96 -27 -147q0 -38 24.5 -57.5t116.5 -26.5l-10 -37h-426l14 37q80 2 107 14
q41 18 61 47q29 44 65 170l269 943q-39 60 -83.5 82.5t-138.5 25.5l11 37h339z" />
    <glyph glyph-name="O" unicode="O" horiz-adv-x="1479" 
d="M1009 1387q135 0 239 -58.5t163 -173t59 -237.5q0 -218 -126.5 -457.5t-330.5 -365.5t-422 -126q-157 0 -262.5 69.5t-156 183.5t-50.5 221q0 190 91.5 375.5t218.5 310t271 191.5t306 67zM975 1323q-100 0 -195.5 -49.5t-189.5 -162t-169 -294.5q-92 -224 -92 -423
q0 -142 73 -251.5t224 -109.5q91 0 178.5 45t182.5 154q119 137 200 349.5t81 396.5q0 136 -73 240.5t-220 104.5z" />
    <glyph glyph-name="P" unicode="P" horiz-adv-x="1251" 
d="M320 1356h534q210 0 314 -90.5t104 -220.5q0 -103 -66 -200t-196 -157.5t-281 -60.5q-94 0 -239 34l-108 -370q-38 -132 -38 -174q0 -32 27 -53t129 -27l-10 -37h-539l11 37q106 0 147.5 36.5t89.5 201.5l224 772q40 139 40 186q0 35 -28.5 58t-125.5 28zM507 724
q113 -29 182 -29q109 0 198.5 45t140 135t50.5 187q0 101 -62 160t-188 59q-68 0 -165 -17z" />
    <glyph glyph-name="Q" unicode="Q" horiz-adv-x="1479" 
d="M599 -31l-258 -209q61 11 113 11q50 0 92.5 -6t182 -37.5t243.5 -31.5q111 0 188.5 38.5t150.5 128.5l33 -16q-103 -148 -243 -213.5t-297 -65.5q-87 0 -238 34q-231 51 -323 51q-35 0 -57 -5t-66 -24l-23 27l410 324q-190 26 -288 167t-98 301q0 219 132.5 453
t339 362.5t405.5 128.5q148 0 252.5 -60t161.5 -174.5t57 -234.5q0 -230 -131 -466t-325.5 -357.5t-413.5 -125.5zM974 1323q-100 0 -195.5 -49.5t-189.5 -162t-169 -294.5q-91 -224 -91 -423q0 -142 73 -251.5t224 -109.5q90 0 178 45t182 153q120 138 201 351t81 396
q0 135 -73 240t-221 105z" />
    <glyph glyph-name="R" unicode="R" horiz-adv-x="1251" 
d="M851 0l-217 659q-76 -1 -156 15l-117 -410q-23 -80 -23 -135q0 -42 29 -66q22 -18 120 -26l-9 -37h-525l11 37q74 3 100 15q41 17 60 46q32 47 67 166l237 819q24 82 24 127q0 46 -37.5 78t-107.5 31l12 37h442q222 0 320 -84t98 -221q0 -131 -100.5 -239.5
t-275.5 -137.5l132 -397q48 -146 96 -190t155 -50l-11 -37h-324zM495 731q64 -9 114 -9q172 0 272 95.5t100 237.5q0 111 -62.5 170t-187.5 59q-32 0 -76 -8z" />
    <glyph glyph-name="S" unicode="S" 
d="M14 -31l112 503h34q-7 -73 -7 -121q0 -137 87.5 -223t228.5 -86q131 0 199 80.5t68 185.5q0 68 -31 124q-47 83 -251 292q-99 100 -127 149q-46 81 -46 170q0 142 106 243t272 101q56 0 106 -11q31 -6 113 -40q58 -23 64 -25q14 -3 31 -3q29 0 50 15t49 64h38l-104 -450
h-34q4 60 4 97q0 121 -80 198t-211 77q-104 0 -169 -61t-65 -141q0 -70 41.5 -133.5t191 -207t193.5 -224t44 -171.5q0 -103 -54.5 -199.5t-156.5 -149.5t-223 -53q-60 0 -112 11t-166 54q-39 15 -65 15q-59 0 -92 -80h-38z" />
    <glyph glyph-name="T" unicode="T" horiz-adv-x="1139" 
d="M300 1356h1030l-111 -360h-38q19 79 19 141q0 73 -45 110q-34 28 -175 28h-107l-268 -934q-51 -176 -51 -217q0 -38 32 -62.5t113 -24.5h46l-12 -37h-590l11 37h26q78 0 120 25q29 17 52.5 61.5t65.5 188.5l281 963h-81q-117 0 -188.5 -30t-115.5 -87t-72 -162h-37z" />
    <glyph glyph-name="U" unicode="U" horiz-adv-x="1479" 
d="M268 1356h573l-11 -37q-88 -2 -125.5 -16.5t-64 -51.5t-55.5 -137l-139 -480q-37 -128 -44 -168q-12 -64 -12 -119q0 -121 90 -204.5t241 -83.5q99 0 177 37.5t133.5 105t101.5 183t81 233.5l120 414q45 155 45 202q0 33 -30.5 56.5t-123.5 28.5l11 37h431l-11 -37
q-76 0 -109.5 -14.5t-58.5 -52t-56 -145.5l-147 -503q-71 -245 -134 -361.5t-182.5 -195t-296.5 -78.5q-204 0 -329 115.5t-125 264.5q0 59 11 126q8 44 39 152l134 461q28 100 28 147q0 37 -28.5 57.5t-143.5 26.5z" />
    <glyph glyph-name="V" unicode="V" horiz-adv-x="1251" 
d="M311 -31l112 1129q8 86 8 116q0 45 -33.5 75t-105.5 30h-36l10 37h535l-11 -37q-87 -1 -119.5 -18t-51.5 -58q-10 -22 -21 -125l-80 -809l529 722q86 117 108 163q15 31 15 54q0 27 -23 47t-86 24l12 37h408l-10 -37q-49 -4 -78 -19q-55 -26 -109.5 -79t-172.5 -214
l-764 -1038h-36z" />
    <glyph glyph-name="W" unicode="W" horiz-adv-x="1706" 
d="M277 -31l117 1130q7 65 7 100q0 58 -33 88t-119 32l11 37h508l-11 -37q-102 1 -139.5 -36.5t-51.5 -183.5l-75 -732l515 795q1 20 1 34q0 56 -33 86t-142 37l8 37h549l-11 -37q-95 -1 -128 -16q-24 -11 -40.5 -35.5t-26.5 -83.5q-3 -17 -24.5 -232t-64.5 -585l429 652
q70 107 88 150t18 73q0 28 -24 49.5t-82 27.5l8 37h402l-10 -37q-53 -4 -94 -26t-97 -84q-32 -36 -132 -190l-681 -1050h-37l110 1050l-681 -1050h-34z" />
    <glyph glyph-name="X" unicode="X" horiz-adv-x="1251" 
d="M1058 1356h459l-11 -37q-97 -14 -169.5 -58.5t-197.5 -177.5l-352 -360l99 -363q14 -52 52 -161q24 -70 48 -99t60.5 -44.5t110.5 -18.5l-11 -37h-532l11 37q82 3 118 31q27 20 27 52q0 28 -26 123l-95 341l-318 -321q-93 -95 -111 -125q-11 -18 -11 -35q0 -30 30 -49
q14 -8 85 -17l-10 -37h-451l11 37q85 8 139 39q79 47 218 187l394 396l-108 391q-49 180 -85.5 221.5t-127.5 47.5l10 37h485l-12 -37q-67 0 -90.5 -8.5t-36 -26t-12.5 -39.5q0 -24 24 -112l92 -334l213 212q126 126 173 203q17 27 17 48q0 23 -19 36q-27 18 -101 21z" />
    <glyph glyph-name="Y" unicode="Y" horiz-adv-x="1139" 
d="M716 721l258 361q100 141 100 180q0 22 -21.5 36.5t-122.5 20.5l10 37h426l-8 -37q-62 -8 -85 -17q-36 -15 -71 -47q-47 -42 -136 -165l-332 -458l-100 -335q-37 -126 -37 -174q0 -31 11.5 -47t40.5 -26q38 -12 116 -13l-10 -37h-571l12 37q85 2 113 14q45 18 67 48
q34 46 70 165l119 396l-145 468q-39 124 -71.5 154t-113.5 37l10 37h501l-12 -37q-94 -7 -107 -12q-22 -7 -36 -28t-14 -49q0 -41 29 -140z" />
    <glyph glyph-name="Z" unicode="Z" horiz-adv-x="1139" 
d="M310 1356h941v-37l-1007 -1254h157q254 0 358.5 25t174 87t116.5 176h38l-117 -353h-975v29l1007 1254h-281q-184 0 -259 -16.5t-128.5 -67t-90.5 -152.5h-35z" />
    <glyph glyph-name="bracketleft" unicode="[" horiz-adv-x="797" 
d="M13 -408l526 1795h426l-22 -69h-279l-484 -1654h278l-20 -72h-425z" />
    <glyph glyph-name="backslash" unicode="\" horiz-adv-x="569" 
d="M289 1422l185 -1453h-74l-182 1453h71z" />
    <glyph glyph-name="bracketright" unicode="]" horiz-adv-x="797" 
d="M747 1387l-526 -1795h-426l21 69h280l483 1654h-277l20 72h425z" />
    <glyph glyph-name="asciicircum" unicode="^" horiz-adv-x="864" 
d="M517 1387l425 -716h-92l-350 586l-350 -586h-94l431 716h30z" />
    <glyph glyph-name="underscore" unicode="_" 
d="M1042 -442h-1059v84h1059v-84z" />
    <glyph glyph-name="grave" unicode="`" horiz-adv-x="682" 
d="M581 1402l109 -344h-32l-298 344h221z" />
    <glyph glyph-name="a" unicode="a" 
d="M961 905l-195 -678l-22 -91q-3 -13 -3 -22q0 -16 10 -28q8 -9 20 -9q13 0 34 16q39 29 104 120l34 -24q-69 -104 -142 -158.5t-135 -54.5q-43 0 -64.5 21.5t-21.5 62.5q0 49 22 129l21 75q-131 -171 -241 -239q-79 -49 -155 -49q-73 0 -126 60.5t-53 166.5
q0 159 95.5 335.5t242.5 282.5q115 84 217 84q61 0 101.5 -32t61.5 -106l36 114zM605 853q-64 0 -136 -60q-102 -85 -181.5 -252t-79.5 -302q0 -68 34 -107.5t78 -39.5q109 0 237 161q171 214 171 439q0 85 -33 123t-90 38z" />
    <glyph glyph-name="b" unicode="b" 
d="M591 1422l-197 -691q96 100 167.5 137t149.5 37q110 0 180 -73t70 -198q0 -161 -92 -320.5t-231 -248.5t-274 -89q-151 0 -310 113l304 1047q35 121 35 142q0 26 -16 39q-23 18 -68 18q-21 0 -64 -7v38zM204 78q100 -55 176 -55q88 0 182.5 64.5t164 217.5t69.5 309
q0 92 -45.5 144t-107.5 52q-93 0 -182 -74.5t-127 -207.5z" />
    <glyph glyph-name="c" unicode="c" horiz-adv-x="909" 
d="M791 218q-104 -125 -210 -183.5t-224 -58.5q-142 0 -221.5 80t-79.5 215q0 153 85.5 301t230 240.5t283.5 92.5q109 0 163 -45.5t54 -111.5q0 -62 -38 -106q-28 -34 -69 -34q-31 0 -51.5 20t-20.5 50q0 19 7.5 35t31 38.5t28.5 32.5t5 21q0 21 -19 35q-29 20 -82 20
q-98 0 -194 -69t-164 -196q-82 -154 -82 -308q0 -102 58 -161.5t158 -59.5q77 0 152.5 38.5t169.5 139.5z" />
    <glyph glyph-name="d" unicode="d" 
d="M1108 1422l-344 -1180q-28 -96 -28 -126q0 -10 8.5 -19t17.5 -9q13 0 31 13q34 24 114 120l34 -21q-72 -100 -145.5 -162t-137.5 -62q-34 0 -56 24t-22 68q0 57 30 153l39 124q-145 -224 -264 -310q-82 -59 -157 -59q-76 0 -132.5 67.5t-56.5 183.5q0 149 95 318t251 275
q123 85 226 85q54 0 93 -22t77 -73l98 348l18 59q12 40 12 66q0 21 -15 35q-21 17 -54 17q-23 0 -76 -7v37zM737 712q0 64 -37 103t-94 39q-126 0 -262.5 -208t-136.5 -398q0 -75 33 -114.5t79 -39.5q104 0 261 225t157 393z" />
    <glyph glyph-name="e" unicode="e" horiz-adv-x="909" 
d="M244 377q-7 -50 -7 -83q0 -89 63 -151.5t153 -62.5q72 0 138.5 29.5t197.5 130.5l21 -29q-237 -235 -452 -235q-146 0 -220 92t-74 203q0 149 92 305t231 242.5t286 86.5q106 0 157 -43t51 -102q0 -83 -66 -159q-87 -99 -256 -160q-112 -41 -315 -64zM251 426
q148 17 241 58q123 55 184.5 131.5t61.5 145.5q0 42 -26.5 68t-75.5 26q-102 0 -216.5 -108.5t-168.5 -320.5z" />
    <glyph glyph-name="f" unicode="f" horiz-adv-x="569" 
d="M607 881l-18 -66h-146l-110 -437q-73 -289 -147 -447q-105 -223 -226 -308q-92 -65 -184 -65q-60 0 -102 36q-31 25 -31 65q0 32 25.5 55.5t62.5 23.5q27 0 45.5 -17t18.5 -39t-21 -41q-16 -14 -16 -21q0 -9 7 -14q9 -7 28 -7q43 0 90.5 27t84.5 80.5t70 154.5
q14 42 75 277l174 677h-174l14 66q83 0 116 11.5t60.5 44t71.5 121.5q59 120 113 186q74 89 155.5 133.5t153.5 44.5q76 0 122 -38.5t46 -83.5q0 -35 -23 -59t-59 -24q-31 0 -50.5 18t-19.5 43q0 16 13 39.5t13 31.5q0 14 -9 21q-13 10 -38 10q-63 0 -113 -40
q-67 -53 -120 -166q-27 -59 -99 -293h147z" />
    <glyph glyph-name="g" unicode="g" 
d="M1067 843l-29 -104h-167q19 -54 19 -101q0 -132 -112 -235q-113 -103 -310 -114q-106 -32 -159 -76q-20 -16 -20 -33q0 -20 18 -36.5t91 -33.5l194 -45q161 -38 213 -90q51 -53 51 -122q0 -82 -60.5 -150t-177 -106.5t-257.5 -38.5q-124 0 -226 29.5t-146 79.5t-44 103
q0 43 28.5 89.5t71.5 76.5q27 19 153 90q-46 36 -46 79q0 40 40.5 85t171.5 99q-110 21 -174.5 92t-64.5 158q0 142 124.5 254t331.5 112q75 0 123 -15t93 -47h270zM720 686q0 80 -44.5 126t-116.5 46q-113 0 -186.5 -113.5t-73.5 -236.5q0 -77 47 -126t114 -49
q53 0 102.5 29t83.5 80t54 130t20 114zM241 0q-81 -37 -122.5 -95t-41.5 -114q0 -66 60 -109q86 -62 252 -62q143 0 244.5 48.5t101.5 125.5q0 39 -37.5 74t-145.5 57q-59 12 -311 75z" />
    <glyph glyph-name="h" unicode="h" 
d="M601 1422l-281 -971q182 274 284 364t195 90q48 0 80 -33t32 -88q0 -66 -28 -160l-122 -419q-23 -76 -23 -84q0 -14 8.5 -23t19.5 -9q13 0 30 13q57 44 113 122l31 -19q-34 -53 -94.5 -116.5t-104 -88t-77.5 -24.5q-37 0 -60.5 23.5t-23.5 60.5q0 44 35 164l115 400
q22 75 22 118q0 20 -12.5 32t-32.5 12q-29 0 -66 -22q-68 -42 -157 -156q-24 -31 -160 -250q-42 -70 -69 -153l-64 -205h-150l329 1144l35 124q0 26 -21.5 46t-52.5 20q-18 0 -55 -6l-21 -3v39z" />
    <glyph glyph-name="i" unicode="i" horiz-adv-x="569" 
d="M458 1302q42 0 71 -29t29 -71q0 -41 -29.5 -70.5t-70.5 -29.5t-70.5 29.5t-29.5 70.5q0 42 29 71t71 29zM471 905l-198 -701q-20 -71 -20 -85q0 -16 9.5 -26t22.5 -10q15 0 36 16q57 45 115 128l35 -23q-68 -104 -160 -175q-68 -53 -130 -53q-41 0 -67 24.5t-26 61.5
t25 123l130 448q32 110 32 138q0 22 -15.5 36t-42.5 14q-22 0 -91 -11v39z" />
    <glyph glyph-name="j" unicode="j" horiz-adv-x="569" 
d="M469 1301q42 0 71.5 -29.5t29.5 -71.5t-29.5 -71.5t-71.5 -29.5t-71.5 29.5t-29.5 71.5t29.5 71.5t71.5 29.5zM485 905l-259 -895q-69 -240 -189.5 -346t-260.5 -106q-63 0 -95.5 29t-32.5 69q0 31 24.5 54.5t56.5 23.5q29 0 51 -19q18 -15 18 -34q0 -26 -25 -45
q-14 -11 -14 -18l2 -5q3 -4 9 -6t18 -2q81 0 138.5 51.5t102.5 205.5l224 768q33 113 33 125q0 24 -21.5 43t-54.5 19q-13 0 -30 -3l-38 -6v35z" />
    <glyph glyph-name="k" unicode="k" horiz-adv-x="909" 
d="M586 1422l-284 -983l114 97q187 158 243 234q18 25 18 38q0 9 -6 17t-23.5 13t-61.5 5h-35l11 38h437l-10 -38q-75 -4 -129.5 -23.5t-105.5 -57.5q-101 -75 -133 -104l-86 -76q22 -72 54 -201q54 -214 73 -254t39 -40q17 0 40 17q52 38 111 121l35 -25
q-109 -137 -167 -180.5t-106 -43.5q-42 0 -65 33q-40 59 -133 465l-137 -119l-103 -355h-156l332 1141l28 97q5 25 5 44q0 24 -18.5 40t-53.5 16q-23 0 -73 -10v35z" />
    <glyph glyph-name="l" unicode="l" horiz-adv-x="569" 
d="M609 1422l-342 -1190q-25 -89 -25 -109q0 -15 9.5 -25t23.5 -10q19 0 41 17q52 41 109 127l30 -31q-95 -134 -175 -187q-59 -38 -112 -38q-38 0 -63.5 26t-25.5 60q0 36 32 148l271 938q33 115 33 132q0 24 -19 39.5t-59 15.5q-23 0 -70 -7v37z" />
    <glyph glyph-name="m" unicode="m" horiz-adv-x="1479" 
d="M444 905l-130 -451q87 159 148 239q95 124 185 180q53 32 111 32q50 0 83 -32t33 -82q0 -49 -23 -128l-71 -254q163 305 309 428q81 68 160 68q46 0 75.5 -31.5t29.5 -97.5q0 -58 -18 -123l-110 -389q-36 -127 -36 -141t9 -24q6 -7 16 -7t35 19q57 44 107 116l33 -21
q-25 -40 -88.5 -110t-108.5 -95t-83 -25q-35 0 -58.5 24t-23.5 59q0 48 41 193l91 321q31 111 33 123q3 19 3 37q0 25 -11 39q-12 14 -27 14q-42 0 -89 -43q-138 -127 -258 -356q-79 -151 -148 -387h-151l171 605q28 98 28 131q0 27 -11 40t-27 13q-33 0 -70 -24
q-60 -39 -154.5 -167t-146.5 -245q-25 -55 -119 -353h-148l185 648l24 84q7 19 7 28q0 22 -20 39.5t-51 17.5q-13 0 -72 -12l-9 37z" />
    <glyph glyph-name="n" unicode="n" 
d="M452 905l-133 -455q187 279 286.5 367t191.5 88q50 0 82.5 -33t32.5 -86q0 -60 -29 -160l-122 -421q-21 -73 -21 -89q0 -14 8 -23.5t17 -9.5q12 0 29 13q53 42 116 128l31 -19q-93 -133 -176 -190q-58 -39 -104 -39q-37 0 -59 22.5t-22 60.5q0 48 34 165l116 402
q22 75 22 117q0 20 -13 32.5t-32 12.5q-28 0 -67 -24q-74 -45 -154 -148.5t-169 -264.5q-47 -85 -78 -186l-50 -165h-150l182 626q32 113 32 136q0 22 -17.5 38.5t-43.5 16.5q-12 0 -42 -4l-38 -6l-6 36z" />
    <glyph glyph-name="o" unicode="o" 
d="M947 592q0 -150 -79.5 -297t-221.5 -233t-276 -86q-137 0 -223.5 87.5t-86.5 226.5q0 147 84.5 295t226 234t273.5 86t217.5 -87t85.5 -226zM781 661q0 93 -45.5 142.5t-117.5 49.5q-147 0 -270.5 -210.5t-123.5 -418.5q0 -95 48 -146.5t121 -51.5q141 0 264.5 209.5
t123.5 425.5z" />
    <glyph glyph-name="p" unicode="p" 
d="M453 905l-69 -230q109 128 194.5 179t174.5 51t152 -70.5t63 -183.5q0 -220 -179 -447.5t-417 -227.5q-50 0 -88.5 11t-86.5 39l-73 -258q-22 -76 -22 -99q0 -22 11.5 -37.5t37.5 -24t103 -8.5l-9 -37h-471l10 37q93 4 125.5 32t68.5 155l253 876q23 83 23 103
q0 27 -15.5 42t-47.5 15q-29 0 -81 -7v39zM220 105q62 -74 167 -74q52 0 106 29t105.5 86t92.5 131.5t73.5 175.5t32.5 200q0 80 -36.5 122.5t-85.5 42.5q-108 0 -213.5 -124t-154.5 -290z" />
    <glyph glyph-name="q" unicode="q" 
d="M971 905l-327 -1130q-22 -78 -22 -100q0 -23 11.5 -39.5t31.5 -24.5q31 -12 81 -12l-10 -37h-479l10 37q98 8 122 17q38 15 62.5 49t54.5 143l138 493q-132 -193 -246 -271q-81 -55 -151 -55q-100 0 -151 81.5t-51 176.5q0 151 93 317t245 272q118 83 214 83
q71 0 117 -34.5t69 -110.5l31 112zM743 710q0 64 -39 105t-96 41q-122 0 -257 -210t-135 -396q0 -75 33.5 -114t81.5 -39q61 0 138 68q117 103 195.5 264.5t78.5 280.5z" />
    <glyph glyph-name="r" unicode="r" horiz-adv-x="797" 
d="M107 849l345 56l-144 -486q175 299 318 418q81 68 132 68q33 0 52 -19.5t19 -56.5q0 -66 -34 -126q-24 -45 -69 -45q-23 0 -39.5 15t-20.5 46q-2 19 -9 25q-8 8 -19 8q-17 0 -32 -8q-26 -14 -79 -78q-83 -98 -180 -254q-42 -66 -72 -149q-42 -114 -48 -137l-32 -126h-153
l185 621q32 108 32 154q0 18 -15 30q-20 16 -53 16q-21 0 -77 -9z" />
    <glyph glyph-name="s" unicode="s" horiz-adv-x="797" 
d="M743 905l-61 -307h-37q-5 134 -57 195t-129 61q-62 0 -98.5 -34t-36.5 -82q0 -33 14.5 -63t63.5 -84q130 -142 168 -214t38 -136q0 -104 -86.5 -184.5t-218.5 -80.5q-72 0 -166 34q-33 12 -51 12q-45 0 -68 -46h-37l61 324h37q6 -152 63 -215t156 -63q76 0 120.5 42.5
t44.5 104.5q0 40 -16 74q-28 60 -117.5 166t-115 159t-25.5 106q0 97 70.5 164t181.5 67q32 0 58 -5q14 -3 65.5 -22.5t68.5 -19.5q43 0 72 47h38z" />
    <glyph glyph-name="t" unicode="t" horiz-adv-x="569" 
d="M532 1153l-78 -272h157l-17 -63h-156l-172 -590q-28 -95 -28 -123q0 -17 8 -26t19 -9q25 0 66 35q24 20 107 123l33 -25q-92 -134 -174 -189q-56 -38 -113 -38q-44 0 -72 27.5t-28 70.5q0 54 32 165l167 579h-151l10 39q110 30 183 89.5t163 206.5h44z" />
    <glyph glyph-name="u" unicode="u" 
d="M964 881l-174 -596q-39 -133 -39 -168q0 -18 6.5 -26.5t17.5 -8.5q17 0 37.5 15.5t103.5 123.5l30 -23q-79 -125 -162 -184q-55 -38 -106 -38q-39 0 -61 22t-22 57q0 34 13 90q16 74 91 322q-170 -279 -284.5 -385t-212.5 -106q-46 0 -78 32t-32 81q0 75 44 230l87 309
q32 111 32 138q0 12 -8.5 20.5t-18.5 8.5q-21 0 -42 -15t-95 -111l-31 22q75 116 159 171q64 43 118 43q37 0 60.5 -23.5t23.5 -60.5q0 -54 -40 -193l-94 -323q-39 -132 -39 -167q0 -19 12.5 -30.5t33.5 -11.5q33 0 86 33t141.5 146.5t146 213t122.5 316.5l22 76h152z" />
    <glyph glyph-name="v" unicode="v" horiz-adv-x="909" 
d="M44 843l289 62q31 -74 50 -151q27 -113 44 -268q8 -78 22 -330q125 138 149 171q132 179 152 210q33 53 46 93q11 30 11 57q0 26 -46.5 60t-46.5 76q0 32 25.5 57t60.5 25q42 0 74 -34.5t32 -85.5t-16 -98q-26 -76 -97 -185.5t-229 -293.5q-20 -23 -222 -232h-37
q-24 633 -100 790q-25 51 -83 51q-25 0 -71 -9z" />
    <glyph glyph-name="w" unicode="w" horiz-adv-x="1366" 
d="M858 905l69 -750q174 204 278 383q61 105 61 152q0 22 -10 39q-4 9 -31.5 26.5t-38.5 36t-11 39.5q0 31 23 52.5t59 21.5q41 0 69.5 -30.5t28.5 -81.5q0 -52 -15 -97q-30 -86 -117 -222q-106 -163 -218.5 -302.5t-167.5 -195.5h-37l-65 692l-413 -692h-44q-7 427 -43 674
q-15 103 -50 135q-25 23 -76 23q-29 0 -74 -6v36l287 67q60 -167 78 -513q6 -131 10 -165l411 678h37z" />
    <glyph glyph-name="x" unicode="x" horiz-adv-x="909" 
d="M355 905q49 -52 74 -104q18 -36 59 -189l88 132q35 48 85 91.5t88 59.5q24 10 53 10q43 0 68.5 -23t25.5 -56q0 -38 -15 -52q-28 -25 -64 -25q-21 0 -45 9q-47 16 -63 16q-24 0 -57 -28q-62 -52 -148 -201l82 -344q19 -79 32 -94.5t26 -15.5q21 0 49 23q55 46 94 120
l35 -18q-63 -118 -160 -196q-55 -44 -93 -44q-56 0 -89 63q-21 39 -87 336q-156 -271 -250 -349q-61 -50 -118 -50q-40 0 -73 29q-24 22 -24 59q0 33 22 55t54 22t68 -32q26 -23 40 -23q12 0 31 16q47 38 128 164t106 182q-62 243 -67 257q-23 65 -60 92t-109 27
q-23 0 -53 -2v36z" />
    <glyph glyph-name="y" unicode="y" horiz-adv-x="909" 
d="M327 905q34 -58 47 -108.5t26 -198.5l44 -492q60 72 174 228q55 76 136 207q49 80 60 112q6 16 6 33q0 11 -7 18t-36.5 16.5t-49 35t-19.5 58.5q0 41 24 66t60 25q44 0 75 -36.5t31 -100.5q0 -79 -54 -180.5t-208 -311.5t-373 -458q-151 -171 -224 -215.5t-125 -44.5
q-31 0 -54.5 23.5t-23.5 54.5q0 39 32.5 71t70.5 32q20 0 33 -9q8 -5 17.5 -28.5t17.5 -31.5q5 -5 12 -5q6 0 21 10q55 34 128 108q96 98 142 160l-56 634q-14 157 -42 191t-94 34q-21 0 -75 -6l-9 37z" />
    <glyph glyph-name="z" unicode="z" horiz-adv-x="797" 
d="M172 881h635v-25l-692 -720h293q104 0 132 8t51.5 34t52.5 94h37l-87 -272h-651v29l692 720h-288q-91 0 -110 -5q-28 -6 -55.5 -31.5t-56.5 -84.5h-38z" />
    <glyph glyph-name="braceleft" unicode="{" horiz-adv-x="819" 
d="M448 -407l-11 -35q-131 19 -204.5 100t-73.5 193q0 102 77.5 248t77.5 203q0 64 -43.5 110t-129.5 58l12 41q103 13 177 67t104 123q20 47 28 185.5t63 242.5t178.5 189t268.5 104l-10 -35q-113 -26 -183 -80t-102 -129q-22 -52 -29.5 -181.5t-43 -210.5t-131 -163.5
t-243.5 -129.5q102 -43 154 -115t52 -158q0 -87 -78 -233.5t-78 -213.5q0 -65 38 -110t130 -70z" />
    <glyph glyph-name="bar" unicode="|" horiz-adv-x="563" 
d="M320 1422v-1864h-83v1864h83z" />
    <glyph glyph-name="braceright" unicode="}" horiz-adv-x="819" 
d="M371 1387l10 35q131 -18 205 -99t74 -193q0 -103 -78 -248.5t-78 -202.5q0 -64 44 -110t130 -58l-12 -41q-102 -13 -176 -67t-105 -123q-20 -46 -28 -185.5t-63.5 -243.5t-178.5 -189t-268 -104l10 35q113 27 183 80.5t102 128.5q22 53 29.5 182.5t38.5 199.5
q39 91 135 173.5t244 130.5q-102 42 -154 114.5t-52 158.5q0 87 78 233.5t78 212.5t-38 111t-130 69z" />
    <glyph glyph-name="asciitilde" unicode="~" horiz-adv-x="1108" 
d="M1042 675h45q-4 -130 -74 -203.5t-171 -73.5q-46 0 -99 15.5t-274 105.5q-154 64 -219 64q-70 0 -118 -43t-68 -140h-44q6 135 74 206.5t160 71.5q44 0 90 -14q104 -30 273.5 -102.5t238.5 -72.5q75 0 126 48t60 138z" />
    <glyph glyph-name="Adieresis" unicode="&#xc4;" horiz-adv-x="1251" 
d="M1055 1387l-103 -1128q-8 -79 -8 -104q0 -40 15 -61q19 -29 51.5 -43t109.5 -14l-11 -37h-534l11 37h23q65 0 106 28q29 19 45 63q11 31 21 146l16 172h-388l-138 -187q-47 -63 -59 -90.5t-12 -51.5q0 -32 26 -55t86 -25l-11 -37h-401l11 37q74 3 130.5 49.5t168.5 198.5
l810 1102h35zM857 1054l-393 -535h341zM1263 1712q45 0 76 -31.5t31 -76.5q0 -44 -31 -75.5t-76 -31.5q-44 0 -75.5 31.5t-31.5 75.5q0 45 31 76.5t76 31.5zM907 1712q45 0 76.5 -31.5t31.5 -76.5q0 -44 -31.5 -75.5t-76.5 -31.5q-44 0 -75.5 31.5t-31.5 75.5
q0 45 31.5 76.5t75.5 31.5z" />
    <glyph glyph-name="Aring" unicode="&#xc5;" horiz-adv-x="1251" 
d="M1055 1387l-103 -1128q-8 -79 -8 -104q0 -40 15 -61q19 -29 51.5 -43t109.5 -14l-11 -37h-534l11 37h23q65 0 106 28q29 19 45 63q11 31 21 146l16 172h-388l-138 -187q-47 -63 -59 -90.5t-12 -51.5q0 -32 26 -55t86 -25l-11 -37h-401l11 37q74 3 130.5 49.5t168.5 198.5
l810 1102h35zM857 1054l-393 -535h341zM1052 1721q79 0 134 -55t55 -134q0 -78 -55.5 -133.5t-133.5 -55.5t-133.5 55.5t-55.5 133.5q0 79 55 134t134 55zM1053 1657q-52 0 -88.5 -36.5t-36.5 -88.5q0 -51 36.5 -87.5t88.5 -36.5q51 0 87.5 36.5t36.5 87.5q0 52 -36 88.5
t-88 36.5z" />
    <glyph glyph-name="Ccedilla" unicode="&#xc7;" horiz-adv-x="1366" 
d="M1441 1387l-101 -439h-36l-4 110q-5 60 -23 107t-54 81.5t-91 54t-122 19.5q-179 0 -313 -98q-171 -125 -268 -353q-80 -188 -80 -381q0 -197 115 -314.5t299 -117.5q139 0 247.5 62t201.5 191h47q-110 -175 -244 -257.5t-321 -82.5q-166 0 -294 69.5t-195 195.5t-67 271
q0 222 119 432t326.5 330t418.5 120q99 0 222 -47q54 -20 78 -20t42 10t60 57h37zM738 30l-45 -76q59 -13 91 -52t32 -94q0 -67 -56 -115q-76 -63 -178 -63q-55 0 -141 22l12 33q50 -12 86 -12q64 0 99.5 30.5t35.5 73.5q0 37 -21 55q-28 23 -84 24l110 174h59z" />
    <glyph glyph-name="Eacute" unicode="&#xc9;" horiz-adv-x="1251" 
d="M663 1283l-155 -536h127q136 0 197 41.5t105 153.5h37l-139 -492h-40q18 62 18 106q0 43 -17.5 69t-48 38.5t-128.5 12.5h-129l-131 -449q-19 -65 -19 -99q0 -26 25 -46q17 -14 85 -14h120q195 0 312.5 69t210.5 240h37l-128 -377h-1048l13 37q78 2 105 14q40 18 58 46
q27 41 64 172l238 818q28 99 28 151q0 38 -26.5 59.5t-103.5 21.5h-21l12 37h974l-84 -327h-37q7 46 7 77q0 53 -26 89q-34 46 -99 70q-48 18 -221 18h-172zM1067 1802l-294 -343h-34l103 343h225z" />
    <glyph glyph-name="Ntilde" unicode="&#xd1;" horiz-adv-x="1366" 
d="M587 1356l419 -1063l227 794q28 98 28 152q0 37 -26 58t-97 21q-12 0 -25 1l11 37h436l-12 -37q-68 1 -101 -14q-47 -21 -70 -54q-32 -47 -65 -164l-319 -1118h-36l-451 1144l-241 -845q-27 -96 -27 -147q0 -38 24.5 -57.5t116.5 -26.5l-10 -37h-426l14 37q80 2 107 14
q41 18 61 47q29 44 65 170l269 943q-39 60 -83.5 82.5t-138.5 25.5l11 37h339zM1255 1733h30q3 -126 -53 -194t-131 -68q-73 0 -168.5 61t-117.5 71q-17 8 -39 8q-37 0 -59.5 -26t-36.5 -110h-32q7 140 60 200t128 60q73 0 178.5 -70t144.5 -70q35 0 57 26q29 33 39 112z
" />
    <glyph glyph-name="Odieresis" unicode="&#xd6;" horiz-adv-x="1479" 
d="M1009 1387q135 0 239 -58.5t163 -173t59 -237.5q0 -218 -126.5 -457.5t-330.5 -365.5t-422 -126q-157 0 -262.5 69.5t-156 183.5t-50.5 221q0 190 91.5 375.5t218.5 310t271 191.5t306 67zM975 1323q-100 0 -195.5 -49.5t-189.5 -162t-169 -294.5q-92 -224 -92 -423
q0 -142 73 -251.5t224 -109.5q91 0 178.5 45t182.5 154q119 137 200 349.5t81 396.5q0 136 -73 240.5t-220 104.5zM1261 1712q45 0 76 -31.5t31 -76.5q0 -44 -31 -75.5t-76 -31.5q-44 0 -75.5 31.5t-31.5 75.5q0 45 31 76.5t76 31.5zM905 1712q45 0 76.5 -31.5t31.5 -76.5
q0 -44 -31.5 -75.5t-76.5 -31.5q-44 0 -75.5 31.5t-31.5 75.5q0 45 31.5 76.5t75.5 31.5z" />
    <glyph glyph-name="Udieresis" unicode="&#xdc;" horiz-adv-x="1479" 
d="M268 1356h573l-11 -37q-88 -2 -125.5 -16.5t-64 -51.5t-55.5 -137l-139 -480q-37 -128 -44 -168q-12 -64 -12 -119q0 -121 90 -204.5t241 -83.5q99 0 177 37.5t133.5 105t101.5 183t81 233.5l120 414q45 155 45 202q0 33 -30.5 56.5t-123.5 28.5l11 37h431l-11 -37
q-76 0 -109.5 -14.5t-58.5 -52t-56 -145.5l-147 -503q-71 -245 -134 -361.5t-182.5 -195t-296.5 -78.5q-204 0 -329 115.5t-125 264.5q0 59 11 126q8 44 39 152l134 461q28 100 28 147q0 37 -28.5 57.5t-143.5 26.5zM1207 1712q45 0 76 -31.5t31 -76.5q0 -44 -31 -75.5
t-76 -31.5q-44 0 -75.5 31.5t-31.5 75.5q0 45 31 76.5t76 31.5zM851 1712q45 0 76.5 -31.5t31.5 -76.5q0 -44 -31.5 -75.5t-76.5 -31.5q-44 0 -75.5 31.5t-31.5 75.5q0 45 31.5 76.5t75.5 31.5z" />
    <glyph glyph-name="aacute" unicode="&#xe1;" 
d="M961 905l-195 -678l-22 -91q-3 -13 -3 -22q0 -16 10 -28q8 -9 20 -9q13 0 34 16q39 29 104 120l34 -24q-69 -104 -142 -158.5t-135 -54.5q-43 0 -64.5 21.5t-21.5 62.5q0 49 22 129l21 75q-131 -171 -241 -239q-79 -49 -155 -49q-73 0 -126 60.5t-53 166.5
q0 159 95.5 335.5t242.5 282.5q115 84 217 84q61 0 101.5 -32t61.5 -106l36 114zM605 853q-64 0 -136 -60q-102 -85 -181.5 -252t-79.5 -302q0 -68 34 -107.5t78 -39.5q109 0 237 161q171 214 171 439q0 85 -33 123t-90 38zM908 1402l-294 -343h-34l103 343h225z" />
    <glyph glyph-name="agrave" unicode="&#xe0;" 
d="M961 905l-195 -678l-22 -91q-3 -13 -3 -22q0 -16 10 -28q8 -9 20 -9q13 0 34 16q39 29 104 120l34 -24q-69 -104 -142 -158.5t-135 -54.5q-43 0 -64.5 21.5t-21.5 62.5q0 49 22 129l21 75q-131 -171 -241 -239q-79 -49 -155 -49q-73 0 -126 60.5t-53 166.5
q0 159 95.5 335.5t242.5 282.5q115 84 217 84q61 0 101.5 -32t61.5 -106l36 114zM605 853q-64 0 -136 -60q-102 -85 -181.5 -252t-79.5 -302q0 -68 34 -107.5t78 -39.5q109 0 237 161q171 214 171 439q0 85 -33 123t-90 38zM727 1402l109 -344h-32l-298 344h221z" />
    <glyph glyph-name="acircumflex" unicode="&#xe2;" 
d="M961 905l-195 -678l-22 -91q-3 -13 -3 -22q0 -16 10 -28q8 -9 20 -9q13 0 34 16q39 29 104 120l34 -24q-69 -104 -142 -158.5t-135 -54.5q-43 0 -64.5 21.5t-21.5 62.5q0 49 22 129l21 75q-131 -171 -241 -239q-79 -49 -155 -49q-73 0 -126 60.5t-53 166.5
q0 159 95.5 335.5t242.5 282.5q115 84 217 84q61 0 101.5 -32t61.5 -106l36 114zM605 853q-64 0 -136 -60q-102 -85 -181.5 -252t-79.5 -302q0 -68 34 -107.5t78 -39.5q109 0 237 161q171 214 171 439q0 85 -33 123t-90 38zM885 1387l75 -316h-21l-169 202l-319 -202h-27
l311 316h150z" />
    <glyph glyph-name="adieresis" unicode="&#xe4;" 
d="M961 905l-195 -678l-22 -91q-3 -13 -3 -22q0 -16 10 -28q8 -9 20 -9q13 0 34 16q39 29 104 120l34 -24q-69 -104 -142 -158.5t-135 -54.5q-43 0 -64.5 21.5t-21.5 62.5q0 49 22 129l21 75q-131 -171 -241 -239q-79 -49 -155 -49q-73 0 -126 60.5t-53 166.5
q0 159 95.5 335.5t242.5 282.5q115 84 217 84q61 0 101.5 -32t61.5 -106l36 114zM605 853q-64 0 -136 -60q-102 -85 -181.5 -252t-79.5 -302q0 -68 34 -107.5t78 -39.5q109 0 237 161q171 214 171 439q0 85 -33 123t-90 38zM905 1340q45 0 76 -31.5t31 -76.5
q0 -44 -31 -75.5t-76 -31.5q-44 0 -75.5 31.5t-31.5 75.5q0 45 31 76.5t76 31.5zM549 1340q45 0 76.5 -31.5t31.5 -76.5q0 -44 -31.5 -75.5t-76.5 -31.5q-44 0 -75.5 31.5t-31.5 75.5q0 45 31.5 76.5t75.5 31.5z" />
    <glyph glyph-name="atilde" unicode="&#xe3;" 
d="M961 905l-195 -678l-22 -91q-3 -13 -3 -22q0 -16 10 -28q8 -9 20 -9q13 0 34 16q39 29 104 120l34 -24q-69 -104 -142 -158.5t-135 -54.5q-43 0 -64.5 21.5t-21.5 62.5q0 49 22 129l21 75q-131 -171 -241 -239q-79 -49 -155 -49q-73 0 -126 60.5t-53 166.5
q0 159 95.5 335.5t242.5 282.5q115 84 217 84q61 0 101.5 -32t61.5 -106l36 114zM605 853q-64 0 -136 -60q-102 -85 -181.5 -252t-79.5 -302q0 -68 34 -107.5t78 -39.5q109 0 237 161q171 214 171 439q0 85 -33 123t-90 38zM976 1364h30q3 -126 -53 -194t-131 -68
q-73 0 -168.5 61t-117.5 71q-17 8 -39 8q-37 0 -59.5 -26t-36.5 -110h-32q7 140 60 200t128 60q73 0 178.5 -70t144.5 -70q35 0 57 26q29 33 39 112z" />
    <glyph glyph-name="aring" unicode="&#xe5;" 
d="M961 905l-195 -678l-22 -91q-3 -13 -3 -22q0 -16 10 -28q8 -9 20 -9q13 0 34 16q39 29 104 120l34 -24q-69 -104 -142 -158.5t-135 -54.5q-43 0 -64.5 21.5t-21.5 62.5q0 49 22 129l21 75q-131 -171 -241 -239q-79 -49 -155 -49q-73 0 -126 60.5t-53 166.5
q0 159 95.5 335.5t242.5 282.5q115 84 217 84q61 0 101.5 -32t61.5 -106l36 114zM605 853q-64 0 -136 -60q-102 -85 -181.5 -252t-79.5 -302q0 -68 34 -107.5t78 -39.5q109 0 237 161q171 214 171 439q0 85 -33 123t-90 38zM740 1421q79 0 134 -55t55 -134
q0 -78 -55.5 -133.5t-133.5 -55.5t-133.5 55.5t-55.5 133.5q0 79 55 134t134 55zM741 1357q-52 0 -88.5 -36.5t-36.5 -88.5q0 -51 36.5 -87.5t88.5 -36.5q51 0 87.5 36.5t36.5 87.5q0 52 -36 88.5t-88 36.5z" />
    <glyph glyph-name="ccedilla" unicode="&#xe7;" horiz-adv-x="909" 
d="M791 218q-104 -125 -210 -183.5t-224 -58.5q-142 0 -221.5 80t-79.5 215q0 153 85.5 301t230 240.5t283.5 92.5q109 0 163 -45.5t54 -111.5q0 -62 -38 -106q-28 -34 -69 -34q-31 0 -51.5 20t-20.5 50q0 19 7.5 35t31 38.5t28.5 32.5t5 21q0 21 -19 35q-29 20 -82 20
q-98 0 -194 -69t-164 -196q-82 -154 -82 -308q0 -102 58 -161.5t158 -59.5q77 0 152.5 38.5t169.5 139.5zM452 30l-45 -76q59 -13 91 -52t32 -94q0 -67 -56 -115q-76 -63 -178 -63q-55 0 -141 22l12 33q50 -12 86 -12q64 0 99.5 30.5t35.5 73.5q0 37 -21 55q-28 23 -84 24
l110 174h59z" />
    <glyph glyph-name="eacute" unicode="&#xe9;" horiz-adv-x="909" 
d="M244 377q-7 -50 -7 -83q0 -89 63 -151.5t153 -62.5q72 0 138.5 29.5t197.5 130.5l21 -29q-237 -235 -452 -235q-146 0 -220 92t-74 203q0 149 92 305t231 242.5t286 86.5q106 0 157 -43t51 -102q0 -83 -66 -159q-87 -99 -256 -160q-112 -41 -315 -64zM251 426
q148 17 241 58q123 55 184.5 131.5t61.5 145.5q0 42 -26.5 68t-75.5 26q-102 0 -216.5 -108.5t-168.5 -320.5zM854 1402l-294 -343h-34l103 343h225z" />
    <glyph glyph-name="egrave" unicode="&#xe8;" horiz-adv-x="909" 
d="M244 377q-7 -50 -7 -83q0 -89 63 -151.5t153 -62.5q72 0 138.5 29.5t197.5 130.5l21 -29q-237 -235 -452 -235q-146 0 -220 92t-74 203q0 149 92 305t231 242.5t286 86.5q106 0 157 -43t51 -102q0 -83 -66 -159q-87 -99 -256 -160q-112 -41 -315 -64zM251 426
q148 17 241 58q123 55 184.5 131.5t61.5 145.5q0 42 -26.5 68t-75.5 26q-102 0 -216.5 -108.5t-168.5 -320.5zM677 1402l109 -344h-32l-298 344h221z" />
    <glyph glyph-name="ecircumflex" unicode="&#xea;" horiz-adv-x="909" 
d="M244 377q-7 -50 -7 -83q0 -89 63 -151.5t153 -62.5q72 0 138.5 29.5t197.5 130.5l21 -29q-237 -235 -452 -235q-146 0 -220 92t-74 203q0 149 92 305t231 242.5t286 86.5q106 0 157 -43t51 -102q0 -83 -66 -159q-87 -99 -256 -160q-112 -41 -315 -64zM251 426
q148 17 241 58q123 55 184.5 131.5t61.5 145.5q0 42 -26.5 68t-75.5 26q-102 0 -216.5 -108.5t-168.5 -320.5zM832 1387l75 -316h-21l-169 202l-319 -202h-27l311 316h150z" />
    <glyph glyph-name="edieresis" unicode="&#xeb;" horiz-adv-x="909" 
d="M244 377q-7 -50 -7 -83q0 -89 63 -151.5t153 -62.5q72 0 138.5 29.5t197.5 130.5l21 -29q-237 -235 -452 -235q-146 0 -220 92t-74 203q0 149 92 305t231 242.5t286 86.5q106 0 157 -43t51 -102q0 -83 -66 -159q-87 -99 -256 -160q-112 -41 -315 -64zM251 426
q148 17 241 58q123 55 184.5 131.5t61.5 145.5q0 42 -26.5 68t-75.5 26q-102 0 -216.5 -108.5t-168.5 -320.5zM851 1340q45 0 76 -31.5t31 -76.5q0 -44 -31 -75.5t-76 -31.5q-44 0 -75.5 31.5t-31.5 75.5q0 45 31 76.5t76 31.5zM495 1340q45 0 76.5 -31.5t31.5 -76.5
q0 -44 -31.5 -75.5t-76.5 -31.5q-44 0 -75.5 31.5t-31.5 75.5q0 45 31.5 76.5t75.5 31.5z" />
    <glyph glyph-name="iacute" unicode="&#xed;" horiz-adv-x="569" 
d="M471 905l-198 -701q-20 -71 -20 -85q0 -16 9.5 -26t22.5 -10q15 0 36 16q57 45 115 128l35 -23q-68 -104 -160 -175q-68 -53 -130 -53q-41 0 -67 24.5t-26 61.5t25 123l130 448q32 110 32 138q0 22 -15.5 36t-42.5 14q-22 0 -91 -11v39zM684 1402l-294 -343h-34l103 343
h225z" />
    <glyph glyph-name="igrave" unicode="&#xec;" horiz-adv-x="569" 
d="M471 905l-198 -701q-20 -71 -20 -85q0 -16 9.5 -26t22.5 -10q15 0 36 16q57 45 115 128l35 -23q-68 -104 -160 -175q-68 -53 -130 -53q-41 0 -67 24.5t-26 61.5t25 123l130 448q32 110 32 138q0 22 -15.5 36t-42.5 14q-22 0 -91 -11v39zM456 1402l109 -344h-32l-298 344
h221z" />
    <glyph glyph-name="icircumflex" unicode="&#xee;" horiz-adv-x="569" 
d="M471 905l-198 -701q-20 -71 -20 -85q0 -16 9.5 -26t22.5 -10q15 0 36 16q57 45 115 128l35 -23q-68 -104 -160 -175q-68 -53 -130 -53q-41 0 -67 24.5t-26 61.5t25 123l130 448q32 110 32 138q0 22 -15.5 36t-42.5 14q-22 0 -91 -11v39zM625 1387l75 -316h-21l-169 202
l-319 -202h-27l311 316h150z" />
    <glyph glyph-name="idieresis" unicode="&#xef;" horiz-adv-x="569" 
d="M471 905l-198 -701q-20 -71 -20 -85q0 -16 9.5 -26t22.5 -10q15 0 36 16q57 45 115 128l35 -23q-68 -104 -160 -175q-68 -53 -130 -53q-41 0 -67 24.5t-26 61.5t25 123l130 448q32 110 32 138q0 22 -15.5 36t-42.5 14q-22 0 -91 -11v39zM645 1340q45 0 76 -31.5t31 -76.5
q0 -44 -31 -75.5t-76 -31.5q-44 0 -75.5 31.5t-31.5 75.5q0 45 31 76.5t76 31.5zM289 1340q45 0 76.5 -31.5t31.5 -76.5q0 -44 -31.5 -75.5t-76.5 -31.5q-44 0 -75.5 31.5t-31.5 75.5q0 45 31.5 76.5t75.5 31.5z" />
    <glyph glyph-name="ntilde" unicode="&#xf1;" 
d="M452 905l-133 -455q187 279 286.5 367t191.5 88q50 0 82.5 -33t32.5 -86q0 -60 -29 -160l-122 -421q-21 -73 -21 -89q0 -14 8 -23.5t17 -9.5q12 0 29 13q53 42 116 128l31 -19q-93 -133 -176 -190q-58 -39 -104 -39q-37 0 -59 22.5t-22 60.5q0 48 34 165l116 402
q22 75 22 117q0 20 -13 32.5t-32 12.5q-28 0 -67 -24q-74 -45 -154 -148.5t-169 -264.5q-47 -85 -78 -186l-50 -165h-150l182 626q32 113 32 136q0 22 -17.5 38.5t-43.5 16.5q-12 0 -42 -4l-38 -6l-6 36zM976 1364h30q3 -126 -53 -194t-131 -68q-73 0 -168.5 61t-117.5 71
q-17 8 -39 8q-37 0 -59.5 -26t-36.5 -110h-32q7 140 60 200t128 60q73 0 178.5 -70t144.5 -70q35 0 57 26q29 33 39 112z" />
    <glyph glyph-name="oacute" unicode="&#xf3;" 
d="M947 592q0 -150 -79.5 -297t-221.5 -233t-276 -86q-137 0 -223.5 87.5t-86.5 226.5q0 147 84.5 295t226 234t273.5 86t217.5 -87t85.5 -226zM781 661q0 93 -45.5 142.5t-117.5 49.5q-147 0 -270.5 -210.5t-123.5 -418.5q0 -95 48 -146.5t121 -51.5q141 0 264.5 209.5
t123.5 425.5zM908 1402l-294 -343h-34l103 343h225z" />
    <glyph glyph-name="ograve" unicode="&#xf2;" 
d="M947 592q0 -150 -79.5 -297t-221.5 -233t-276 -86q-137 0 -223.5 87.5t-86.5 226.5q0 147 84.5 295t226 234t273.5 86t217.5 -87t85.5 -226zM781 661q0 93 -45.5 142.5t-117.5 49.5q-147 0 -270.5 -210.5t-123.5 -418.5q0 -95 48 -146.5t121 -51.5q141 0 264.5 209.5
t123.5 425.5zM775 1402l109 -344h-32l-298 344h221z" />
    <glyph glyph-name="ocircumflex" unicode="&#xf4;" 
d="M947 592q0 -150 -79.5 -297t-221.5 -233t-276 -86q-137 0 -223.5 87.5t-86.5 226.5q0 147 84.5 295t226 234t273.5 86t217.5 -87t85.5 -226zM781 661q0 93 -45.5 142.5t-117.5 49.5q-147 0 -270.5 -210.5t-123.5 -418.5q0 -95 48 -146.5t121 -51.5q141 0 264.5 209.5
t123.5 425.5zM885 1387l75 -316h-21l-169 202l-319 -202h-27l311 316h150z" />
    <glyph glyph-name="odieresis" unicode="&#xf6;" 
d="M947 592q0 -150 -79.5 -297t-221.5 -233t-276 -86q-137 0 -223.5 87.5t-86.5 226.5q0 147 84.5 295t226 234t273.5 86t217.5 -87t85.5 -226zM781 661q0 93 -45.5 142.5t-117.5 49.5q-147 0 -270.5 -210.5t-123.5 -418.5q0 -95 48 -146.5t121 -51.5q141 0 264.5 209.5
t123.5 425.5zM905 1340q45 0 76 -31.5t31 -76.5q0 -44 -31 -75.5t-76 -31.5q-44 0 -75.5 31.5t-31.5 75.5q0 45 31 76.5t76 31.5zM549 1340q45 0 76.5 -31.5t31.5 -76.5q0 -44 -31.5 -75.5t-76.5 -31.5q-44 0 -75.5 31.5t-31.5 75.5q0 45 31.5 76.5t75.5 31.5z" />
    <glyph glyph-name="otilde" unicode="&#xf5;" 
d="M947 592q0 -150 -79.5 -297t-221.5 -233t-276 -86q-137 0 -223.5 87.5t-86.5 226.5q0 147 84.5 295t226 234t273.5 86t217.5 -87t85.5 -226zM781 661q0 93 -45.5 142.5t-117.5 49.5q-147 0 -270.5 -210.5t-123.5 -418.5q0 -95 48 -146.5t121 -51.5q141 0 264.5 209.5
t123.5 425.5zM976 1364h30q3 -126 -53 -194t-131 -68q-73 0 -168.5 61t-117.5 71q-17 8 -39 8q-37 0 -59.5 -26t-36.5 -110h-32q7 140 60 200t128 60q73 0 178.5 -70t144.5 -70q35 0 57 26q29 33 39 112z" />
    <glyph glyph-name="uacute" unicode="&#xfa;" 
d="M964 881l-174 -596q-39 -133 -39 -168q0 -18 6.5 -26.5t17.5 -8.5q17 0 37.5 15.5t103.5 123.5l30 -23q-79 -125 -162 -184q-55 -38 -106 -38q-39 0 -61 22t-22 57q0 34 13 90q16 74 91 322q-170 -279 -284.5 -385t-212.5 -106q-46 0 -78 32t-32 81q0 75 44 230l87 309
q32 111 32 138q0 12 -8.5 20.5t-18.5 8.5q-21 0 -42 -15t-95 -111l-31 22q75 116 159 171q64 43 118 43q37 0 60.5 -23.5t23.5 -60.5q0 -54 -40 -193l-94 -323q-39 -132 -39 -167q0 -19 12.5 -30.5t33.5 -11.5q33 0 86 33t141.5 146.5t146 213t122.5 316.5l22 76h152z
M908 1402l-294 -343h-34l103 343h225z" />
    <glyph glyph-name="ugrave" unicode="&#xf9;" 
d="M964 881l-174 -596q-39 -133 -39 -168q0 -18 6.5 -26.5t17.5 -8.5q17 0 37.5 15.5t103.5 123.5l30 -23q-79 -125 -162 -184q-55 -38 -106 -38q-39 0 -61 22t-22 57q0 34 13 90q16 74 91 322q-170 -279 -284.5 -385t-212.5 -106q-46 0 -78 32t-32 81q0 75 44 230l87 309
q32 111 32 138q0 12 -8.5 20.5t-18.5 8.5q-21 0 -42 -15t-95 -111l-31 22q75 116 159 171q64 43 118 43q37 0 60.5 -23.5t23.5 -60.5q0 -54 -40 -193l-94 -323q-39 -132 -39 -167q0 -19 12.5 -30.5t33.5 -11.5q33 0 86 33t141.5 146.5t146 213t122.5 316.5l22 76h152z
M641 1402l109 -344h-32l-298 344h221z" />
    <glyph glyph-name="ucircumflex" unicode="&#xfb;" 
d="M964 881l-174 -596q-39 -133 -39 -168q0 -18 6.5 -26.5t17.5 -8.5q17 0 37.5 15.5t103.5 123.5l30 -23q-79 -125 -162 -184q-55 -38 -106 -38q-39 0 -61 22t-22 57q0 34 13 90q16 74 91 322q-170 -279 -284.5 -385t-212.5 -106q-46 0 -78 32t-32 81q0 75 44 230l87 309
q32 111 32 138q0 12 -8.5 20.5t-18.5 8.5q-21 0 -42 -15t-95 -111l-31 22q75 116 159 171q64 43 118 43q37 0 60.5 -23.5t23.5 -60.5q0 -54 -40 -193l-94 -323q-39 -132 -39 -167q0 -19 12.5 -30.5t33.5 -11.5q33 0 86 33t141.5 146.5t146 213t122.5 316.5l22 76h152z
M825 1387l75 -316h-21l-169 202l-319 -202h-27l311 316h150z" />
    <glyph glyph-name="udieresis" unicode="&#xfc;" 
d="M964 881l-174 -596q-39 -133 -39 -168q0 -18 6.5 -26.5t17.5 -8.5q17 0 37.5 15.5t103.5 123.5l30 -23q-79 -125 -162 -184q-55 -38 -106 -38q-39 0 -61 22t-22 57q0 34 13 90q16 74 91 322q-170 -279 -284.5 -385t-212.5 -106q-46 0 -78 32t-32 81q0 75 44 230l87 309
q32 111 32 138q0 12 -8.5 20.5t-18.5 8.5q-21 0 -42 -15t-95 -111l-31 22q75 116 159 171q64 43 118 43q37 0 60.5 -23.5t23.5 -60.5q0 -54 -40 -193l-94 -323q-39 -132 -39 -167q0 -19 12.5 -30.5t33.5 -11.5q33 0 86 33t141.5 146.5t146 213t122.5 316.5l22 76h152z
M881 1340q45 0 76 -31.5t31 -76.5q0 -44 -31 -75.5t-76 -31.5q-44 0 -75.5 31.5t-31.5 75.5q0 45 31 76.5t76 31.5zM525 1340q45 0 76.5 -31.5t31.5 -76.5q0 -44 -31.5 -75.5t-76.5 -31.5q-44 0 -75.5 31.5t-31.5 75.5q0 45 31.5 76.5t75.5 31.5z" />
    <glyph glyph-name="dagger" unicode="&#x2020;" 
d="M686 672q-89 -159 -163 -347t-250 -740h-38q235 734 235 1053l-1 34q56 51 91.5 105t60.5 128q-74 -8 -167 -47.5t-130 -39.5q-45 0 -78 29q-25 22 -25 57q0 36 29 61.5t79 25.5q47 0 130 -29q57 -20 82 -25t90 -8q19 67 19 164l-4 134q0 71 43 123q31 37 79 37
q38 0 63.5 -26.5t25.5 -69.5q0 -38 -13 -70q-18 -45 -74 -119.5t-72 -102t-29 -70.5q61 4 82.5 8t69.5 20q97 33 146 33q45 0 73 -25.5t28 -60.5t-28.5 -61.5t-72.5 -26.5q-28 0 -53 7t-99 39.5t-156 42.5q-11 -64 -11 -102q0 -64 38 -131z" />
    <glyph glyph-name="degree" unicode="&#xb0;" horiz-adv-x="819" 
d="M519 1386q129 0 218.5 -90t89.5 -218q0 -127 -90 -217t-218 -90q-127 0 -217 90t-90 217q0 128 89.5 218t217.5 90zM519 1302q-93 0 -158 -65t-65 -158q0 -92 65 -157.5t158 -65.5q92 0 157.5 65.5t65.5 157.5q0 93 -65 158t-158 65z" />
    <glyph glyph-name="cent" unicode="&#xa2;" 
d="M850 221q-87 -120 -186 -177t-232 -68l-108 -353h-58l107 353q-121 13 -190 91t-69 200q0 223 158.5 411.5t375.5 226.5l120 398h56l-116 -398q117 0 168.5 -44.5t51.5 -117.5q0 -60 -31 -97t-72 -37q-33 0 -52.5 18.5t-19.5 48.5q0 21 8 37t36 46t28 50q0 11 -9 21
q-13 16 -35.5 23t-85.5 7l-236 -791l41 -3q168 0 324 180zM405 82l229 766q-90 -39 -147 -92q-98 -93 -150.5 -215.5t-52.5 -249.5q0 -83 34 -138q26 -39 87 -71z" />
    <glyph glyph-name="sterling" unicode="&#xa3;" 
d="M576 742h270l-25 -85h-265q-55 -244 -136 -432q39 -15 96 -40q91 -41 142 -55t93 -14q43 0 81 20t70 60h44q-57 -113 -135 -170t-177 -57q-63 0 -119.5 25t-160.5 107q-44 -66 -89.5 -99t-92.5 -33q-53 0 -88 33.5t-35 86.5q0 67 56.5 118t140.5 51q15 0 34.5 -1t42.5 -4
q20 106 51 404h-231l25 85h219q84 380 224 525q113 117 270 117q87 0 140 -48t53 -111q0 -41 -25 -66.5t-61 -25.5q-40 0 -68 31q-15 17 -28.5 71.5t-23.5 66.5q-22 25 -51 25q-38 0 -69 -32q-47 -48 -89 -185q-18 -61 -83 -368zM291 145q-29 16 -52.5 24t-41.5 8
q-39 0 -67 -26.5t-28 -62.5q0 -30 19 -51t45 -21q33 0 65.5 28.5t59.5 100.5z" />
    <glyph glyph-name="section" unicode="&#xa7;" 
d="M544 766q-64 86 -87.5 148t-23.5 133q0 151 99 251.5t239 100.5q115 0 194 -69t79 -141q0 -31 -25 -59q-16 -19 -46 -19t-48 20t-29.5 90t-44.5 96q-50 39 -113 39q-86 0 -151 -65t-65 -155q0 -79 29 -140t137.5 -181.5t149.5 -214.5q28 -65 28 -140q0 -113 -72 -186.5
t-175 -73.5q-42 0 -97 22q71 -99 95.5 -162t24.5 -130q0 -144 -100.5 -245t-247.5 -101q-132 0 -215 73.5t-83 161.5q0 36 21 59.5t46 23.5q28 0 51.5 -24t34.5 -89q14 -87 60 -126q45 -39 115 -39q94 0 161.5 64t67.5 155q0 68 -27 131t-102 151q-145 168 -179.5 239.5
t-34.5 157.5q0 115 70 185.5t182 70.5q35 0 82 -12zM453 743q-63 0 -108 -43.5t-45 -101.5q0 -131 107.5 -246.5t214.5 -115.5q56 0 99 43.5t43 104.5q0 87 -50 176t-123 136t-138 47z" />
    <glyph glyph-name="bullet" unicode="&#x2022;" horiz-adv-x="717" 
d="M424 928q104 0 177.5 -73.5t73.5 -177.5t-73.5 -177.5t-177.5 -73.5t-177.5 73.5t-73.5 177.5t73 177.5t178 73.5z" />
    <glyph glyph-name="paragraph" unicode="&#xb6;" horiz-adv-x="1071" 
d="M920 1301v-1743h-72v1743h-187v-1743h-73v1043q-191 8 -285.5 50.5t-144.5 131t-50 198.5t43 180q58 96 154.5 145.5t252.5 49.5h495v-55h-133z" />
    <glyph glyph-name="germandbls" unicode="&#xdf;" 
d="M525 829q164 0 257.5 117.5t93.5 258.5q0 71 -44 118t-106 47q-59 0 -106 -33.5t-92 -120.5q-29 -58 -86 -254l-191 -660l-124 -381q-32 -99 -58 -146q-36 -63 -88 -116.5t-102.5 -77t-95.5 -23.5q-48 0 -86 34q-26 23 -26 64q0 32 21 53t51 21q23 0 39 -15.5t16 -34.5
q0 -14 -13 -37q-10 -16 -10 -24t6 -12q8 -7 24 -7q39 0 76 38q51 53 106 241l145 534l142 492q68 236 120 322.5t140 140.5t196 54q132 0 211 -76.5t79 -192.5q0 -99 -53 -175t-147 -124q-66 -33 -186 -54q103 -27 156 -65t86.5 -105.5t33.5 -144.5q0 -127 -63 -245.5
t-165 -191t-185 -72.5q-70 0 -115.5 48t-45.5 128q0 56 23.5 83t58.5 27q29 0 48.5 -19.5t19.5 -48.5q0 -31 -23 -78q-17 -34 -17 -49q0 -20 14.5 -33.5t35.5 -13.5q37 0 66 26q73 64 118 185q59 155 59 294q0 115 -74 191q-53 56 -151 71z" />
    <glyph glyph-name="registered" unicode="&#xae;" horiz-adv-x="1556" 
d="M848 1387q179 0 349 -91.5t265.5 -262t95.5 -355.5q0 -184 -94 -353t-263 -262.5t-353 -93.5t-352.5 93.5t-262.5 262.5t-94 353q0 185 95.5 355.5t265.5 262t348 91.5zM848 1326q-163 0 -318 -84t-242 -239.5t-87 -324.5q0 -168 85.5 -322t239.5 -240t322 -86t322.5 86
t240 240t85.5 322q0 169 -87 324.5t-242 239.5t-319 84zM456 1114h386q145 0 221 -65.5t76 -158.5q0 -76 -51.5 -133.5t-170.5 -88.5l209 -298q38 -53 68 -73q19 -12 53 -15v-33h-184l-294 405h-76v-309q6 -33 28.5 -48t89.5 -15v-33h-367v33q48 0 68 11.5t29 33.5
q7 16 7 93v523q0 74 -3 87q-7 23 -25.5 35.5t-63.5 12.5v36zM693 697q118 0 172.5 23t83.5 64.5t29 94.5q0 81 -56.5 136t-144.5 55q-38 0 -84 -16v-357z" />
    <glyph glyph-name="copyright" unicode="&#xa9;" horiz-adv-x="1556" 
d="M848 1387q179 0 349 -91.5t265.5 -262t95.5 -355.5q0 -184 -94 -353t-263 -262.5t-353 -93.5t-352.5 93.5t-262.5 262.5t-94 353q0 185 95.5 355.5t265.5 262t348 91.5zM848 1326q-163 0 -318 -84t-242 -239.5t-87 -324.5q0 -168 85.5 -322t239.5 -240t322 -86t322.5 86
t240 240t85.5 322q0 169 -87 324.5t-242 239.5t-319 84zM1199 1134l20 -280h-39q-36 119 -114.5 177.5t-188.5 58.5q-82 0 -146 -34t-105 -91q-30 -43 -50 -114t-20 -150q0 -212 91 -312.5t240 -100.5q195 0 312 162l37 -19q-139 -203 -383 -203q-200 0 -331.5 129.5
t-131.5 314.5q0 192 140 327.5t358 135.5q46 0 76.5 -6t108.5 -32q25 -8 37 -8q16 0 27 8.5t22 36.5h40z" />
    <glyph glyph-name="trademark" unicode="&#x2122;" horiz-adv-x="2007" 
d="M211 1356h728l22 -201h-34q-10 72 -52.5 106.5t-141.5 34.5h-75v-579q0 -84 20 -106.5t86 -25.5v-36h-374v36q65 6 82.5 27.5t17.5 103.5v580h-76q-95 0 -135 -31.5t-55 -109.5h-34zM1316 1356l273 -572l265 572h279v-37q-56 -1 -74.5 -11t-27.5 -32t-9 -92v-468
q0 -85 19 -106t92 -25v-36h-398v36q59 1 79.5 12t30 32t9.5 86v492l-307 -658h-32l-308 649v-482q0 -68 8.5 -88.5t27 -31.5t57.5 -11h36v-36h-306v36q56 0 75.5 10t28.5 31t9 90v466q0 76 -8.5 96t-28.5 30.5t-76 10.5v37h286z" />
    <glyph glyph-name="acute" unicode="&#xb4;" horiz-adv-x="682" 
d="M737 1402l-294 -343h-34l103 343h225z" />
    <glyph glyph-name="dieresis" unicode="&#xa8;" horiz-adv-x="682" 
d="M731 1340q45 0 76 -31.5t31 -76.5q0 -44 -31 -75.5t-76 -31.5q-44 0 -75.5 31.5t-31.5 75.5q0 45 31 76.5t76 31.5zM375 1340q45 0 76.5 -31.5t31.5 -76.5q0 -44 -31.5 -75.5t-76.5 -31.5q-44 0 -75.5 31.5t-31.5 75.5q0 45 31.5 76.5t75.5 31.5z" />
    <glyph glyph-name="notequal" unicode="&#x2260;" horiz-adv-x="1124" 
d="M25 818h602l210 533h80l-206 -533h388v-94h-425l-144 -370h569v-93h-605l-211 -531h-80l209 531h-387v93h423l145 370h-568v94z" />
    <glyph glyph-name="AE" unicode="&#xc6;" horiz-adv-x="1821" 
d="M1099 679l-135 -461q-18 -65 -18 -88q0 -21 21.5 -40t66.5 -19h120q345 0 497 307h39l-131 -378h-999l10 37q88 0 129 29q57 40 92 158l76 259h-417l-145 -179q-78 -97 -100 -139q-14 -27 -14 -55q0 -31 25 -51t89 -22l-11 -37h-402l10 37q62 5 113 37.5t165 174.5
l711 885q52 64 64 88t12 44q0 15 -9 27t-28 19t-69 7l14 37h987l-83 -323h-42q9 49 9 82q0 49 -25 83q-34 46 -100 71q-50 20 -206 20h-141l-156 -539h99q124 0 181 36q79 49 117 158h44l-144 -493h-41q18 69 18 111q0 64 -51 97q-33 20 -148 20h-94zM891 559l208 730
l-590 -730h382z" />
    <glyph glyph-name="Oslash" unicode="&#xd8;" horiz-adv-x="1479" 
d="M1323 1273l133 138l54 -55l-136 -138q97 -146 97 -300q0 -217 -128.5 -454t-337.5 -366t-412 -129q-177 0 -314 113l-152 -154l-55 48l156 162q-56 79 -80 149.5t-24 155.5q0 227 132.5 458.5t337 358.5t407.5 127q108 0 198 -35q61 -24 124 -79zM1225 1170
q-36 73 -87 106q-70 45 -164 45q-98 0 -178 -41q-109 -57 -207.5 -172t-178 -315t-79.5 -400q0 -55 18 -131zM1254 1093l-876 -910q80 -146 249 -146q93 0 179 44t189.5 163.5t188.5 330t85 404.5q0 47 -15 114z" />
    <glyph glyph-name="infinity" unicode="&#x221e;" horiz-adv-x="1460" 
d="M653 667q68 156 149 216.5t221 60.5q161 0 272 -116t111 -301q0 -183 -108 -301.5t-241 -118.5q-99 0 -184 73q-56 48 -153 213q-64 -124 -140 -178.5t-184 -54.5q-144 0 -243.5 103t-99.5 266q0 165 92 266t215 101q86 0 152 -44.5t141 -184.5zM749 464
q75 -156 148 -209.5t164 -53.5q123 0 205.5 88.5t82.5 237.5q0 147 -87 243t-195 96q-69 0 -120.5 -35t-93.5 -112q-24 -45 -104 -255zM624 590q-49 110 -112 162t-155 52q-106 0 -177.5 -74.5t-71.5 -199.5q0 -133 70.5 -212.5t159.5 -79.5q95 0 168 85q47 56 118 267z" />
    <glyph glyph-name="plusminus" unicode="&#xb1;" horiz-adv-x="1124" 
d="M53 141v81h498v418h-498v82h498v497h80v-497h500v-82h-500v-418h501l-1 -81h-1078z" />
    <glyph glyph-name="lessequal" unicode="&#x2264;" horiz-adv-x="1124" 
d="M1168 246l-1073 456v83l1073 454v-102l-950 -393l950 -396v-102zM94 -70h1076v-93h-1076v93z" />
    <glyph glyph-name="greaterequal" unicode="&#x2265;" horiz-adv-x="1124" 
d="M91 1239l1073 -456v-83l-1073 -454v102l950 393l-950 396v102zM90 -70h1076v-93h-1076v93z" />
    <glyph glyph-name="yen" unicode="&#xa5;" 
d="M607 443h452l-21 -66h-451l-30 -100q-32 -108 -32 -160q0 -35 24 -53q31 -23 129 -27l-14 -37h-515l10 37q84 5 107 16q38 19 62 56q17 25 54 149l36 119h-432l20 66h433l63 209h-453l19 67h416l-123 403q-36 117 -66 151.5t-85 44.5l9 38h445l-10 -38q-88 0 -118 -23.5
t-30 -61.5q0 -42 25 -127l114 -387l275 379q90 126 90 168q0 17 -20 31q-28 18 -110 21l9 38h386l-11 -38q-58 -6 -107 -41t-131 -148l-300 -410h395l-20 -67h-424l-13 -18z" />
    <glyph glyph-name="uni00B5" unicode="&#xb5;" horiz-adv-x="1180" 
d="M365 881h152l-147 -510q-33 -115 -37.5 -136.5t-4.5 -45.5q0 -60 27 -89.5t71 -29.5q43 0 116 54t173 216q23 50 55 161l111 380h151l-167 -578l-28 -95q-5 -29 -5 -56q0 -40 16.5 -59.5t41.5 -19.5q28 0 55 22q36 30 81 120h36q-28 -87 -117.5 -163t-135.5 -76
q-54 0 -92.5 39.5t-38.5 107.5q0 30 5 79q-78 -114 -165.5 -170t-156.5 -56q-61 0 -105 30q-28 20 -57 78q-28 -93 -38.5 -149.5t-23.5 -207.5q-9 -97 -38.5 -132.5t-70.5 -35.5q-33 0 -50 19q-24 26 -24 59q0 24 9.5 50t67.5 138q33 64 62 142.5t78 247.5z" />
    <glyph glyph-name="partialdiff" unicode="&#x2202;" horiz-adv-x="1012" 
d="M929 717q12 113 12 186q0 180 -94.5 278.5t-251.5 98.5q-106 0 -176 -40t-125 -119h-46q77 158 166 229.5t215 71.5q90 0 175.5 -49t138 -158t52.5 -295q0 -354 -154 -636q-173 -315 -438 -315q-156 0 -247.5 90t-91.5 245q0 117 46.5 229.5t117.5 190.5t158 124
q113 60 230 60q82 0 148.5 -31.5t109.5 -76.5q27 -28 55 -83zM912 628q-39 111 -116.5 168t-170.5 57q-90 0 -177 -62t-151 -217.5t-64 -310.5q0 -114 55 -175.5t140 -61.5q123 0 251 130q163 166 233 472z" />
    <glyph glyph-name="summation" unicode="&#x2211;" horiz-adv-x="1460" 
d="M1356 -442h-1313v37l669 901l-669 887v37h1278l27 -337h-40q-16 138 -77.5 197t-171.5 59h-740l562 -757l-629 -847h818q70 0 153 27q57 18 94.5 66.5t62.5 152.5l40 -8z" />
    <glyph glyph-name="product" unicode="&#x220f;" horiz-adv-x="1686" 
d="M1340 1342h-795v-1591q0 -83 37 -119t125 -36h36v-38h-597v38h35q88 0 125.5 35.5t37.5 119.5v1477q0 83 -37 119t-126 36h-35v37h1594v-37h-35q-88 0 -125 -36t-37 -119v-1477q0 -83 37 -119t125 -36h35v-38h-597v38h35q88 0 125 35.5t37 119.5v1591z" />
    <glyph glyph-name="glyph155" horiz-adv-x="1124" 
d="M766 744h-248l-151 -517q-47 -159 -99 -215q-35 -36 -82 -36q-37 0 -58.5 20.5t-21.5 47.5q0 29 18 65q11 24 69 92.5t91 134.5q24 48 53 144l80 264h-50q-119 0 -172.5 -27.5t-86.5 -86.5h-36q36 119 125 185t230 66h638l-41 -137h-156l-131 -435q-17 -55 -17 -84
q0 -55 31 -88t75 -33q37 0 72 26t65 97h36q-31 -126 -71 -177q-60 -74 -142 -74q-71 0 -121 55.5t-50 152.5q0 58 29 153z" />
    <glyph glyph-name="integral" unicode="&#x222b;" horiz-adv-x="561" 
d="M200 895l18 581q8 154 50 255q27 67 74 99.5t93 32.5q50 0 87.5 -33.5t37.5 -73.5q0 -47 -26.5 -75.5t-65.5 -28.5q-35 0 -76 36q-23 20 -40 20t-28.5 -14.5t-11.5 -49.5q0 -41 9 -145q37 -411 37 -663q0 -70 -16 -590q-8 -295 -90 -399q-54 -67 -134 -67q-52 0 -85 34
t-33 87q0 45 25.5 72t64.5 27q40 0 69 -32t49 -32q17 0 28 14t11 47q0 42 -9 120q-17 143 -26 338q-12 249 -12 440z" />
    <glyph glyph-name="ordfeminine" unicode="&#xaa;" horiz-adv-x="565" 
d="M771 1387l-126 -407q-16 -51 -16 -71q0 -7 5 -13t12 -6q10 0 25 11q24 17 66 71l23 -14q-92 -128 -180 -128q-28 0 -42 13.5t-14 35.5q0 31 14 79l14 45q-86 -103 -155 -143q-53 -30 -101 -30q-50 0 -84 37t-34 100q0 91 59.5 196t146 164.5t152.5 59.5q42 0 67.5 -18
t41.5 -64l23 68zM544 1360q-74 0 -150 -96q-112 -141 -112 -275q0 -41 21.5 -65.5t52.5 -24.5q72 0 169.5 117.5t97.5 247.5q0 48 -21.5 72t-57.5 24z" />
    <glyph glyph-name="ordmasculine" unicode="&#xba;" horiz-adv-x="635" 
d="M805 1203q0 -147 -115 -260t-261 -113q-91 0 -146 53.5t-55 134.5q0 138 117.5 253.5t260.5 115.5q89 0 144 -52.5t55 -131.5zM697 1241q0 55 -29 85t-78 30q-96 0 -175.5 -127.5t-79.5 -249.5q0 -56 30.5 -87.5t80.5 -31.5q90 0 170.5 125.5t80.5 255.5z" />
    <glyph glyph-name="uni2126" unicode="&#x2126;" horiz-adv-x="1573" 
d="M665 290l30 -290h-604v334h34q20 -79 47 -101t99 -22h303v29q-158 47 -248 118t-143 191.5t-53 244.5q0 152 81 293.5t236 218t360 76.5q204 0 359 -76t236 -217.5t81 -294.5q0 -125 -53 -245t-142.5 -191t-248.5 -118v-29h303q73 0 100 22t47 101h34v-334h-605l31 290
q123 45 185 131q104 145 104 376q0 256 -115.5 386t-310.5 130q-205 0 -306 -114q-130 -146 -130 -401q0 -146 40.5 -256.5t112.5 -175.5q48 -44 136 -76z" />
    <glyph glyph-name="ae" unicode="&#xe6;" horiz-adv-x="1366" 
d="M917 889l-24 -97q129 113 255 113q86 0 137 -43.5t51 -102.5q0 -58 -38 -120.5t-102.5 -109.5t-175 -89.5t-233.5 -60.5q-12 -69 -12 -115q0 -89 46 -138t125 -49q68 0 136.5 36t158.5 131l26 -30q-88 -114 -194.5 -176t-200.5 -62q-111 0 -181.5 71t-70.5 181q0 29 4 72
q-137 -198 -196 -245q-98 -79 -203 -79q-75 0 -127.5 60.5t-52.5 170.5q0 154 99 333.5t245 284.5q111 80 208 80q67 0 106.5 -40t49.5 -137l34 140zM310 93q55 0 134 64q106 84 185 255.5t79 307.5q0 72 -28.5 105t-79.5 33q-127 0 -261.5 -229.5t-134.5 -396.5
q0 -58 39 -106q27 -33 67 -33zM797 428q214 46 313 145t99 186q0 37 -28 65t-64 28q-48 0 -113.5 -41.5t-113.5 -124.5t-93 -258z" />
    <glyph glyph-name="oslash" unicode="&#xf8;" 
d="M961 965l40 -40l-122 -129q69 -99 69 -205q0 -152 -85.5 -302.5t-224 -231.5t-274.5 -81q-58 0 -102.5 17t-95.5 58l-122 -124l-39 42l122 124q-70 98 -70 194q0 144 87.5 295t231.5 237t278 86q51 0 92.5 -14.5t93.5 -52.5zM766 759q-36 55 -66.5 74t-80.5 19
q-83 0 -159 -68q-105 -93 -177 -278q-58 -149 -58 -273q0 -12 1 -36zM783 693l-541 -564q37 -62 69.5 -83t84.5 -21t102.5 28t111 105.5t117.5 225.5t57 274q0 8 -1 35z" />
    <glyph glyph-name="questiondown" unicode="&#xbf;" 
d="M712 977q43 0 72.5 -29.5t29.5 -72.5q0 -42 -30 -71.5t-72 -29.5t-72 29.5t-30 71.5q0 43 30 72.5t72 29.5zM652 613h38q-14 -127 -61 -219t-196 -251q-125 -133 -169 -221q-31 -63 -31 -130q0 -79 56 -133.5t144 -54.5q85 0 138 36q30 20 30 48q0 20 -16.5 55.5
t-16.5 58.5q0 34 24 56.5t59 22.5t59.5 -25t24.5 -65q0 -54 -36.5 -108t-111 -89.5t-171.5 -35.5q-154 0 -248.5 87t-94.5 198q0 89 44 155q58 86 220 197.5t223 196t92 221.5z" />
    <glyph glyph-name="exclamdown" unicode="&#xa1;" horiz-adv-x="797" 
d="M538 979q42 0 72 -30t30 -73q0 -42 -30 -72t-72 -30q-43 0 -73 30t-30 72q0 43 30 73t73 30zM471 615h38q-49 -181 -69 -276t-45 -249q-50 -318 -61 -371q-20 -90 -65 -138q-22 -23 -59 -23q-27 0 -46.5 22t-19.5 59q0 43 19 106q42 141 162 452q57 148 63 165
q19 53 83 253z" />
    <glyph glyph-name="logicalnot" unicode="&#xac;" horiz-adv-x="1382" 
d="M150 878h1080v-406h-79v325h-1001v81z" />
    <glyph glyph-name="radical" unicode="&#x221a;" horiz-adv-x="1124" 
d="M1050 1869h74l-312 -1947l-496 1021l-198 -91l-34 64l301 151l405 -823z" />
    <glyph glyph-name="florin" unicode="&#x192;" 
d="M687 875h178l-17 -66h-174q-52 -269 -172 -708q-94 -341 -205 -449q-84 -83 -173 -83q-56 0 -89 30.5t-33 74.5q0 39 23.5 64t53.5 25q26 0 45.5 -18t19.5 -38q0 -22 -14 -38q-10 -12 -10 -19q0 -8 7 -14.5t18 -6.5q20 0 37 10q30 17 59 64t60 177q6 22 86 415
q7 35 123 514h-177l15 66q99 7 124.5 15.5t42.5 31.5q26 34 60 134q73 212 140 272q66 59 147 59q62 0 99.5 -33t37.5 -79q0 -35 -20 -56t-48 -21q-26 0 -44.5 17.5t-18.5 38.5q0 16 11 34.5t11 26.5q0 11 -9 19q-9 7 -26 7q-32 0 -58 -24q-35 -33 -46 -84
q-27 -121 -64 -358z" />
    <glyph glyph-name="approxequal" unicode="&#x2248;" horiz-adv-x="1124" 
d="M1052 1038h43q-3 -126 -72.5 -199.5t-169.5 -73.5q-46 0 -98 15t-275 106q-156 64 -221 64q-70 0 -118.5 -43.5t-67.5 -139.5h-43q4 89 33.5 147.5t86 92t112.5 33.5q43 0 89 -13q104 -30 291 -110q97 -42 156 -58q30 -8 67 -8q75 0 126 48t61 139zM1052 547h43
q-3 -127 -72.5 -200.5t-169.5 -73.5q-46 0 -150 31l-223 91q-156 63 -221 63q-70 0 -118.5 -43.5t-67.5 -139.5h-43q4 89 33 147.5t85.5 92.5t112.5 34q43 0 89 -13q105 -31 292 -111l98 -42l58 -15q30 -8 67 -8q75 0 126 47.5t61 139.5z" />
    <glyph glyph-name="uni2206" unicode="&#x2206;" horiz-adv-x="1253" 
d="M1140 0h-1200l628 1387zM904 82l-399 967l-440 -967h839z" />
    <glyph glyph-name="guillemotleft" unicode="&#xab;" 
d="M606 920l-340 -478l109 -473h-44l-247 473l469 478h53zM988 920l-340 -478l111 -473h-44l-248 473l467 478h54z" />
    <glyph glyph-name="guillemotright" unicode="&#xbb;" 
d="M418 -31l341 477l-110 474h44l248 -474l-469 -477h-54zM37 -31l339 477l-110 474h44l248 -474l-468 -477h-53z" />
    <glyph glyph-name="ellipsis" unicode="&#x2026;" horiz-adv-x="1821" 
d="M377 194q47 0 79 -32.5t32 -78.5t-32.5 -78.5t-78.5 -32.5t-78.5 32.5t-32.5 78.5q0 47 32.5 79t78.5 32zM906 194q47 0 79 -32.5t32 -78.5t-32.5 -78.5t-78.5 -32.5t-78.5 32.5t-32.5 78.5q0 47 32.5 79t78.5 32zM1435 194q47 0 79 -32.5t32 -78.5t-32.5 -78.5
t-78.5 -32.5t-78.5 32.5t-32.5 78.5q0 47 32.5 79t78.5 32z" />
    <glyph glyph-name="Agrave" unicode="&#xc0;" horiz-adv-x="1251" 
d="M1055 1387l-103 -1128q-8 -79 -8 -104q0 -40 15 -61q19 -29 51.5 -43t109.5 -14l-11 -37h-534l11 37h23q65 0 106 28q29 19 45 63q11 31 21 146l16 172h-388l-138 -187q-47 -63 -59 -90.5t-12 -51.5q0 -32 26 -55t86 -25l-11 -37h-401l11 37q74 3 130.5 49.5t168.5 198.5
l810 1102h35zM857 1054l-393 -535h341zM1086 1802l109 -344h-32l-298 344h221z" />
    <glyph glyph-name="Atilde" unicode="&#xc3;" horiz-adv-x="1251" 
d="M1055 1387l-103 -1128q-8 -79 -8 -104q0 -40 15 -61q19 -29 51.5 -43t109.5 -14l-11 -37h-534l11 37h23q65 0 106 28q29 19 45 63q11 31 21 146l16 172h-388l-138 -187q-47 -63 -59 -90.5t-12 -51.5q0 -32 26 -55t86 -25l-11 -37h-401l11 37q74 3 130.5 49.5t168.5 198.5
l810 1102h35zM857 1054l-393 -535h341zM1335 1733h30q3 -126 -53 -194t-131 -68q-73 0 -168.5 61t-117.5 71q-17 8 -39 8q-37 0 -59.5 -26t-36.5 -110h-32q7 140 60 200t128 60q73 0 178.5 -70t144.5 -70q35 0 57 26q29 33 39 112z" />
    <glyph glyph-name="Otilde" unicode="&#xd5;" horiz-adv-x="1479" 
d="M1009 1387q135 0 239 -58.5t163 -173t59 -237.5q0 -218 -126.5 -457.5t-330.5 -365.5t-422 -126q-157 0 -262.5 69.5t-156 183.5t-50.5 221q0 190 91.5 375.5t218.5 310t271 191.5t306 67zM975 1323q-100 0 -195.5 -49.5t-189.5 -162t-169 -294.5q-92 -224 -92 -423
q0 -142 73 -251.5t224 -109.5q91 0 178.5 45t182.5 154q119 137 200 349.5t81 396.5q0 136 -73 240.5t-220 104.5zM1339 1733h30q3 -126 -53 -194t-131 -68q-73 0 -168.5 61t-117.5 71q-17 8 -39 8q-37 0 -59.5 -26t-36.5 -110h-32q7 140 60 200t128 60q73 0 178.5 -70
t144.5 -70q35 0 57 26q29 33 39 112z" />
    <glyph glyph-name="OE" unicode="&#x152;" horiz-adv-x="1933" 
d="M1809 375l-127 -375h-666q-155 0 -265 -4l-236 -10q-138 0 -247.5 62.5t-166 176.5t-56.5 230q0 183 87.5 353.5t212.5 292.5t279.5 194.5t272.5 72.5q11 0 101 -5q141 -7 287 -7h700l-87 -329h-38q7 46 7 76q0 50 -30.5 94t-79 63.5t-194.5 19.5h-203l-155 -536h80
q116 0 172 17t93.5 55t73.5 122h37l-144 -492h-37q19 79 19 111q0 52 -35 85t-96 33l-55 -1h-129l-125 -425q-26 -89 -26 -114q0 -20 11.5 -37t28.5 -22.5t91 -5.5h108q118 0 188 23q103 32 180.5 103.5t130.5 178.5h38zM1101 989q35 119 35 173q0 51 -48 90.5t-145 39.5
q-175 0 -304 -91q-166 -118 -274.5 -350.5t-108.5 -452.5q0 -159 86 -248t242 -89q142 0 211 57t127 257z" />
    <glyph glyph-name="oe" unicode="&#x153;" horiz-adv-x="1366" 
d="M1230 240l26 -29q-104 -118 -213.5 -176.5t-187.5 -58.5q-74 0 -125 44t-69 132q-147 -177 -330 -177q-120 0 -198.5 85t-78.5 222q0 124 57.5 241t139 202t174.5 132.5t172 47.5q93 0 157 -49.5t80 -129.5q158 179 331 179q78 0 120.5 -39t42.5 -101q0 -57 -30 -110
q-43 -75 -120.5 -132t-189 -98.5t-193.5 -50.5q-8 -58 -8 -90q0 -90 48.5 -144t115.5 -54q53 0 99 24q66 33 180 130zM342 20q131 0 239 223q134 275 134 451q0 73 -39.5 116t-97.5 43t-113 -46q-76 -63 -155 -233q-99 -212 -99 -400q0 -73 37 -113.5t94 -40.5zM803 422
q193 40 293 142.5t100 199.5q0 40 -21.5 64t-54.5 24q-88 0 -168.5 -106.5t-148.5 -323.5z" />
    <glyph glyph-name="endash" unicode="&#x2013;" 
d="M1041 453h-1059v73h1059v-73z" />
    <glyph glyph-name="emdash" unicode="&#x2014;" horiz-adv-x="1821" 
d="M1840 452l-1859 1v74l1859 -1v-74z" />
    <glyph glyph-name="quotedblleft" unicode="&#x201c;" horiz-adv-x="1139" 
d="M686 1356q-76 -31 -130 -93q-26 -30 -26 -73q0 -20 5 -33q3 -7 25.5 -33.5t28.5 -39.5q7 -17 7 -34q0 -42 -30 -73.5t-72 -31.5q-41 0 -70.5 32.5t-29.5 85.5q0 59 31 121t92 113q42 35 146 90zM1145 1356q-101 -56 -129 -92.5t-28 -70.5q0 -21 7 -36q3 -8 25.5 -34
t27.5 -36q7 -17 7 -35q0 -44 -30 -75.5t-72 -31.5t-71.5 31.5t-29.5 85.5q0 86 62 168t211 150z" />
    <glyph glyph-name="quotedblright" unicode="&#x201d;" horiz-adv-x="1139" 
d="M832 983q75 30 129 92q27 30 27 71q0 20 -6 33q-2 7 -24.5 33t-28.5 38q-8 17 -8 35q0 41 30.5 72t72.5 31q41 0 70.5 -32.5t29.5 -85.5q0 -60 -31 -122t-92 -112q-42 -35 -147 -91zM373 982q101 55 129 91t28 70q0 20 -7 35q-3 8 -25.5 34t-27.5 36q-7 16 -7 34
q0 43 30 74t71 31q43 0 72.5 -31.5t29.5 -86.5q0 -197 -273 -323z" />
    <glyph glyph-name="quoteleft" unicode="&#x2018;" horiz-adv-x="682" 
d="M727 1356q-76 -33 -117 -79.5t-41 -82.5q0 -19 6 -34q3 -8 27 -32t28 -33q7 -17 7 -39q0 -44 -30 -75t-69 -31q-41 0 -72.5 33t-31.5 83q0 89 70 180t203 141z" />
    <glyph glyph-name="quoteright" unicode="&#x2019;" horiz-adv-x="682" 
d="M401 982q75 33 122 86q36 40 36 76q0 19 -6 34q-4 8 -28 32t-27 33q-7 16 -7 39q0 43 29.5 74t69.5 31q41 0 72.5 -33t31.5 -83q0 -89 -70 -180t-203 -141z" />
    <glyph glyph-name="divide" unicode="&#xf7;" horiz-adv-x="1124" 
d="M592 1075q36 0 61.5 -25.5t25.5 -61.5t-25.5 -61.5t-62.5 -25.5q-36 0 -61.5 25.5t-25.5 61.5t25.5 61.5t62.5 25.5zM1131 640h-1078v82h1078v-82zM592 455q37 0 62.5 -26t25.5 -62t-26 -62t-62 -26t-62 26t-26 62t25.5 62t62.5 26z" />
    <glyph glyph-name="lozenge" unicode="&#x25ca;" horiz-adv-x="1012" 
d="M549 1422l418 -713l-418 -709h-111l-391 709l391 713h111zM495 1325l-340 -616l340 -615l359 615z" />
    <glyph glyph-name="ydieresis" unicode="&#xff;" horiz-adv-x="909" 
d="M327 905q34 -58 47 -108.5t26 -198.5l44 -492q60 72 174 228q55 76 136 207q49 80 60 112q6 16 6 33q0 11 -7 18t-36.5 16.5t-49 35t-19.5 58.5q0 41 24 66t60 25q44 0 75 -36.5t31 -100.5q0 -79 -54 -180.5t-208 -311.5t-373 -458q-151 -171 -224 -215.5t-125 -44.5
q-31 0 -54.5 23.5t-23.5 54.5q0 39 32.5 71t70.5 32q20 0 33 -9q8 -5 17.5 -28.5t17.5 -31.5q5 -5 12 -5q6 0 21 10q55 34 128 108q96 98 142 160l-56 634q-14 157 -42 191t-94 34q-21 0 -75 -6l-9 37zM815 1340q45 0 76 -31.5t31 -76.5q0 -44 -31 -75.5t-76 -31.5
q-44 0 -75.5 31.5t-31.5 75.5q0 45 31 76.5t76 31.5zM459 1340q45 0 76.5 -31.5t31.5 -76.5q0 -44 -31.5 -75.5t-76.5 -31.5q-44 0 -75.5 31.5t-31.5 75.5q0 45 31.5 76.5t75.5 31.5z" />
    <glyph glyph-name="Ydieresis" unicode="&#x178;" horiz-adv-x="1139" 
d="M716 721l258 361q100 141 100 180q0 22 -21.5 36.5t-122.5 20.5l10 37h426l-8 -37q-62 -8 -85 -17q-36 -15 -71 -47q-47 -42 -136 -165l-332 -458l-100 -335q-37 -126 -37 -174q0 -31 11.5 -47t40.5 -26q38 -12 116 -13l-10 -37h-571l12 37q85 2 113 14q45 18 67 48
q34 46 70 165l119 396l-145 468q-39 124 -71.5 154t-113.5 37l10 37h501l-12 -37q-94 -7 -107 -12q-22 -7 -36 -28t-14 -49q0 -41 29 -140zM1036 1712q45 0 76 -31.5t31 -76.5q0 -44 -31 -75.5t-76 -31.5q-44 0 -75.5 31.5t-31.5 75.5q0 45 31 76.5t76 31.5zM680 1712
q45 0 76.5 -31.5t31.5 -76.5q0 -44 -31.5 -75.5t-76.5 -31.5q-44 0 -75.5 31.5t-31.5 75.5q0 45 31.5 76.5t75.5 31.5z" />
    <glyph glyph-name="fraction" unicode="&#x2044;" horiz-adv-x="342" 
d="M683 1384l-935 -1439h-89l935 1439h89z" />
    <glyph glyph-name="fraction" unicode="&#x2215;" horiz-adv-x="342" 
d="M683 1384l-935 -1439h-89l935 1439h89z" />
    <glyph glyph-name="Euro" unicode="&#x20ac;" 
d="M890 737h-538q-15 -42 -27 -83h542l-22 -78h-540q-31 -122 -31 -228q0 -288 207 -288q134 0 244 69q66 41 182 156l25 -20q-125 -136 -212 -194q-142 -95 -303 -95q-331 0 -331 381q0 101 25 219h-94l22 78h90l5 16q8 30 21 67h-92l22 78h101q102 237 274 391
q198 178 427 178q171 0 314 -88l-85 -299h-39q11 57 11 105q0 216 -220 216q-158 0 -298 -167q-109 -130 -190 -336h532z" />
    <glyph glyph-name="guilsinglleft" unicode="&#x2039;" horiz-adv-x="682" 
d="M638 920l-341 -477l111 -474h-43l-249 474l467 477h55z" />
    <glyph glyph-name="guilsinglright" unicode="&#x203a;" horiz-adv-x="682" 
d="M46 -31l340 478l-110 473h43l249 -473l-468 -478h-54z" />
    <glyph glyph-name="uniFB01" unicode="&#xfb01;" 
d="M409 817l-110 -441q-55 -219 -122 -386.5t-148.5 -263t-164.5 -140.5q-53 -28 -110 -28q-64 0 -108 36q-33 27 -33 62q0 32 26.5 56.5t63.5 24.5q26 0 44 -16.5t18 -37.5q0 -20 -17.5 -37.5t-21.5 -25.5l2 -7q4 -5 14 -9t21 -4q64 0 113 45q82 74 131 214q9 25 141 535
l107 423h-178l17 64h38q67 0 112 26q26 17 51 66q107 212 159 280.5t147.5 118.5t208.5 50q110 0 162 -41t52 -99q0 -41 -23.5 -65t-57.5 -24q-33 0 -58 22q-19 17 -19 45q0 21 17.5 44t17.5 31q0 13 -16 24q-24 17 -66 17q-80 0 -158.5 -50.5t-126 -134t-108.5 -310.5h263
q108 0 149 4.5t92 19.5h29l-201 -706q-18 -61 -18 -85q0 -10 8.5 -18.5t17.5 -8.5q19 0 41 16q44 31 115 124l37 -28q-91 -126 -179 -184q-61 -39 -111 -39q-43 0 -69 24t-26 59q0 34 25 118l143 498q21 74 21 98q0 11 -6 19q-12 15 -31 21q-14 4 -76 4h-241z" />
    <glyph glyph-name="uniFB02" unicode="&#xfb02;" 
d="M796 817h-378l-113 -443q-117 -458 -260.5 -637t-295.5 -179q-65 0 -100.5 29t-35.5 67q0 36 26 61t63 25q30 0 49 -17.5t19 -37.5q0 -19 -22 -39q-11 -11 -14 -16l-2 -6q0 -7 8 -14q11 -8 27 -8q62 0 107 40q82 74 134 217q39 105 147 538l106 420h-179l20 64h41
q77 0 107 17t56 71q125 263 242 358t270 95q41 0 72 -8t81 -32q43 2 64 10t51 30h40l-359 -1221q-16 -56 -16 -82q0 -12 8 -20.5t19 -8.5q19 0 43 17q53 38 113 120l37 -26q-93 -130 -179 -186q-61 -39 -111 -39q-43 0 -68.5 24.5t-25.5 63.5t22 114zM815 881l94 323
q-25 26 -25 51q0 21 20 45.5t20 33.5q0 12 -16 22q-24 16 -75 16q-83 0 -160.5 -46.5t-124 -129.5t-113.5 -315h380z" />
    <glyph glyph-name="daggerdbl" unicode="&#x2021;" 
d="M692 759q-88 -71 -143.5 -194t-55.5 -238q0 -43 20 -107q-98 -83 -144 -220q89 5 160 30t108 25q31 0 54 -22t23 -53t-22 -52.5t-52 -21.5q-35 0 -122 33q-65 25 -162 30q-22 -94 -24 -194q-3 -132 -34.5 -174.5t-72.5 -42.5q-24 0 -46 23.5t-22 52.5q0 62 63 158.5
t94 176.5q-86 -9 -168 -39q-61 -22 -100 -22q-30 0 -52.5 22t-22.5 50q0 29 23 52.5t51 23.5q39 0 115.5 -27t168.5 -29q15 59 15 95q0 63 -40 125q91 69 147 192t56 243q0 44 -20 104q49 39 78.5 82t67.5 139q-82 -5 -157 -30t-116 -25q-29 0 -52 23t-23 53q0 29 23.5 51.5
t55.5 22.5q38 0 115.5 -29t165.5 -32q25 90 25 206t32 159t74 43q25 0 46.5 -22t21.5 -49q0 -69 -63.5 -163t-97.5 -174q83 7 156 32.5t114 25.5q30 0 54.5 -23.5t24.5 -51.5t-23.5 -50.5t-55.5 -22.5q-40 0 -119 26.5t-162 29.5q-16 -67 -16 -108q0 -52 36 -113z" />
    <glyph glyph-name="periodcentered" unicode="&#xb7;" horiz-adv-x="512" 
d="M321 789q47 0 79 -32.5t32 -78.5t-32.5 -78.5t-78.5 -32.5t-78.5 32.5t-32.5 78.5t32.5 78.5t78.5 32.5z" />
    <glyph glyph-name="periodcentered" unicode="&#x2219;" horiz-adv-x="512" 
d="M321 789q47 0 79 -32.5t32 -78.5t-32.5 -78.5t-78.5 -32.5t-78.5 32.5t-32.5 78.5t32.5 78.5t78.5 32.5z" />
    <glyph glyph-name="quotesinglbase" unicode="&#x201a;" horiz-adv-x="682" 
d="M65 -225q75 34 122 86q36 40 36 77q0 18 -6 33q-4 8 -28 32t-27 33q-7 17 -7 39q0 43 29.5 74t69.5 31q41 0 72.5 -33t31.5 -83q0 -89 -70 -180t-203 -141z" />
    <glyph glyph-name="quotedblbase" unicode="&#x201e;" horiz-adv-x="1139" 
d="M489 -224q75 30 129 92q27 30 27 71q0 20 -6 33q-2 7 -24.5 33t-28.5 38q-8 17 -8 35q0 41 30.5 72t72.5 31q41 0 70.5 -32.5t29.5 -85.5q0 -60 -31 -121.5t-91 -112.5q-43 -35 -148 -91zM30 -225q101 55 129 91t28 70q0 20 -7 36q-3 7 -25.5 33t-27.5 36q-7 16 -7 34
q0 43 30 74.5t71 31.5q43 0 72.5 -32t29.5 -87q0 -197 -273 -323z" />
    <glyph glyph-name="perthousand" unicode="&#x2030;" horiz-adv-x="2048" 
d="M1325 1387l-1111 -1441h-87l1114 1441h84zM522 1387q92 0 162.5 -77t70.5 -197q0 -184 -121.5 -318t-262.5 -134q-104 0 -171 73.5t-67 193.5q0 118 59.5 228t155 170.5t174.5 60.5zM528 1345q-46 0 -83 -36q-74 -69 -130 -215.5t-56 -274.5q0 -55 29.5 -88t68.5 -33
q49 0 81 30q69 63 128.5 214.5t59.5 282.5q0 53 -30.5 86.5t-67.5 33.5zM1082 670q100 0 170.5 -75t70.5 -195q0 -186 -122.5 -320t-258.5 -134q-102 0 -172.5 74t-70.5 191q0 185 124 322t259 137zM1096 629q-49 0 -89 -38q-69 -65 -124 -215.5t-55 -268.5q0 -57 28 -89
t68 -32q50 0 85 32q69 63 127.5 210.5t58.5 269.5q0 62 -29.5 96.5t-69.5 34.5zM1786 669q98 0 166 -74t68 -200q0 -118 -59 -225.5t-147.5 -165.5t-174.5 -58q-100 0 -169.5 75t-69.5 193q0 182 124.5 318.5t261.5 136.5zM1797 628q-50 0 -86 -33q-65 -59 -124 -210
t-59 -282q0 -52 30 -84.5t71 -32.5q46 0 75 26q64 59 128 210.5t64 277.5q0 58 -34 98q-25 30 -65 30z" />
    <glyph glyph-name="Acircumflex" unicode="&#xc2;" horiz-adv-x="1251" 
d="M1055 1387l-103 -1128q-8 -79 -8 -104q0 -40 15 -61q19 -29 51.5 -43t109.5 -14l-11 -37h-534l11 37h23q65 0 106 28q29 19 45 63q11 31 21 146l16 172h-388l-138 -187q-47 -63 -59 -90.5t-12 -51.5q0 -32 26 -55t86 -25l-11 -37h-401l11 37q74 3 130.5 49.5t168.5 198.5
l810 1102h35zM857 1054l-393 -535h341zM1196 1768l75 -316h-21l-169 202l-319 -202h-27l311 316h150z" />
    <glyph glyph-name="Ecircumflex" unicode="&#xca;" horiz-adv-x="1251" 
d="M663 1283l-155 -536h127q136 0 197 41.5t105 153.5h37l-139 -492h-40q18 62 18 106q0 43 -17.5 69t-48 38.5t-128.5 12.5h-129l-131 -449q-19 -65 -19 -99q0 -26 25 -46q17 -14 85 -14h120q195 0 312.5 69t210.5 240h37l-128 -377h-1048l13 37q78 2 105 14q40 18 58 46
q27 41 64 172l238 818q28 99 28 151q0 38 -26.5 59.5t-103.5 21.5h-21l12 37h974l-84 -327h-37q7 46 7 77q0 53 -26 89q-34 46 -99 70q-48 18 -221 18h-172zM1051 1768l75 -316h-21l-169 202l-319 -202h-27l311 316h150z" />
    <glyph glyph-name="Aacute" unicode="&#xc1;" horiz-adv-x="1251" 
d="M1055 1387l-103 -1128q-8 -79 -8 -104q0 -40 15 -61q19 -29 51.5 -43t109.5 -14l-11 -37h-534l11 37h23q65 0 106 28q29 19 45 63q11 31 21 146l16 172h-388l-138 -187q-47 -63 -59 -90.5t-12 -51.5q0 -32 26 -55t86 -25l-11 -37h-401l11 37q74 3 130.5 49.5t168.5 198.5
l810 1102h35zM857 1054l-393 -535h341zM1336 1802l-294 -343h-34l103 343h225z" />
    <glyph glyph-name="Edieresis" unicode="&#xcb;" horiz-adv-x="1251" 
d="M663 1283l-155 -536h127q136 0 197 41.5t105 153.5h37l-139 -492h-40q18 62 18 106q0 43 -17.5 69t-48 38.5t-128.5 12.5h-129l-131 -449q-19 -65 -19 -99q0 -26 25 -46q17 -14 85 -14h120q195 0 312.5 69t210.5 240h37l-128 -377h-1048l13 37q78 2 105 14q40 18 58 46
q27 41 64 172l238 818q28 99 28 151q0 38 -26.5 59.5t-103.5 21.5h-21l12 37h974l-84 -327h-37q7 46 7 77q0 53 -26 89q-34 46 -99 70q-48 18 -221 18h-172zM1067 1712q45 0 76 -31.5t31 -76.5q0 -44 -31 -75.5t-76 -31.5q-44 0 -75.5 31.5t-31.5 75.5q0 45 31 76.5t76 31.5
zM711 1712q45 0 76.5 -31.5t31.5 -76.5q0 -44 -31.5 -75.5t-76.5 -31.5q-44 0 -75.5 31.5t-31.5 75.5q0 45 31.5 76.5t75.5 31.5z" />
    <glyph glyph-name="Egrave" unicode="&#xc8;" horiz-adv-x="1251" 
d="M663 1283l-155 -536h127q136 0 197 41.5t105 153.5h37l-139 -492h-40q18 62 18 106q0 43 -17.5 69t-48 38.5t-128.5 12.5h-129l-131 -449q-19 -65 -19 -99q0 -26 25 -46q17 -14 85 -14h120q195 0 312.5 69t210.5 240h37l-128 -377h-1048l13 37q78 2 105 14q40 18 58 46
q27 41 64 172l238 818q28 99 28 151q0 38 -26.5 59.5t-103.5 21.5h-21l12 37h974l-84 -327h-37q7 46 7 77q0 53 -26 89q-34 46 -99 70q-48 18 -221 18h-172zM893 1802l109 -344h-32l-298 344h221z" />
    <glyph glyph-name="Iacute" unicode="&#xcd;" horiz-adv-x="682" 
d="M505 37l-11 -37h-558l14 37q84 2 111 14q44 17 65 47q33 47 68 168l236 818q30 102 30 154q0 26 -13 44t-39.5 27.5t-103.5 9.5l12 37h524l-11 -37q-64 1 -95 -14q-45 -20 -68.5 -57t-60.5 -164l-235 -818q-32 -113 -32 -144q0 -25 12.5 -42.5t40 -27t114.5 -15.5z
M833 1802l-294 -343h-34l103 343h225z" />
    <glyph glyph-name="Icircumflex" unicode="&#xce;" horiz-adv-x="682" 
d="M505 37l-11 -37h-558l14 37q84 2 111 14q44 17 65 47q33 47 68 168l236 818q30 102 30 154q0 26 -13 44t-39.5 27.5t-103.5 9.5l12 37h524l-11 -37q-64 1 -95 -14q-45 -20 -68.5 -57t-60.5 -164l-235 -818q-32 -113 -32 -144q0 -25 12.5 -42.5t40 -27t114.5 -15.5z
M787 1768l75 -316h-21l-169 202l-319 -202h-27l311 316h150z" />
    <glyph glyph-name="Idieresis" unicode="&#xcf;" horiz-adv-x="682" 
d="M505 37l-11 -37h-558l14 37q84 2 111 14q44 17 65 47q33 47 68 168l236 818q30 102 30 154q0 26 -13 44t-39.5 27.5t-103.5 9.5l12 37h524l-11 -37q-64 1 -95 -14q-45 -20 -68.5 -57t-60.5 -164l-235 -818q-32 -113 -32 -144q0 -25 12.5 -42.5t40 -27t114.5 -15.5z
M807 1712q45 0 76 -31.5t31 -76.5q0 -44 -31 -75.5t-76 -31.5q-44 0 -75.5 31.5t-31.5 75.5q0 45 31 76.5t76 31.5zM451 1712q45 0 76.5 -31.5t31.5 -76.5q0 -44 -31.5 -75.5t-76.5 -31.5q-44 0 -75.5 31.5t-31.5 75.5q0 45 31.5 76.5t75.5 31.5z" />
    <glyph glyph-name="Igrave" unicode="&#xcc;" horiz-adv-x="682" 
d="M505 37l-11 -37h-558l14 37q84 2 111 14q44 17 65 47q33 47 68 168l236 818q30 102 30 154q0 26 -13 44t-39.5 27.5t-103.5 9.5l12 37h524l-11 -37q-64 1 -95 -14q-45 -20 -68.5 -57t-60.5 -164l-235 -818q-32 -113 -32 -144q0 -25 12.5 -42.5t40 -27t114.5 -15.5z
M665 1802l109 -344h-32l-298 344h221z" />
    <glyph glyph-name="Oacute" unicode="&#xd3;" horiz-adv-x="1479" 
d="M1009 1387q135 0 239 -58.5t163 -173t59 -237.5q0 -218 -126.5 -457.5t-330.5 -365.5t-422 -126q-157 0 -262.5 69.5t-156 183.5t-50.5 221q0 190 91.5 375.5t218.5 310t271 191.5t306 67zM975 1323q-100 0 -195.5 -49.5t-189.5 -162t-169 -294.5q-92 -224 -92 -423
q0 -142 73 -251.5t224 -109.5q91 0 178.5 45t182.5 154q119 137 200 349.5t81 396.5q0 136 -73 240.5t-220 104.5zM1300 1802l-294 -343h-34l103 343h225z" />
    <glyph glyph-name="Ocircumflex" unicode="&#xd4;" horiz-adv-x="1479" 
d="M1009 1387q135 0 239 -58.5t163 -173t59 -237.5q0 -218 -126.5 -457.5t-330.5 -365.5t-422 -126q-157 0 -262.5 69.5t-156 183.5t-50.5 221q0 190 91.5 375.5t218.5 310t271 191.5t306 67zM975 1323q-100 0 -195.5 -49.5t-189.5 -162t-169 -294.5q-92 -224 -92 -423
q0 -142 73 -251.5t224 -109.5q91 0 178.5 45t182.5 154q119 137 200 349.5t81 396.5q0 136 -73 240.5t-220 104.5zM1218 1768l75 -316h-21l-169 202l-319 -202h-27l311 316h150z" />
    <glyph glyph-name="Ograve" unicode="&#xd2;" horiz-adv-x="1479" 
d="M1009 1387q135 0 239 -58.5t163 -173t59 -237.5q0 -218 -126.5 -457.5t-330.5 -365.5t-422 -126q-157 0 -262.5 69.5t-156 183.5t-50.5 221q0 190 91.5 375.5t218.5 310t271 191.5t306 67zM975 1323q-100 0 -195.5 -49.5t-189.5 -162t-169 -294.5q-92 -224 -92 -423
q0 -142 73 -251.5t224 -109.5q91 0 178.5 45t182.5 154q119 137 200 349.5t81 396.5q0 136 -73 240.5t-220 104.5zM1108 1802l109 -344h-32l-298 344h221z" />
    <glyph glyph-name="Uacute" unicode="&#xda;" horiz-adv-x="1479" 
d="M268 1356h573l-11 -37q-88 -2 -125.5 -16.5t-64 -51.5t-55.5 -137l-139 -480q-37 -128 -44 -168q-12 -64 -12 -119q0 -121 90 -204.5t241 -83.5q99 0 177 37.5t133.5 105t101.5 183t81 233.5l120 414q45 155 45 202q0 33 -30.5 56.5t-123.5 28.5l11 37h431l-11 -37
q-76 0 -109.5 -14.5t-58.5 -52t-56 -145.5l-147 -503q-71 -245 -134 -361.5t-182.5 -195t-296.5 -78.5q-204 0 -329 115.5t-125 264.5q0 59 11 126q8 44 39 152l134 461q28 100 28 147q0 37 -28.5 57.5t-143.5 26.5zM1234 1802l-294 -343h-34l103 343h225z" />
    <glyph glyph-name="Ucircumflex" unicode="&#xdb;" horiz-adv-x="1479" 
d="M268 1356h573l-11 -37q-88 -2 -125.5 -16.5t-64 -51.5t-55.5 -137l-139 -480q-37 -128 -44 -168q-12 -64 -12 -119q0 -121 90 -204.5t241 -83.5q99 0 177 37.5t133.5 105t101.5 183t81 233.5l120 414q45 155 45 202q0 33 -30.5 56.5t-123.5 28.5l11 37h431l-11 -37
q-76 0 -109.5 -14.5t-58.5 -52t-56 -145.5l-147 -503q-71 -245 -134 -361.5t-182.5 -195t-296.5 -78.5q-204 0 -329 115.5t-125 264.5q0 59 11 126q8 44 39 152l134 461q28 100 28 147q0 37 -28.5 57.5t-143.5 26.5zM1187 1768l75 -316h-21l-169 202l-319 -202h-27l311 316
h150z" />
    <glyph glyph-name="Ugrave" unicode="&#xd9;" horiz-adv-x="1479" 
d="M268 1356h573l-11 -37q-88 -2 -125.5 -16.5t-64 -51.5t-55.5 -137l-139 -480q-37 -128 -44 -168q-12 -64 -12 -119q0 -121 90 -204.5t241 -83.5q99 0 177 37.5t133.5 105t101.5 183t81 233.5l120 414q45 155 45 202q0 33 -30.5 56.5t-123.5 28.5l11 37h431l-11 -37
q-76 0 -109.5 -14.5t-58.5 -52t-56 -145.5l-147 -503q-71 -245 -134 -361.5t-182.5 -195t-296.5 -78.5q-204 0 -329 115.5t-125 264.5q0 59 11 126q8 44 39 152l134 461q28 100 28 147q0 37 -28.5 57.5t-143.5 26.5zM1107 1802l109 -344h-32l-298 344h221z" />
    <glyph glyph-name="dotlessi" unicode="&#x131;" horiz-adv-x="569" 
d="M471 905l-198 -701q-20 -71 -20 -85q0 -16 9.5 -26t22.5 -10q15 0 36 16q57 45 115 128l35 -23q-68 -104 -160 -175q-68 -53 -130 -53q-41 0 -67 24.5t-26 61.5t25 123l130 448q32 110 32 138q0 22 -15.5 36t-42.5 14q-22 0 -91 -11v39z" />
    <glyph glyph-name="circumflex" unicode="&#x2c6;" horiz-adv-x="682" 
d="M715 1387l75 -316h-21l-169 202l-319 -202h-27l311 316h150z" />
    <glyph glyph-name="tilde" unicode="&#x2dc;" horiz-adv-x="682" 
d="M805 1364h30q3 -126 -53 -194t-131 -68q-73 0 -168.5 61t-117.5 71q-17 8 -39 8q-37 0 -59.5 -26t-36.5 -110h-32q7 140 60 200t128 60q73 0 178.5 -70t144.5 -70q35 0 57 26q29 33 39 112z" />
    <glyph glyph-name="uni02C9" unicode="&#x2c9;" horiz-adv-x="682" 
d="M282 1348h600l-35 -128h-601z" />
    <glyph glyph-name="breve" unicode="&#x2d8;" horiz-adv-x="682" 
d="M833 1406h30q-67 -148 -163.5 -221t-184.5 -73q-94 0 -156 71.5t-65 222.5h32q15 -73 64.5 -111.5t132.5 -38.5q169 0 310 150z" />
    <glyph glyph-name="dotaccent" unicode="&#x2d9;" horiz-adv-x="682" 
d="M556 1340q44 0 75.5 -31.5t31.5 -75.5t-31.5 -75.5t-75.5 -31.5t-75.5 31.5t-31.5 75.5t31 75.5t76 31.5z" />
    <glyph glyph-name="ring" unicode="&#x2da;" horiz-adv-x="682" 
d="M570 1421q79 0 134 -55t55 -134q0 -78 -55.5 -133.5t-133.5 -55.5t-133.5 55.5t-55.5 133.5q0 79 55 134t134 55zM571 1357q-52 0 -88.5 -36.5t-36.5 -88.5q0 -51 36.5 -87.5t88.5 -36.5q51 0 87.5 36.5t36.5 87.5q0 52 -36 88.5t-88 36.5z" />
    <glyph glyph-name="cedilla" unicode="&#xb8;" horiz-adv-x="682" 
d="M260 30l-45 -76q59 -13 91 -52t32 -94q0 -67 -56 -115q-76 -63 -178 -63q-55 0 -141 22l12 33q50 -12 86 -12q64 0 99.5 30.5t35.5 73.5q0 37 -21 55q-28 23 -84 24l110 174h59z" />
    <glyph glyph-name="hungarumlaut" unicode="&#x2dd;" horiz-adv-x="682" 
d="M634 1402l-298 -344h-33l106 344h225zM923 1402l-302 -344h-32l109 344h225z" />
    <glyph glyph-name="ogonek" unicode="&#x2db;" horiz-adv-x="682" 
d="M417 60l-75 -62q-85 -70 -132 -134.5t-47 -123.5q0 -76 78 -76q43 0 94 26l7 -29q-116 -90 -204 -90q-74 0 -104 47q-15 23 -17 51v11q0 62 53 133q32 42 71 77q63 56 157 116l84 54h35z" />
    <glyph glyph-name="caron" unicode="&#x2c7;" horiz-adv-x="682" 
d="M413 1071l-75 316h21l169 -202l319 202h27l-311 -316h-150z" />
    <glyph glyph-name="Lslash" unicode="&#x141;" horiz-adv-x="1139" 
d="M938 0h-996l12 37q85 5 105 14q39 18 59 48q28 41 65 166l79 270l-241 -171l34 112l242 175l127 439q28 97 28 141q0 40 -30 62.5t-125 25.5l13 37h548l-11 -37q-93 -3 -130.5 -20.5t-62.5 -57.5q-19 -28 -58 -163l-77 -267l282 201l-32 -115l-285 -204l-123 -428
q-28 -101 -28 -128q0 -22 27 -44q19 -16 80 -16h128q175 0 268 57.5t174 209.5l23 44h39z" />
    <glyph glyph-name="lslash" unicode="&#x142;" horiz-adv-x="569" 
d="M615 1422l-188 -630l166 105l-23 -83l-162 -103l-140 -481q-28 -96 -28 -105q0 -16 9.5 -26.5t22.5 -10.5q16 0 46 22q50 36 109 120l32 -22q-82 -128 -170 -188q-66 -44 -123 -44q-38 0 -63.5 26t-25.5 64q0 35 31 142l114 389l-171 -108l25 81l170 108l133 469l29 100
q6 25 6 41q0 20 -17 35.5t-49 15.5q-24 0 -80 -9v39z" />
    <glyph glyph-name="Scaron" unicode="&#x160;" 
d="M14 -31l112 503h34q-7 -73 -7 -121q0 -137 87.5 -223t228.5 -86q131 0 199 80.5t68 185.5q0 68 -31 124q-47 83 -251 292q-99 100 -127 149q-46 81 -46 170q0 142 106 243t272 101q56 0 106 -11q31 -6 113 -40q58 -23 64 -25q14 -3 31 -3q29 0 50 15t49 64h38l-104 -450
h-34q4 60 4 97q0 121 -80 198t-211 77q-104 0 -169 -61t-65 -141q0 -70 41.5 -133.5t191 -207t193.5 -224t44 -171.5q0 -103 -54.5 -199.5t-156.5 -149.5t-223 -53q-60 0 -112 11t-166 54q-39 15 -65 15q-59 0 -92 -80h-38zM657 1452l-75 316h21l169 -202l319 202h27
l-311 -316h-150z" />
    <glyph glyph-name="scaron" unicode="&#x161;" horiz-adv-x="797" 
d="M743 905l-61 -307h-37q-5 134 -57 195t-129 61q-62 0 -98.5 -34t-36.5 -82q0 -33 14.5 -63t63.5 -84q130 -142 168 -214t38 -136q0 -104 -86.5 -184.5t-218.5 -80.5q-72 0 -166 34q-33 12 -51 12q-45 0 -68 -46h-37l61 324h37q6 -152 63 -215t156 -63q76 0 120.5 42.5
t44.5 104.5q0 40 -16 74q-28 60 -117.5 166t-115 159t-25.5 106q0 97 70.5 164t181.5 67q32 0 58 -5q14 -3 65.5 -22.5t68.5 -19.5q43 0 72 47h38zM382 1071l-75 316h21l169 -202l319 202h27l-311 -316h-150z" />
    <glyph glyph-name="Zcaron" unicode="&#x17d;" horiz-adv-x="1139" 
d="M310 1356h941v-37l-1007 -1254h157q254 0 358.5 25t174 87t116.5 176h38l-117 -353h-975v29l1007 1254h-281q-184 0 -259 -16.5t-128.5 -67t-90.5 -152.5h-35zM667 1452l-75 316h21l169 -202l319 202h27l-311 -316h-150z" />
    <glyph glyph-name="zcaron" unicode="&#x17e;" horiz-adv-x="797" 
d="M172 881h635v-25l-692 -720h293q104 0 132 8t51.5 34t52.5 94h37l-87 -272h-651v29l692 720h-288q-91 0 -110 -5q-28 -6 -55.5 -31.5t-56.5 -84.5h-38zM382 1071l-75 316h21l169 -202l319 202h27l-311 -316h-150z" />
    <glyph glyph-name="brokenbar" unicode="&#xa6;" horiz-adv-x="563" 
d="M320 1422v-742h-83v742h83zM320 300v-742h-83v742h83z" />
    <glyph glyph-name="Eth" unicode="&#xd0;" horiz-adv-x="1479" 
d="M-48 0l10 33q71 6 82 8q28 8 56 28q21 16 36 43q21 39 54 153l121 412h-179l23 74h177l99 337q29 100 29 139q0 40 -30.5 64t-124.5 26l10 39h440q278 0 409.5 -63t212 -200.5t80.5 -288.5q0 -131 -46.5 -257.5t-103 -201t-156.5 -151.5q-134 -104 -275.5 -149
t-353.5 -45h-570zM665 1283l-155 -532h370l-20 -74h-371l-119 -412q-34 -118 -34 -142q0 -14 10.5 -29t27.5 -20q26 -8 85 -8q157 0 292.5 32t222.5 97q122 93 195.5 253.5t73.5 362.5q0 238 -115 356.5t-334 118.5q-53 0 -129 -3z" />
    <glyph glyph-name="eth" unicode="&#xf0;" 
d="M696 1180l-220 -119l-28 49l223 120q-45 91 -95 157l29 31q78 -76 134 -152l220 121l27 -51l-212 -114q92 -152 134.5 -285.5t42.5 -275.5q0 -192 -87 -355.5t-225.5 -246.5t-274.5 -83q-130 0 -219.5 91t-89.5 233q0 134 85 281.5t226.5 235.5t250.5 88q49 0 83.5 -16.5
t73.5 -59.5q-4 104 -20 176t-58 175zM613 852q-72 0 -146 -60q-97 -80 -171.5 -243t-74.5 -325q0 -95 48.5 -147t119.5 -52q76 0 151 66q101 89 170 265.5t69 305.5q0 88 -48 139t-118 51z" />
    <glyph glyph-name="Yacute" unicode="&#xdd;" horiz-adv-x="1139" 
d="M716 721l258 361q100 141 100 180q0 22 -21.5 36.5t-122.5 20.5l10 37h426l-8 -37q-62 -8 -85 -17q-36 -15 -71 -47q-47 -42 -136 -165l-332 -458l-100 -335q-37 -126 -37 -174q0 -31 11.5 -47t40.5 -26q38 -12 116 -13l-10 -37h-571l12 37q85 2 113 14q45 18 67 48
q34 46 70 165l119 396l-145 468q-39 124 -71.5 154t-113.5 37l10 37h501l-12 -37q-94 -7 -107 -12q-22 -7 -36 -28t-14 -49q0 -41 29 -140zM1105 1802l-294 -343h-34l103 343h225z" />
    <glyph glyph-name="yacute" unicode="&#xfd;" horiz-adv-x="909" 
d="M327 905q34 -58 47 -108.5t26 -198.5l44 -492q60 72 174 228q55 76 136 207q49 80 60 112q6 16 6 33q0 11 -7 18t-36.5 16.5t-49 35t-19.5 58.5q0 41 24 66t60 25q44 0 75 -36.5t31 -100.5q0 -79 -54 -180.5t-208 -311.5t-373 -458q-151 -171 -224 -215.5t-125 -44.5
q-31 0 -54.5 23.5t-23.5 54.5q0 39 32.5 71t70.5 32q20 0 33 -9q8 -5 17.5 -28.5t17.5 -31.5q5 -5 12 -5q6 0 21 10q55 34 128 108q96 98 142 160l-56 634q-14 157 -42 191t-94 34q-21 0 -75 -6l-9 37zM866 1402l-294 -343h-34l103 343h225z" />
    <glyph glyph-name="Thorn" unicode="&#xde;" horiz-adv-x="1251" 
d="M384 305l-11 -39q-32 -114 -32 -144q0 -25 13.5 -43.5t43.5 -30t98 -11.5l-10 -37h-535l9 37q78 1 107 13q42 19 62 48q27 40 63 164l239 825q31 105 31 141q0 25 -14 45t-45 31.5t-93 10.5l11 41h530l-9 -41q-80 1 -118 -19t-64 -65q-20 -33 -61 -182h220q126 0 183 -17
q107 -31 172.5 -110.5t65.5 -191.5q0 -139 -100 -250.5t-216 -143t-401 -31.5h-139zM403 372h143q265 0 373.5 97t108.5 273q0 137 -82 198q-54 40 -174 40h-196z" />
    <glyph glyph-name="thorn" unicode="&#xfe;" 
d="M603 1422l-219 -747q109 128 194.5 179t174.5 51t152 -70.5t63 -183.5q0 -220 -179 -447.5t-417 -227.5q-89 0 -175 50l-73 -258q-22 -76 -22 -100q0 -23 11.5 -38t37.5 -23.5t103 -8.5l-9 -40h-471l10 40q92 3 124.5 31.5t69.5 156.5l402 1394q24 82 24 103q0 27 -16 42
t-47 15q-29 0 -81 -8v40zM220 105q62 -74 167 -74q75 0 165 70.5t167.5 232.5t77.5 319q0 80 -36.5 122.5t-85.5 42.5q-87 0 -179 -88q-129 -122 -189 -326z" />
    <glyph glyph-name="minus" unicode="&#x2212;" horiz-adv-x="1382" 
d="M1228 640h-1078v82h1078v-82z" />
    <glyph glyph-name="multiply" unicode="&#xd7;" horiz-adv-x="1382" 
d="M378 328l353 353l-352 352l58 58l352 -352l352 352l56 -57l-352 -352l354 -354l-57 -58l-354 354l-353 -353z" />
    <glyph glyph-name="uni00B9" unicode="&#xb9;" horiz-adv-x="614" 
d="M623 1384l-193 -586q-16 -47 -16 -68q0 -18 10 -25q13 -10 50 -11q10 0 28 -1l-10 -31h-329l14 31q70 1 87 15q26 20 52 99l137 411q15 44 15 62q0 14 -8 21t-23 7q-14 0 -56 -7l-13 30z" />
    <glyph glyph-name="uni00B2" unicode="&#xb2;" horiz-adv-x="614" 
d="M531 662h-420v27q310 234 405 365q43 58 43 121q0 51 -33 83.5t-88 32.5q-80 0 -135 -73l-39 16q31 70 92 110t135 40q85 0 138.5 -49.5t53.5 -117.5q0 -34 -16 -73t-73 -104.5t-150 -143.5l-181 -147h177q88 0 115 64h48z" />
    <glyph glyph-name="uni00B3" unicode="&#xb3;" horiz-adv-x="614" 
d="M277 1041v26q150 19 219 74q44 36 44 85q0 39 -25 63.5t-64 24.5q-59 0 -111 -73l-42 11q67 132 198 132q78 0 123 -40t45 -95q0 -45 -33 -83q-43 -50 -134 -84q112 -54 112 -163q0 -103 -92.5 -186.5t-235.5 -83.5q-81 0 -123 27q-26 17 -26 38q0 20 17.5 35t47.5 15
q29 0 75 -22q66 -32 104 -32q36 0 66 39q41 52 41 122q0 72 -51 119t-155 51z" />
    <glyph glyph-name="onehalf" unicode="&#xbd;" horiz-adv-x="1536" 
d="M1280 1384l-935 -1439h-89l935 1439h89zM621 1384l-193 -586q-16 -47 -16 -68q0 -18 10 -25q13 -10 50 -11q10 0 28 -1l-10 -31h-329l14 31q70 1 87 15q26 20 52 99l137 411q15 44 15 62q0 14 -8 21t-23 7q-14 0 -56 -7l-13 30zM1257 -43h-420v27q310 234 406 365
q42 58 42 121q0 51 -32.5 83.5t-88.5 32.5q-44 0 -75 -17t-60 -56l-38 16q31 70 91.5 110t134.5 40q85 0 138.5 -49.5t53.5 -117.5q0 -34 -16 -73t-73 -104.5t-149 -143.5l-182 -147h177q89 0 116 64h47z" />
    <glyph glyph-name="onequarter" unicode="&#xbc;" horiz-adv-x="1536" 
d="M1328 1384l-934 -1439h-90l936 1439h88zM621 1384l-193 -586q-16 -47 -16 -68q0 -18 10 -25q13 -10 50 -11q10 0 28 -1l-10 -31h-329l14 31q70 1 87 15q26 20 52 99l137 411q15 44 15 62q0 14 -8 21t-23 7q-14 0 -56 -7l-13 30zM1433 663l-161 -459h104l-26 -74h-97
l-62 -185h-104l62 185h-295l28 80l485 453h66zM1272 501l-312 -297h213z" />
    <glyph glyph-name="threequarters" unicode="&#xbe;" horiz-adv-x="1536" 
d="M275 1041v26q150 19 219 74q44 36 44 85q0 39 -25 63.5t-64 24.5q-59 0 -111 -73l-42 11q67 132 198 132q78 0 123 -40t45 -95q0 -45 -33 -83q-43 -50 -134 -84q112 -54 112 -163q0 -103 -92.5 -186.5t-235.5 -83.5q-81 0 -123 27q-26 17 -26 38q0 20 17.5 35t47.5 15
q29 0 75 -22q66 -32 104 -32q36 0 66 39q41 52 41 122q0 72 -51 119t-155 51zM1316 1384l-934 -1439h-90l936 1439h88zM1433 663l-161 -459h104l-26 -74h-96l-63 -185h-104l62 185h-295l28 80l485 453h66zM1272 501l-312 -297h213z" />
    <glyph glyph-name="franc" unicode="&#x20a3;" 
d="M389 341h248l-21 -73h-248q-32 -114 -32 -146q0 -38 27.5 -58t134.5 -27l-12 -37h-536l13 37q80 2 113 16.5t51 44.5q28 46 64 170h-169l20 73h170l217 742q29 99 29 155q0 26 -13 44.5t-38.5 27.5t-101.5 9l12 37h817l-99 -343h-39q11 62 11 102q0 57 -28 95t-86 59
q-44 15 -227 15l-160 -537h57q120 0 180 37t123 158h38l-142 -494h-40q15 60 15 99q0 61 -40.5 94.5t-151.5 33.5h-59z" />
    <glyph glyph-name="Gbreve" unicode="&#x11e;" horiz-adv-x="1479" 
d="M1474 1387l-101 -427h-38q9 75 9 111q0 98 -86.5 173.5t-238.5 75.5q-311 0 -508 -292q-157 -231 -157 -517q0 -190 97 -328t299 -138q50 0 94.5 9t134.5 40l99 349q21 72 21 115q0 36 -26 55q-42 29 -136 29h-28l11 39h564l-10 -39q-77 -1 -112 -18t-60 -58
q-17 -27 -55 -157l-100 -343q-137 -59 -221 -78.5t-177 -19.5q-214 0 -347 80.5t-196.5 213t-63.5 263.5q0 176 74 334.5t184.5 268t240.5 172.5q179 87 376 87q145 0 262 -48q47 -19 69 -19q25 0 42.5 11.5t45.5 55.5h38zM1384 1768h30q-67 -148 -163.5 -221t-184.5 -73
q-94 0 -156 71.5t-65 222.5h32q15 -73 64.5 -111.5t132.5 -38.5q169 0 310 150z" />
    <glyph glyph-name="gbreve" unicode="&#x11f;" 
d="M1067 843l-29 -104h-167q19 -54 19 -101q0 -132 -112 -235q-113 -103 -310 -114q-106 -32 -159 -76q-20 -16 -20 -33q0 -20 18 -36.5t91 -33.5l194 -45q161 -38 213 -90q51 -53 51 -122q0 -82 -60.5 -150t-177 -106.5t-257.5 -38.5q-124 0 -226 29.5t-146 79.5t-44 103
q0 43 28.5 89.5t71.5 76.5q27 19 153 90q-46 36 -46 79q0 40 40.5 85t171.5 99q-110 21 -174.5 92t-64.5 158q0 142 124.5 254t331.5 112q75 0 123 -15t93 -47h270zM720 686q0 80 -44.5 126t-116.5 46q-113 0 -186.5 -113.5t-73.5 -236.5q0 -77 47 -126t114 -49
q53 0 102.5 29t83.5 80t54 130t20 114zM241 0q-81 -37 -122.5 -95t-41.5 -114q0 -66 60 -109q86 -62 252 -62q143 0 244.5 48.5t101.5 125.5q0 39 -37.5 74t-145.5 57q-59 12 -311 75zM956 1406h30q-67 -148 -163.5 -221t-184.5 -73q-94 0 -156 71.5t-65 222.5h32
q15 -73 64.5 -111.5t132.5 -38.5q169 0 310 150z" />
    <glyph glyph-name="Idotaccent" unicode="&#x130;" horiz-adv-x="682" 
d="M505 37l-11 -37h-558l14 37q84 2 111 14q44 17 65 47q33 47 68 168l236 818q30 102 30 154q0 26 -13 44t-39.5 27.5t-103.5 9.5l12 37h524l-11 -37q-64 1 -95 -14q-45 -20 -68.5 -57t-60.5 -164l-235 -818q-32 -113 -32 -144q0 -25 12.5 -42.5t40 -27t114.5 -15.5z
M685 1721q44 0 75.5 -31.5t31.5 -75.5t-31.5 -75.5t-75.5 -31.5t-75.5 31.5t-31.5 75.5t31 75.5t76 31.5z" />
    <glyph glyph-name="Scedilla" unicode="&#x15e;" 
d="M14 -31l112 503h34q-7 -73 -7 -121q0 -137 87.5 -223t228.5 -86q131 0 199 80.5t68 185.5q0 68 -31 124q-47 83 -251 292q-99 100 -127 149q-46 81 -46 170q0 142 106 243t272 101q56 0 106 -11q31 -6 113 -40q58 -23 64 -25q14 -3 31 -3q29 0 50 15t49 64h38l-104 -450
h-34q4 60 4 97q0 121 -80 198t-211 77q-104 0 -169 -61t-65 -141q0 -70 41.5 -133.5t191 -207t193.5 -224t44 -171.5q0 -103 -54.5 -199.5t-156.5 -149.5t-223 -53q-60 0 -112 11t-166 54q-39 15 -65 15q-59 0 -92 -80h-38zM523 30l-45 -76q59 -13 91 -52t32 -94
q0 -67 -56 -115q-76 -63 -178 -63q-55 0 -141 22l12 33q50 -12 86 -12q64 0 99.5 30.5t35.5 73.5q0 37 -21 55q-28 23 -84 24l110 174h59z" />
    <glyph glyph-name="scedilla" unicode="&#x15f;" horiz-adv-x="797" 
d="M743 905l-61 -307h-37q-5 134 -57 195t-129 61q-62 0 -98.5 -34t-36.5 -82q0 -33 14.5 -63t63.5 -84q130 -142 168 -214t38 -136q0 -104 -86.5 -184.5t-218.5 -80.5q-72 0 -166 34q-33 12 -51 12q-45 0 -68 -46h-37l61 324h37q6 -152 63 -215t156 -63q76 0 120.5 42.5
t44.5 104.5q0 40 -16 74q-28 60 -117.5 166t-115 159t-25.5 106q0 97 70.5 164t181.5 67q32 0 58 -5q14 -3 65.5 -22.5t68.5 -19.5q43 0 72 47h38zM324 30l-45 -76q59 -13 91 -52t32 -94q0 -67 -56 -115q-76 -63 -178 -63q-55 0 -141 22l12 33q50 -12 86 -12q64 0 99.5 30.5
t35.5 73.5q0 37 -21 55q-28 23 -84 24l110 174h59z" />
    <glyph glyph-name="Cacute" unicode="&#x106;" horiz-adv-x="1366" 
d="M1441 1387l-101 -439h-36l-4 110q-5 60 -23 107t-54 81.5t-91 54t-122 19.5q-179 0 -313 -98q-171 -125 -268 -353q-80 -188 -80 -381q0 -197 115 -314.5t299 -117.5q139 0 247.5 62t201.5 191h47q-110 -175 -244 -257.5t-321 -82.5q-166 0 -294 69.5t-195 195.5t-67 271
q0 222 119 432t326.5 330t418.5 120q99 0 222 -47q54 -20 78 -20t42 10t60 57h37zM1260 1802l-294 -343h-34l103 343h225z" />
    <glyph glyph-name="cacute" unicode="&#x107;" horiz-adv-x="909" 
d="M791 218q-104 -125 -210 -183.5t-224 -58.5q-142 0 -221.5 80t-79.5 215q0 153 85.5 301t230 240.5t283.5 92.5q109 0 163 -45.5t54 -111.5q0 -62 -38 -106q-28 -34 -69 -34q-31 0 -51.5 20t-20.5 50q0 19 7.5 35t31 38.5t28.5 32.5t5 21q0 21 -19 35q-29 20 -82 20
q-98 0 -194 -69t-164 -196q-82 -154 -82 -308q0 -102 58 -161.5t158 -59.5q77 0 152.5 38.5t169.5 139.5zM878 1402l-294 -343h-34l103 343h225z" />
    <glyph glyph-name="Ccaron" unicode="&#x10c;" horiz-adv-x="1366" 
d="M1441 1387l-101 -439h-36l-4 110q-5 60 -23 107t-54 81.5t-91 54t-122 19.5q-179 0 -313 -98q-171 -125 -268 -353q-80 -188 -80 -381q0 -197 115 -314.5t299 -117.5q139 0 247.5 62t201.5 191h47q-110 -175 -244 -257.5t-321 -82.5q-166 0 -294 69.5t-195 195.5t-67 271
q0 222 119 432t326.5 330t418.5 120q99 0 222 -47q54 -20 78 -20t42 10t60 57h37zM932 1452l-75 316h21l169 -202l319 202h27l-311 -316h-150z" />
    <glyph glyph-name="ccaron" unicode="&#x10d;" horiz-adv-x="909" 
d="M791 218q-104 -125 -210 -183.5t-224 -58.5q-142 0 -221.5 80t-79.5 215q0 153 85.5 301t230 240.5t283.5 92.5q109 0 163 -45.5t54 -111.5q0 -62 -38 -106q-28 -34 -69 -34q-31 0 -51.5 20t-20.5 50q0 19 7.5 35t31 38.5t28.5 32.5t5 21q0 21 -19 35q-29 20 -82 20
q-98 0 -194 -69t-164 -196q-82 -154 -82 -308q0 -102 58 -161.5t158 -59.5q77 0 152.5 38.5t169.5 139.5zM590 1071l-75 316h21l169 -202l319 202h27l-311 -316h-150z" />
    <glyph glyph-name="dcroat" unicode="&#x111;" 
d="M1031 1156h172l-18 -82h-178l-243 -832q-28 -96 -28 -126q0 -10 8.5 -19t17.5 -9q13 0 31 13q34 24 114 120l34 -21q-72 -100 -145.5 -162t-137.5 -62q-34 0 -56 24t-22 68q0 57 30 153l39 124q-145 -224 -264 -310q-82 -59 -157 -59q-76 0 -132.5 67.5t-56.5 183.5
q0 149 95 318t251 275q123 85 226 85q54 0 93 -22t77 -73l75 264h-363l18 82h368q32 110 32 127q0 20 -17 33q-22 19 -53 19q-22 0 -77 -7v37l344 57zM737 712q0 64 -37 103t-94 39q-126 0 -262.5 -208t-136.5 -398q0 -75 33 -114.5t79 -39.5q104 0 261 225t157 393z" />
    <glyph glyph-name="macron" unicode="&#xaf;" 
d="M1256 1462h-1059v84h1059v-84z" />
    <glyph glyph-name="glyph257" horiz-adv-x="683" 
d="M599 805q43 0 74 -30.5t31 -74.5q0 -43 -31 -73.5t-74 -30.5q-44 0 -74.5 30.5t-30.5 73.5q0 44 30.5 74.5t74.5 30.5z" />
    <glyph glyph-name="Abreve" unicode="&#x102;" horiz-adv-x="1251" 
d="M1055 1387l-103 -1128q-8 -79 -8 -104q0 -40 15 -61q19 -29 51.5 -43t109.5 -14l-11 -37h-534l11 37h23q65 0 106 28q29 19 45 63q11 31 21 146l16 172h-388l-138 -187q-47 -63 -59 -90.5t-12 -51.5q0 -32 26 -55t86 -25l-11 -37h-401l11 37q74 3 130.5 49.5t168.5 198.5
l810 1102h35zM857 1054l-393 -535h341zM1382 1769h30q-67 -148 -163.5 -221t-184.5 -73q-94 0 -156 71.5t-65 222.5h32q15 -73 64.5 -111.5t132.5 -38.5q169 0 310 150z" />
    <glyph glyph-name="abreve" unicode="&#x103;" 
d="M961 905l-195 -678l-22 -91q-3 -13 -3 -22q0 -16 10 -28q8 -9 20 -9q13 0 34 16q39 29 104 120l34 -24q-69 -104 -142 -158.5t-135 -54.5q-43 0 -64.5 21.5t-21.5 62.5q0 49 22 129l21 75q-131 -171 -241 -239q-79 -49 -155 -49q-73 0 -126 60.5t-53 166.5
q0 159 95.5 335.5t242.5 282.5q115 84 217 84q61 0 101.5 -32t61.5 -106l36 114zM605 853q-64 0 -136 -60q-102 -85 -181.5 -252t-79.5 -302q0 -68 34 -107.5t78 -39.5q109 0 237 161q171 214 171 439q0 85 -33 123t-90 38zM954 1406h30q-67 -148 -163.5 -221t-184.5 -73
q-94 0 -156 71.5t-65 222.5h32q15 -73 64.5 -111.5t132.5 -38.5q169 0 310 150z" />
    <glyph glyph-name="Aogonek" unicode="&#x104;" horiz-adv-x="1251" 
d="M1055 1387l-103 -1128q-8 -79 -8 -104q0 -40 15 -61q19 -29 51.5 -43t109.5 -14l-11 -37h-534l11 37h23q65 0 106 28q29 19 45 63q11 31 21 146l16 172h-388l-138 -187q-47 -63 -59 -90.5t-12 -51.5q0 -32 26 -55t86 -25l-11 -37h-401l11 37q74 3 130.5 49.5t168.5 198.5
l810 1102h35zM857 1054l-393 -535h341zM967 60l-75 -62q-85 -70 -132 -134.5t-47 -123.5q0 -76 78 -76q43 0 94 26l7 -29q-116 -90 -204 -90q-74 0 -104 47q-15 23 -17 51v11q0 62 53 133q32 42 71 77q63 56 157 116l84 54h35z" />
    <glyph glyph-name="aogonek" unicode="&#x105;" 
d="M961 905l-195 -678l-22 -91q-3 -13 -3 -22q0 -16 10 -28q8 -9 20 -9q13 0 34 16q39 29 104 120l34 -24q-69 -104 -142 -158.5t-135 -54.5q-43 0 -64.5 21.5t-21.5 62.5q0 49 22 129l21 75q-131 -171 -241 -239q-79 -49 -155 -49q-73 0 -126 60.5t-53 166.5
q0 159 95.5 335.5t242.5 282.5q115 84 217 84q61 0 101.5 -32t61.5 -106l36 114zM605 853q-64 0 -136 -60q-102 -85 -181.5 -252t-79.5 -302q0 -68 34 -107.5t78 -39.5q109 0 237 161q171 214 171 439q0 85 -33 123t-90 38zM827 60l-75 -62q-85 -70 -132 -134.5t-47 -123.5
q0 -76 78 -76q43 0 94 26l7 -29q-116 -90 -204 -90q-74 0 -104 47q-15 23 -17 51v11q0 62 53 133q32 42 71 77q63 56 157 116l84 54h35z" />
    <glyph glyph-name="Dcaron" unicode="&#x10e;" horiz-adv-x="1479" 
d="M300 1319l12 37h433q275 0 407.5 -63t211.5 -198.5t79 -290.5q0 -133 -45.5 -258.5t-103 -201t-176.5 -166.5t-258 -134.5t-347 -43.5h-574l13 37q79 2 106 14q40 17 59 46q29 42 65 169l240 820q28 97 28 152q0 39 -26 60t-102 21h-22zM655 1281l-294 -1015
q-33 -114 -33 -141q0 -16 10.5 -31t28.5 -20q26 -9 84 -9q157 0 291.5 32.5t220.5 96.5q122 93 195 256t73 371q0 235 -112 349.5t-327 114.5q-53 0 -137 -4zM749 1452l-75 316h21l169 -202l319 202h27l-311 -316h-150z" />
    <glyph glyph-name="dcaron" unicode="&#x10f;" horiz-adv-x="1246" 
d="M1133 1017q76 33 123 86q35 40 35 76q0 19 -6 34q-3 8 -27 32t-28 33q-7 16 -7 39q0 43 30 74t69 31q41 0 72.5 -33t31.5 -82q0 -90 -70 -181t-203 -141zM1108 1422l-344 -1180q-28 -96 -28 -126q0 -10 8.5 -19t17.5 -9q13 0 31 13q34 24 114 120l34 -21
q-72 -100 -145.5 -162t-137.5 -62q-34 0 -56 24t-22 68q0 57 30 153l39 124q-145 -224 -264 -310q-82 -59 -157 -59q-76 0 -132.5 67.5t-56.5 183.5q0 149 95 318t251 275q123 85 226 85q54 0 93 -22t77 -73l98 348q30 106 30 125q0 21 -15 35q-21 17 -54 17q-23 0 -76 -7
v37zM737 712q0 64 -37 103t-94 39q-126 0 -262.5 -208t-136.5 -398q0 -75 33 -114.5t79 -39.5q104 0 261 225t157 393z" />
    <glyph glyph-name="Dcroat" unicode="&#x110;" horiz-adv-x="1479" 
d="M-48 0l10 33q71 6 82 8q28 8 56 28q21 16 36 43q21 39 54 153l121 412h-179l23 74h177l99 337q29 100 29 139q0 40 -30.5 64t-124.5 26l10 39h440q278 0 409.5 -63t212 -200.5t80.5 -288.5q0 -131 -46.5 -257.5t-103 -201t-156.5 -151.5q-134 -104 -275.5 -149
t-353.5 -45h-570zM665 1283l-155 -532h370l-20 -74h-371l-119 -412q-34 -118 -34 -142q0 -14 10.5 -29t27.5 -20q26 -8 85 -8q157 0 292.5 32t222.5 97q122 93 195.5 253.5t73.5 362.5q0 238 -115 356.5t-334 118.5q-53 0 -129 -3z" />
    <glyph glyph-name="Eogonek" unicode="&#x118;" horiz-adv-x="1251" 
d="M663 1283l-155 -536h127q136 0 197 41.5t105 153.5h37l-139 -492h-40q18 62 18 106q0 43 -17.5 69t-48 38.5t-128.5 12.5h-129l-131 -449q-19 -65 -19 -99q0 -26 25 -46q17 -14 85 -14h120q195 0 312.5 69t210.5 240h37l-128 -377h-1048l13 37q78 2 105 14q40 18 58 46
q27 41 64 172l238 818q28 99 28 151q0 38 -26.5 59.5t-103.5 21.5h-21l12 37h974l-84 -327h-37q7 46 7 77q0 53 -26 89q-34 46 -99 70q-48 18 -221 18h-172zM966 60l-75 -62q-85 -70 -132 -134.5t-47 -123.5q0 -76 78 -76q43 0 94 26l7 -29q-116 -90 -204 -90q-74 0 -104 47
q-15 23 -17 51v11q0 62 53 133q32 42 71 77q63 56 157 116l84 54h35z" />
    <glyph glyph-name="eogonek" unicode="&#x119;" horiz-adv-x="909" 
d="M244 377q-7 -50 -7 -83q0 -89 63 -151.5t153 -62.5q72 0 138.5 29.5t197.5 130.5l21 -29q-237 -235 -452 -235q-146 0 -220 92t-74 203q0 149 92 305t231 242.5t286 86.5q106 0 157 -43t51 -102q0 -83 -66 -159q-87 -99 -256 -160q-112 -41 -315 -64zM251 426
q148 17 241 58q123 55 184.5 131.5t61.5 145.5q0 42 -26.5 68t-75.5 26q-102 0 -216.5 -108.5t-168.5 -320.5zM577 60l-75 -62q-85 -70 -132 -134.5t-47 -123.5q0 -76 78 -76q43 0 94 26l7 -29q-116 -90 -204 -90q-74 0 -104 47q-15 23 -17 51v11q0 62 53 133q32 42 71 77
q63 56 157 116l84 54h35z" />
    <glyph glyph-name="Ecaron" unicode="&#x11a;" horiz-adv-x="1251" 
d="M663 1283l-155 -536h127q136 0 197 41.5t105 153.5h37l-139 -492h-40q18 62 18 106q0 43 -17.5 69t-48 38.5t-128.5 12.5h-129l-131 -449q-19 -65 -19 -99q0 -26 25 -46q17 -14 85 -14h120q195 0 312.5 69t210.5 240h37l-128 -377h-1048l13 37q78 2 105 14q40 18 58 46
q27 41 64 172l238 818q28 99 28 151q0 38 -26.5 59.5t-103.5 21.5h-21l12 37h974l-84 -327h-37q7 46 7 77q0 53 -26 89q-34 46 -99 70q-48 18 -221 18h-172zM743 1452l-75 316h21l169 -202l319 202h27l-311 -316h-150z" />
    <glyph glyph-name="ecaron" unicode="&#x11b;" horiz-adv-x="909" 
d="M244 377q-7 -50 -7 -83q0 -89 63 -151.5t153 -62.5q72 0 138.5 29.5t197.5 130.5l21 -29q-237 -235 -452 -235q-146 0 -220 92t-74 203q0 149 92 305t231 242.5t286 86.5q106 0 157 -43t51 -102q0 -83 -66 -159q-87 -99 -256 -160q-112 -41 -315 -64zM251 426
q148 17 241 58q123 55 184.5 131.5t61.5 145.5q0 42 -26.5 68t-75.5 26q-102 0 -216.5 -108.5t-168.5 -320.5zM579 1071l-75 316h21l169 -202l319 202h27l-311 -316h-150z" />
    <glyph glyph-name="Lacute" unicode="&#x139;" horiz-adv-x="1139" 
d="M939 0h-1005l14 37q80 2 107 13q42 18 62 47q31 46 66 166l239 825q30 102 30 150q0 38 -27.5 59t-103.5 21q-17 0 -27 1l12 37h553l-8 -37q-93 0 -132 -18t-65 -59q-18 -27 -59 -168l-235 -811q-27 -92 -27 -128q0 -24 27 -46q17 -15 77 -15h131q143 0 227 36
q62 27 114 81q28 30 99 149l26 45h37zM985 1802l-294 -343h-34l103 343h225z" />
    <glyph glyph-name="lacute" unicode="&#x13a;" horiz-adv-x="569" 
d="M609 1422l-342 -1190q-25 -89 -25 -109q0 -15 9.5 -25t23.5 -10q19 0 41 17q52 41 109 127l30 -31q-95 -134 -175 -187q-59 -38 -112 -38q-38 0 -63.5 26t-25.5 60q0 36 32 148l271 938q33 115 33 132q0 24 -19 39.5t-59 15.5q-23 0 -70 -7v37zM753 1802l-294 -343h-34
l103 343h225z" />
    <glyph glyph-name="Lcaron" unicode="&#x13d;" horiz-adv-x="1139" 
d="M938 982q76 33 123 86q35 40 35 76q0 19 -6 34q-3 8 -27 32t-28 33q-7 16 -7 39q0 43 30 74t69 31q41 0 72.5 -33t31.5 -83q0 -89 -70 -180t-203 -141zM939 0h-1005l14 37q80 2 107 13q42 18 62 47q31 46 66 166l239 825q30 102 30 150q0 38 -27.5 59t-103.5 21
q-17 0 -27 1l12 37h553l-8 -37q-93 0 -132 -18t-65 -59q-18 -27 -59 -168l-235 -811q-27 -92 -27 -128q0 -24 27 -46q17 -15 77 -15h131q143 0 227 36q62 27 114 81q28 30 99 149l26 45h37z" />
    <glyph glyph-name="lcaron" unicode="&#x13e;" horiz-adv-x="745" 
d="M633 1017q75 33 122 86q36 40 36 76q0 19 -6 34q-4 8 -28 32t-27 33q-8 16 -8 39q0 43 30 74t70 31q41 0 72.5 -33t31.5 -83q0 -89 -70 -180t-204 -141zM608 1422l-342 -1190q-25 -89 -25 -109q0 -15 9.5 -25t23.5 -10q19 0 41 17q52 41 109 127l30 -31
q-95 -134 -175 -187q-59 -38 -112 -38q-38 0 -63.5 26t-25.5 60q0 36 32 148l271 938q33 115 33 132q0 24 -19 39.5t-59 15.5q-23 0 -70 -7v37z" />
    <glyph glyph-name="Ldot" unicode="&#x13f;" horiz-adv-x="1139" 
d="M939 0h-1005l14 37q80 2 107 13q42 18 62 47q31 46 66 166l239 825q30 102 30 150q0 38 -27.5 59t-103.5 21q-17 0 -27 1l12 37h553l-8 -37q-93 0 -132 -18t-65 -59q-18 -27 -59 -168l-235 -811q-27 -92 -27 -128q0 -24 27 -46q17 -15 77 -15h131q143 0 227 36
q62 27 114 81q28 30 99 149l26 45h37zM822 806q43 0 74 -30.5t31 -74.5q0 -43 -31 -73.5t-74 -30.5q-44 0 -74.5 30.5t-30.5 73.5q0 44 30.5 74.5t74.5 30.5z" />
    <glyph glyph-name="ldot" unicode="&#x140;" horiz-adv-x="661" 
d="M609 1422l-342 -1190q-25 -89 -25 -109q0 -15 9.5 -25t23.5 -10q19 0 41 17q52 41 109 127l30 -31q-95 -134 -175 -187q-59 -38 -112 -38q-38 0 -63.5 26t-25.5 60q0 36 32 148l271 938q33 115 33 132q0 24 -19 39.5t-59 15.5q-23 0 -70 -7v37zM671 805q43 0 74 -30.5
t31 -74.5q0 -43 -31 -73.5t-74 -30.5q-44 0 -74.5 30.5t-30.5 73.5q0 44 30.5 74.5t74.5 30.5z" />
    <glyph glyph-name="Nacute" unicode="&#x143;" horiz-adv-x="1366" 
d="M587 1356l419 -1063l227 794q28 98 28 152q0 37 -26 58t-97 21q-12 0 -25 1l11 37h436l-12 -37q-68 1 -101 -14q-47 -21 -70 -54q-32 -47 -65 -164l-319 -1118h-36l-451 1144l-241 -845q-27 -96 -27 -147q0 -38 24.5 -57.5t116.5 -26.5l-10 -37h-426l14 37q80 2 107 14
q41 18 61 47q29 44 65 170l269 943q-39 60 -83.5 82.5t-138.5 25.5l11 37h339zM1203 1802l-294 -343h-34l103 343h225z" />
    <glyph glyph-name="nacute" unicode="&#x144;" 
d="M452 905l-133 -455q187 279 286.5 367t191.5 88q50 0 82.5 -33t32.5 -86q0 -60 -29 -160l-122 -421q-21 -73 -21 -89q0 -14 8 -23.5t17 -9.5q12 0 29 13q53 42 116 128l31 -19q-93 -133 -176 -190q-58 -39 -104 -39q-37 0 -59 22.5t-22 60.5q0 48 34 165l116 402
q22 75 22 117q0 20 -13 32.5t-32 12.5q-28 0 -67 -24q-74 -45 -154 -148.5t-169 -264.5q-47 -85 -78 -186l-50 -165h-150l182 626q32 113 32 136q0 22 -17.5 38.5t-43.5 16.5q-12 0 -42 -4l-38 -6l-6 36zM900 1402l-294 -343h-34l103 343h225z" />
    <glyph glyph-name="Ncaron" unicode="&#x147;" horiz-adv-x="1366" 
d="M587 1356l419 -1063l227 794q28 98 28 152q0 37 -26 58t-97 21q-12 0 -25 1l11 37h436l-12 -37q-68 1 -101 -14q-47 -21 -70 -54q-32 -47 -65 -164l-319 -1118h-36l-451 1144l-241 -845q-27 -96 -27 -147q0 -38 24.5 -57.5t116.5 -26.5l-10 -37h-426l14 37q80 2 107 14
q41 18 61 47q29 44 65 170l269 943q-39 60 -83.5 82.5t-138.5 25.5l11 37h339zM834 1452l-75 316h21l169 -202l319 202h27l-311 -316h-150z" />
    <glyph glyph-name="ncaron" unicode="&#x148;" 
d="M452 905l-133 -455q187 279 286.5 367t191.5 88q50 0 82.5 -33t32.5 -86q0 -60 -29 -160l-122 -421q-21 -73 -21 -89q0 -14 8 -23.5t17 -9.5q12 0 29 13q53 42 116 128l31 -19q-93 -133 -176 -190q-58 -39 -104 -39q-37 0 -59 22.5t-22 60.5q0 48 34 165l116 402
q22 75 22 117q0 20 -13 32.5t-32 12.5q-28 0 -67 -24q-74 -45 -154 -148.5t-169 -264.5q-47 -85 -78 -186l-50 -165h-150l182 626q32 113 32 136q0 22 -17.5 38.5t-43.5 16.5q-12 0 -42 -4l-38 -6l-6 36zM476 1071l-75 316h21l169 -202l319 202h27l-311 -316h-150z" />
    <glyph glyph-name="Ohungarumlaut" unicode="&#x150;" horiz-adv-x="1479" 
d="M1009 1387q135 0 239 -58.5t163 -173t59 -237.5q0 -218 -126.5 -457.5t-330.5 -365.5t-422 -126q-157 0 -262.5 69.5t-156 183.5t-50.5 221q0 190 91.5 375.5t218.5 310t271 191.5t306 67zM975 1323q-100 0 -195.5 -49.5t-189.5 -162t-169 -294.5q-92 -224 -92 -423
q0 -142 73 -251.5t224 -109.5q91 0 178.5 45t182.5 154q119 137 200 349.5t81 396.5q0 136 -73 240.5t-220 104.5zM1185 1802l-294 -343h-34l103 343h225zM1474 1802l-294 -343h-34l103 343h225z" />
    <glyph glyph-name="ohungarumlaut" unicode="&#x151;" 
d="M947 592q0 -150 -79.5 -297t-221.5 -233t-276 -86q-137 0 -223.5 87.5t-86.5 226.5q0 147 84.5 295t226 234t273.5 86t217.5 -87t85.5 -226zM781 661q0 93 -45.5 142.5t-117.5 49.5q-147 0 -270.5 -210.5t-123.5 -418.5q0 -95 48 -146.5t121 -51.5q141 0 264.5 209.5
t123.5 425.5zM821 1402l-294 -343h-34l103 343h225zM1110 1402l-294 -343h-34l103 343h225z" />
    <glyph glyph-name="Racute" unicode="&#x154;" horiz-adv-x="1251" 
d="M851 0l-217 659q-76 -1 -156 15l-117 -410q-23 -80 -23 -135q0 -42 29 -66q22 -18 120 -26l-9 -37h-525l11 37q74 3 100 15q41 17 60 46q32 47 67 166l237 819q24 82 24 127q0 46 -37.5 78t-107.5 31l12 37h442q222 0 320 -84t98 -221q0 -131 -100.5 -239.5
t-275.5 -137.5l132 -397q48 -146 96 -190t155 -50l-11 -37h-324zM495 731q64 -9 114 -9q172 0 272 95.5t100 237.5q0 111 -62.5 170t-187.5 59q-32 0 -76 -8zM1052 1802l-294 -343h-34l103 343h225z" />
    <glyph glyph-name="racute" unicode="&#x155;" horiz-adv-x="797" 
d="M107 849l345 56l-144 -486q175 299 318 418q81 68 132 68q33 0 52 -19.5t19 -56.5q0 -66 -34 -126q-24 -45 -69 -45q-23 0 -39.5 15t-20.5 46q-2 19 -9 25q-8 8 -19 8q-17 0 -32 -8q-26 -14 -79 -78q-83 -98 -180 -254q-42 -66 -72 -149q-42 -114 -48 -137l-32 -126h-153
l185 621q32 108 32 154q0 18 -15 30q-20 16 -53 16q-21 0 -77 -9zM805 1402l-294 -343h-34l103 343h225z" />
    <glyph glyph-name="Rcaron" unicode="&#x158;" horiz-adv-x="1251" 
d="M851 0l-217 659q-76 -1 -156 15l-117 -410q-23 -80 -23 -135q0 -42 29 -66q22 -18 120 -26l-9 -37h-525l11 37q74 3 100 15q41 17 60 46q32 47 67 166l237 819q24 82 24 127q0 46 -37.5 78t-107.5 31l12 37h442q222 0 320 -84t98 -221q0 -131 -100.5 -239.5
t-275.5 -137.5l132 -397q48 -146 96 -190t155 -50l-11 -37h-324zM495 731q64 -9 114 -9q172 0 272 95.5t100 237.5q0 111 -62.5 170t-187.5 59q-32 0 -76 -8zM664 1452l-75 316h21l169 -202l319 202h27l-311 -316h-150z" />
    <glyph glyph-name="rcaron" unicode="&#x159;" horiz-adv-x="797" 
d="M107 849l345 56l-144 -486q175 299 318 418q81 68 132 68q33 0 52 -19.5t19 -56.5q0 -66 -34 -126q-24 -45 -69 -45q-23 0 -39.5 15t-20.5 46q-2 19 -9 25q-8 8 -19 8q-17 0 -32 -8q-26 -14 -79 -78q-83 -98 -180 -254q-42 -66 -72 -149q-42 -114 -48 -137l-32 -126h-153
l185 621q32 108 32 154q0 18 -15 30q-20 16 -53 16q-21 0 -77 -9zM417 1071l-75 316h21l169 -202l319 202h27l-311 -316h-150z" />
    <glyph glyph-name="Sacute" unicode="&#x15a;" 
d="M14 -31l112 503h34q-7 -73 -7 -121q0 -137 87.5 -223t228.5 -86q131 0 199 80.5t68 185.5q0 68 -31 124q-47 83 -251 292q-99 100 -127 149q-46 81 -46 170q0 142 106 243t272 101q56 0 106 -11q31 -6 113 -40q58 -23 64 -25q14 -3 31 -3q29 0 50 15t49 64h38l-104 -450
h-34q4 60 4 97q0 121 -80 198t-211 77q-104 0 -169 -61t-65 -141q0 -70 41.5 -133.5t191 -207t193.5 -224t44 -171.5q0 -103 -54.5 -199.5t-156.5 -149.5t-223 -53q-60 0 -112 11t-166 54q-39 15 -65 15q-59 0 -92 -80h-38zM972 1802l-294 -343h-34l103 343h225z" />
    <glyph glyph-name="sacute" unicode="&#x15b;" horiz-adv-x="797" 
d="M743 905l-61 -307h-37q-5 134 -57 195t-129 61q-62 0 -98.5 -34t-36.5 -82q0 -33 14.5 -63t63.5 -84q130 -142 168 -214t38 -136q0 -104 -86.5 -184.5t-218.5 -80.5q-72 0 -166 34q-33 12 -51 12q-45 0 -68 -46h-37l61 324h37q6 -152 63 -215t156 -63q76 0 120.5 42.5
t44.5 104.5q0 40 -16 74q-28 60 -117.5 166t-115 159t-25.5 106q0 97 70.5 164t181.5 67q32 0 58 -5q14 -3 65.5 -22.5t68.5 -19.5q43 0 72 47h38zM772 1402l-294 -343h-34l103 343h225z" />
    <glyph glyph-name="Tcommaaccent" unicode="&#x162;" horiz-adv-x="1139" 
d="M300 1356h1030l-111 -360h-38q19 79 19 141q0 73 -45 110q-34 28 -175 28h-107l-268 -934q-51 -176 -51 -217q0 -38 32 -62.5t113 -24.5h46l-12 -37h-590l11 37h26q78 0 120 25q29 17 52.5 61.5t65.5 188.5l281 963h-81q-117 0 -188.5 -30t-115.5 -87t-72 -162h-37z
M480 30l-45 -76q59 -13 91 -52t32 -94q0 -67 -56 -115q-76 -63 -178 -63q-55 0 -141 22l12 33q50 -12 86 -12q64 0 99.5 30.5t35.5 73.5q0 37 -21 55q-28 23 -84 24l110 174h59z" />
    <glyph glyph-name="tcommaaccent" unicode="&#x163;" horiz-adv-x="569" 
d="M532 1153l-78 -272h157l-17 -63h-156l-172 -590q-28 -95 -28 -123q0 -17 8 -26t19 -9q25 0 66 35q24 20 107 123l33 -25q-92 -134 -174 -189q-56 -38 -113 -38q-44 0 -72 27.5t-28 70.5q0 54 32 165l167 579h-151l10 39q110 30 183 89.5t163 206.5h44zM230 30l-45 -76
q59 -13 91 -52t32 -94q0 -67 -56 -115q-76 -63 -178 -63q-55 0 -141 22l12 33q50 -12 86 -12q64 0 99.5 30.5t35.5 73.5q0 37 -21 55q-28 23 -84 24l110 174h59z" />
    <glyph glyph-name="Tcaron" unicode="&#x164;" horiz-adv-x="1139" 
d="M300 1356h1030l-111 -360h-38q19 79 19 141q0 73 -45 110q-34 28 -175 28h-107l-268 -934q-51 -176 -51 -217q0 -38 32 -62.5t113 -24.5h46l-12 -37h-590l11 37h26q78 0 120 25q29 17 52.5 61.5t65.5 188.5l281 963h-81q-117 0 -188.5 -30t-115.5 -87t-72 -162h-37z
M758 1452l-75 316h21l169 -202l319 202h27l-311 -316h-150z" />
    <glyph glyph-name="tcaron" unicode="&#x165;" horiz-adv-x="745" 
d="M633 1017q75 33 122 86q36 40 36 76q0 19 -6 34q-4 8 -28 32t-27 33q-7 16 -7 39q0 43 29.5 74t69.5 31q41 0 72.5 -33t31.5 -83q0 -89 -70 -180t-203 -141zM534 1153l-78 -272h157l-17 -63h-156l-172 -590q-28 -95 -28 -123q0 -17 8 -26t19 -9q25 0 66 35q24 20 107 123
l33 -25q-92 -134 -174 -189q-56 -38 -113 -38q-44 0 -72 27.5t-28 70.5q0 54 32 165l167 579h-151l10 39q110 30 183 89.5t163 206.5h44z" />
    <glyph glyph-name="Uring" unicode="&#x16e;" horiz-adv-x="1479" 
d="M268 1356h573l-11 -37q-88 -2 -125.5 -16.5t-64 -51.5t-55.5 -137l-139 -480q-37 -128 -44 -168q-12 -64 -12 -119q0 -121 90 -204.5t241 -83.5q99 0 177 37.5t133.5 105t101.5 183t81 233.5l120 414q45 155 45 202q0 33 -30.5 56.5t-123.5 28.5l11 37h431l-11 -37
q-76 0 -109.5 -14.5t-58.5 -52t-56 -145.5l-147 -503q-71 -245 -134 -361.5t-182.5 -195t-296.5 -78.5q-204 0 -329 115.5t-125 264.5q0 59 11 126q8 44 39 152l134 461q28 100 28 147q0 37 -28.5 57.5t-143.5 26.5zM1058 1809q79 0 134 -55t55 -134q0 -78 -55.5 -133.5
t-133.5 -55.5t-133.5 55.5t-55.5 133.5q0 79 55 134t134 55zM1059 1745q-52 0 -88.5 -36.5t-36.5 -88.5q0 -51 36.5 -87.5t88.5 -36.5q51 0 87.5 36.5t36.5 87.5q0 52 -36 88.5t-88 36.5z" />
    <glyph glyph-name="uring" unicode="&#x16f;" 
d="M964 881l-174 -596q-39 -133 -39 -168q0 -18 6.5 -26.5t17.5 -8.5q17 0 37.5 15.5t103.5 123.5l30 -23q-79 -125 -162 -184q-55 -38 -106 -38q-39 0 -61 22t-22 57q0 34 13 90q16 74 91 322q-170 -279 -284.5 -385t-212.5 -106q-46 0 -78 32t-32 81q0 75 44 230l87 309
q32 111 32 138q0 12 -8.5 20.5t-18.5 8.5q-21 0 -42 -15t-95 -111l-31 22q75 116 159 171q64 43 118 43q37 0 60.5 -23.5t23.5 -60.5q0 -54 -40 -193l-94 -323q-39 -132 -39 -167q0 -19 12.5 -30.5t33.5 -11.5q33 0 86 33t141.5 146.5t146 213t122.5 316.5l22 76h152z
M664 1421q79 0 134 -55t55 -134q0 -78 -55.5 -133.5t-133.5 -55.5t-133.5 55.5t-55.5 133.5q0 79 55 134t134 55zM665 1357q-52 0 -88.5 -36.5t-36.5 -88.5q0 -51 36.5 -87.5t88.5 -36.5q51 0 87.5 36.5t36.5 87.5q0 52 -36 88.5t-88 36.5z" />
    <glyph glyph-name="Uhungarumlaut" unicode="&#x170;" horiz-adv-x="1479" 
d="M268 1356h573l-11 -37q-88 -2 -125.5 -16.5t-64 -51.5t-55.5 -137l-139 -480q-37 -128 -44 -168q-12 -64 -12 -119q0 -121 90 -204.5t241 -83.5q99 0 177 37.5t133.5 105t101.5 183t81 233.5l120 414q45 155 45 202q0 33 -30.5 56.5t-123.5 28.5l11 37h431l-11 -37
q-76 0 -109.5 -14.5t-58.5 -52t-56 -145.5l-147 -503q-71 -245 -134 -361.5t-182.5 -195t-296.5 -78.5q-204 0 -329 115.5t-125 264.5q0 59 11 126q8 44 39 152l134 461q28 100 28 147q0 37 -28.5 57.5t-143.5 26.5zM1139 1802l-294 -343h-34l103 343h225zM1428 1802
l-294 -343h-34l103 343h225z" />
    <glyph glyph-name="uhungarumlaut" unicode="&#x171;" 
d="M964 881l-174 -596q-39 -133 -39 -168q0 -18 6.5 -26.5t17.5 -8.5q17 0 37.5 15.5t103.5 123.5l30 -23q-79 -125 -162 -184q-55 -38 -106 -38q-39 0 -61 22t-22 57q0 34 13 90q16 74 91 322q-170 -279 -284.5 -385t-212.5 -106q-46 0 -78 32t-32 81q0 75 44 230l87 309
q32 111 32 138q0 12 -8.5 20.5t-18.5 8.5q-21 0 -42 -15t-95 -111l-31 22q75 116 159 171q64 43 118 43q37 0 60.5 -23.5t23.5 -60.5q0 -54 -40 -193l-94 -323q-39 -132 -39 -167q0 -19 12.5 -30.5t33.5 -11.5q33 0 86 33t141.5 146.5t146 213t122.5 316.5l22 76h152z
M781 1402l-294 -343h-34l103 343h225zM1070 1402l-294 -343h-34l103 343h225z" />
    <glyph glyph-name="Zacute" unicode="&#x179;" horiz-adv-x="1139" 
d="M310 1356h941v-37l-1007 -1254h157q254 0 358.5 25t174 87t116.5 176h38l-117 -353h-975v29l1007 1254h-281q-184 0 -259 -16.5t-128.5 -67t-90.5 -152.5h-35zM1033 1802l-294 -343h-34l103 343h225z" />
    <glyph glyph-name="zacute" unicode="&#x17a;" horiz-adv-x="797" 
d="M172 881h635v-25l-692 -720h293q104 0 132 8t51.5 34t52.5 94h37l-87 -272h-651v29l692 720h-288q-91 0 -110 -5q-28 -6 -55.5 -31.5t-56.5 -84.5h-38zM781 1402l-294 -343h-34l103 343h225z" />
    <glyph glyph-name="Zdotaccent" unicode="&#x17b;" horiz-adv-x="1139" 
d="M310 1356h941v-37l-1007 -1254h157q254 0 358.5 25t174 87t116.5 176h38l-117 -353h-975v29l1007 1254h-281q-184 0 -259 -16.5t-128.5 -67t-90.5 -152.5h-35zM815 1711q44 0 75.5 -31.5t31.5 -75.5t-31.5 -75.5t-75.5 -31.5t-75.5 31.5t-31.5 75.5t31 75.5t76 31.5z" />
    <glyph glyph-name="zdotaccent" unicode="&#x17c;" horiz-adv-x="797" 
d="M172 881h635v-25l-692 -720h293q104 0 132 8t51.5 34t52.5 94h37l-87 -272h-651v29l692 720h-288q-91 0 -110 -5q-28 -6 -55.5 -31.5t-56.5 -84.5h-38zM539 1340q44 0 75.5 -31.5t31.5 -75.5t-31.5 -75.5t-75.5 -31.5t-75.5 31.5t-31.5 75.5t31 75.5t76 31.5z" />
    <glyph glyph-name="Gamma" unicode="&#x393;" horiz-adv-x="1165" 
d="M302 1356h1057l-105 -358h-37q10 84 10 118q0 105 -52 138t-189 33h-320l-301 -1024q-32 -106 -32 -134q0 -52 37.5 -69.5t140.5 -22.5l-10 -37h-575l12 37q130 1 168.5 46.5t78.5 179.5l239 799q34 113 34 164q0 55 -32.5 71.5t-135.5 21.5z" />
    <glyph glyph-name="Theta" unicode="&#x398;" horiz-adv-x="1479" 
d="M997 1387q242 0 359 -144t117 -328q0 -221 -128.5 -456.5t-327.5 -362.5t-421 -127q-237 0 -354 149t-117 325q0 213 123.5 437.5t330 365.5t418.5 141zM972 1323q-250 0 -445 -307.5t-195 -622.5q0 -145 74.5 -252.5t226.5 -107.5q132 0 284 125t253 372.5t101 443.5
q0 153 -79 251t-220 98zM613 901h37q-10 -37 -10 -56q0 -87 123 -87h101q101 0 142.5 28.5t72.5 114.5h37l-129 -448h-38q13 46 13 71q0 47 -36.5 67.5t-139.5 20.5h-66q-88 0 -132.5 -37.5t-68.5 -121.5h-37z" />
    <glyph glyph-name="Phi" unicode="&#x3a6;" horiz-adv-x="1559" 
d="M872 1121q17 61 17 93q0 41 -26 73t-126 32l10 37h606l-10 -37q-118 -2 -176 -38t-93 -161q232 -9 344.5 -115.5t112.5 -255.5q0 -207 -181.5 -357t-531.5 -157q-16 -65 -16 -97q0 -48 33 -74.5t137 -26.5l-11 -37h-611l11 37q109 0 167 39t87 159q-239 11 -348.5 117.5
t-109.5 252.5q0 202 175 353.5t540 162.5zM831 291q230 0 371 149t141 343q0 258 -285 281zM857 1064q-232 0 -372 -150t-140 -342q0 -258 285 -281z" />
    <glyph glyph-name="alpha" unicode="&#x3b1;" horiz-adv-x="1075" 
d="M873 881h148l-214 -489q15 -275 95 -275q28 0 53 29.5t30 73.5h41q-30 -244 -139 -244q-38 0 -70 40t-56 280q-184 -320 -414 -320q-129 0 -208 89t-79 238q0 145 73 281.5t182 228.5t241 92q94 0 147.5 -58t73.5 -180zM739 591q-5 73 -46 164t-121 91
q-117 0 -236.5 -224.5t-119.5 -395.5q0 -94 39.5 -149t108.5 -55q72 0 130 74.5t161 306.5z" />
    <glyph glyph-name="delta" unicode="&#x3b4;" horiz-adv-x="952" 
d="M657 854q-20 31 -92 114q-125 143 -125 245q0 98 65 153.5t180 55.5q102 0 182 -44t80 -104q0 -33 -23.5 -53.5t-55.5 -20.5q-48 0 -87 61q-50 78 -82 95t-67 17q-55 0 -90.5 -34.5t-35.5 -87.5q0 -43 28 -83.5t130 -129.5q113 -99 168.5 -196t55.5 -237
q0 -230 -171.5 -429.5t-378.5 -199.5q-138 0 -214 84.5t-76 221.5q0 195 151 352t458 220zM677 816q-167 -32 -267 -129.5t-151 -227t-51 -247.5q0 -188 146 -188q154 0 260 220t106 399q0 97 -43 173z" />
    <glyph glyph-name="epsilon" unicode="&#x3b5;" horiz-adv-x="807" 
d="M337 479q-182 44 -182 182q0 102 94.5 173t251.5 71q142 0 221 -58t79 -125q0 -34 -22 -57t-57 -23q-37 0 -58 25.5t-21 59.5q0 8 2 24q1 10 1 17q0 33 -28 62.5t-91 29.5q-95 0 -171 -67t-76 -172q0 -131 120 -131q26 0 69 9q33 7 48 7q48 0 48 -37q0 -32 -40 -32
q-12 0 -44 6q-42 7 -70 7q-100 0 -164.5 -78t-64.5 -183q0 -71 46.5 -119.5t129.5 -48.5q122 0 167 134q18 54 37 75t55 21q32 0 52 -22t20 -53q0 -72 -103 -136t-250 -64q-160 0 -237 68t-77 167q0 101 79.5 180t235.5 88z" />
    <glyph glyph-name="sigma" unicode="&#x3c3;" horiz-adv-x="1010" 
d="M1080 881l-40 -141h-325q141 -117 141 -262q0 -190 -147.5 -346t-353.5 -156q-144 0 -222.5 79.5t-78.5 214.5q0 128 60 267t164 218.5t217 102.5t351 23h234zM666 740q-252 -2 -355.5 -181t-103.5 -361q0 -176 152 -176q146 0 246.5 194t100.5 364q0 102 -40 160z" />
    <glyph glyph-name="tau" unicode="&#x3c4;" horiz-adv-x="733" 
d="M87 627h-36q27 83 71.5 143t104.5 85.5t170 25.5h401l-42 -141h-245l-124 -374q-36 -111 -36 -175q0 -94 88 -94q82 0 135 132h40q-80 -253 -251 -253q-64 0 -110 41.5t-46 134.5q0 81 74 298l98 290q-122 0 -185 -15.5t-107 -97.5z" />
    <glyph glyph-name="phi" unicode="&#x3c6;" horiz-adv-x="1133" 
d="M359 -438h-102l121 414q-145 1 -224.5 87.5t-79.5 237.5q0 230 143 414t357 190l-11 -36q-134 -22 -233.5 -219t-99.5 -386q0 -228 162 -235l135 447q51 173 92 257.5t101 128t128 43.5q96 0 149 -81.5t53 -215.5q0 -242 -149.5 -432.5t-424.5 -200.5zM494 30
q200 13 309 207.5t109 397.5q0 173 -88 173q-53 0 -95 -64t-109 -291z" />
    <glyph glyph-name="underscoredbl" unicode="&#x2017;" 
d="M1042 -284h-1059v84h1059v-84zM1042 -442h-1059v84h1059v-84z" />
    <glyph glyph-name="exclamdbl" unicode="&#x203c;" horiz-adv-x="1173" 
d="M323 330h-38q49 181 69 276.5t45 249.5q50 318 61 371q20 90 65 137q21 23 58 23q28 0 47.5 -22t19.5 -59q0 -41 -19 -104q-41 -138 -162 -453q-58 -149 -64 -166zM256 172q43 0 73 -30t30 -73q0 -42 -30 -72t-73 -30q-42 0 -72 30t-30 72q0 43 30 73t72 30zM814 330h-38
q49 181 69 276.5t45 249.5q50 318 61 371q20 90 65 137q21 23 58 23q28 0 47.5 -22t19.5 -59q0 -41 -19 -104q-41 -138 -162 -453q-58 -149 -64 -166zM747 172q43 0 73 -30t30 -73q0 -42 -30 -72t-73 -30q-42 0 -72 30t-30 72q0 43 30 73t72 30z" />
    <glyph glyph-name="uni207F" unicode="&#x207f;" horiz-adv-x="645" 
d="M289 1117l-81 -259q123 172 185.5 215.5t109.5 43.5q32 0 52.5 -21.5t20.5 -57.5t-18 -93l-77 -249q-13 -43 -13 -51q0 -6 10 -13q12 0 24 9q28 19 72 74l25 -15q-62 -85 -115 -120q-38 -25 -68 -25q-24 0 -38 15t-14 41q0 30 21 98l73 237q14 46 14 68q0 9 -6.5 14.5
t-20.5 5.5q-61 0 -158.5 -125.5t-133.5 -235.5l-34 -104h-99l117 377q21 68 21 78q0 11 -9.5 19t-27.5 8q-8 0 -51 -6l-6 35z" />
    <glyph glyph-name="peseta" unicode="&#x20a7;" horiz-adv-x="2027" 
d="M417 1356h385q236 0 343 -87.5t107 -222.5q0 -34 -11 -80q78 56 155 176h48l-72 -246h132l-20 -64h-130l-198 -682q-13 -46 -13 -56q0 -12 6 -19t14 -7q17 0 41 19q58 45 130 149l12 63h37q4 -146 59.5 -212.5t125.5 -66.5q68 0 116.5 47.5t48.5 110.5q0 39 -21 90
t-89 153q-119 179 -119 279q0 88 68 153.5t161 65.5q62 0 123 -27q42 -19 55 -19q31 0 59 47h35l-56 -308h-33q0 137 -48.5 200t-111.5 63q-49 0 -83.5 -33.5t-34.5 -76.5q0 -35 13 -68.5t60 -105.5q105 -158 137 -236q24 -60 24 -117q0 -103 -85 -182.5t-209 -79.5
q-56 0 -109 20t-69 20q-34 0 -78 -40h-37l34 174q-106 -117 -155 -145.5t-87 -28.5q-34 0 -60.5 27.5t-26.5 63.5q0 29 20 98l193 667h-29q-66 -86 -179.5 -140t-231.5 -54q-70 0 -180 32l-119 -416q-20 -67 -20 -104q0 -49 35 -80t124 -34l-12 -36h-544l10 36q63 7 98.5 28
t59.5 62.5t55 148.5l241 836q25 86 25 114q0 36 -31.5 63.5t-97.5 30.5zM602 737q73 -23 116 -23q132 0 229.5 100.5t97.5 246.5q0 108 -58.5 167t-166.5 59q-26 0 -60 -6z" />
    <glyph glyph-name="arrowleft" unicode="&#x2190;" horiz-adv-x="2048" 
d="M492 876h76q-59 -118 -88.5 -165.5t-106.5 -143.5h1595v-101h-1595q104 -108 198 -309h-78q-129 144 -222 218.5t-192 122.5v45q87 37 184 113t229 220z" />
    <glyph glyph-name="arrowup" unicode="&#x2191;" 
d="M153 926q145 133 220.5 230t112.5 183h46q47 -99 121.5 -192t218.5 -222v-77q-201 94 -309 197v-1474h-101v1474q-96 -76 -143.5 -106t-165.5 -89v76z" />
    <glyph glyph-name="arrowright" unicode="&#x2192;" horiz-adv-x="2048" 
d="M1555 876q133 -145 230 -220.5t183 -112.5v-45q-99 -48 -192 -122.5t-222 -218.5h-77q94 201 197 309h-1595v101h1595q-76 97 -106 144t-89 165h76z" />
    <glyph glyph-name="arrowdown" unicode="&#x2193;" 
d="M153 -16v76q119 -59 166 -89t143 -106v1474h101v-1474q108 103 309 197v-77q-144 -129 -218.5 -222t-121.5 -192h-46q-37 86 -112.5 183t-220.5 230z" />
    <glyph glyph-name="arrowboth" unicode="&#x2194;" horiz-adv-x="2048" 
d="M1968 540v-45q-94 -43 -185 -116t-221 -221h-80q69 172 194 311h-1305q125 -139 194 -311h-80q-130 148 -221 221t-185 116v45q94 44 185 116.5t221 221.5h80q-69 -172 -194 -311h1305q-125 139 -194 311h80q130 -149 221 -221.5t185 -116.5z" />
    <glyph glyph-name="arrowupdn" unicode="&#x2195;" 
d="M489 1463h45q44 -94 116.5 -185.5t220.5 -221.5v-80q-171 69 -311 195v-1306q140 126 311 194v-79q-148 -130 -220.5 -221.5t-116.5 -185.5h-45q-43 94 -116 185.5t-221 221.5v79q171 -68 311 -194v1306q-140 -126 -311 -195v80q148 130 221 221.5t116 185.5z" />
    <glyph glyph-name="arrowupdnbse" unicode="&#x21a8;" 
d="M489 1463h45q44 -94 116.5 -185.5t220.5 -221.5v-80q-171 69 -311 195v-1306q140 126 311 194v-79q-148 -130 -220.5 -221.5t-116.5 -185.5h-45q-43 94 -116 185.5t-221 221.5v79q171 -68 311 -194v1306q-140 -126 -311 -195v80q148 130 221 221.5t116 185.5zM154 -522
h717v-98h-717v98z" />
    <glyph glyph-name="orthogonal" unicode="&#x221f;" horiz-adv-x="2005" 
d="M362 1279h100v-1179h1181v-100h-1281v1279z" />
    <glyph glyph-name="intersection" unicode="&#x2229;" horiz-adv-x="1479" 
d="M302 0h-110v560q0 248 6 314q12 119 44 195t102 149.5t173.5 119.5t219.5 46q112 0 214 -44t177 -119.5t107 -160.5t42 -212q4 -50 4 -288v-560h-109v566q0 218 -6 281q-11 111 -36.5 176.5t-80 123t-139 94.5t-174.5 37q-74 0 -143.5 -25.5t-119 -63t-80 -77
t-44.5 -74.5q-25 -60 -36 -146.5t-11 -325.5v-566z" />
    <glyph glyph-name="equivalence" unicode="&#x2261;" horiz-adv-x="1382" 
d="M198 1046h1079v-82h-1079v82zM198 720h1079v-82h-1079v82zM198 393h1079v-81h-1079v81z" />
    <glyph glyph-name="house" unicode="&#x2302;" horiz-adv-x="1229" 
d="M153 0v634l461 519l462 -519v-634h-923zM234 81h761v519l-381 427l-380 -427v-519z" />
    <glyph glyph-name="revlogicalnot" unicode="&#x2310;" horiz-adv-x="1382" 
d="M1232 878v-81h-1001v-325h-79v406h1080z" />
    <glyph glyph-name="integraltp" unicode="&#x2320;" horiz-adv-x="1237" 
d="M691 -515h-145v1811q0 219 89.5 330t202.5 111q67 0 102.5 -32.5t35.5 -76.5q0 -40 -25.5 -66t-62.5 -26q-30 0 -57 15q-18 10 -41.5 46.5t-46.5 36.5q-17 0 -31 -12q-10 -8 -14 -27q-7 -33 -7 -139v-1971z" />
    <glyph glyph-name="integralbt" unicode="&#x2321;" horiz-adv-x="1237" 
d="M546 1737h145v-1811q0 -219 -89.5 -330t-202.5 -111q-67 0 -102.5 32.5t-35.5 76.5q0 40 25.5 66t61.5 26q31 0 59 -16q18 -10 41 -46t46 -36q17 0 31 11q10 8 14 29q7 32 7 138v1971z" />
    <glyph glyph-name="SF100000" unicode="&#x2500;" horiz-adv-x="1451" 
d="M1473 534h-1496v175h1496v-175z" />
    <glyph glyph-name="SF110000" unicode="&#x2502;" horiz-adv-x="1261" 
d="M448 -621v2485h175v-2485h-175z" />
    <glyph glyph-name="SF010000" unicode="&#x250c;" horiz-adv-x="1451" 
d="M1474 709v-175h-661v-1155h-175v1330h836z" />
    <glyph glyph-name="SF030000" unicode="&#x2510;" horiz-adv-x="1451" 
d="M637 534h-660v175h835v-1330h-175v1155z" />
    <glyph glyph-name="SF020000" unicode="&#x2514;" horiz-adv-x="1451" 
d="M638 534v1330h175v-1155h661v-175h-836z" />
    <glyph glyph-name="SF040000" unicode="&#x2518;" horiz-adv-x="1451" 
d="M812 534h-835v175h660v1155h175v-1330z" />
    <glyph glyph-name="SF080000" unicode="&#x251c;" horiz-adv-x="1451" 
d="M638 -621v2485h175v-1155h661v-175h-661v-1155h-175z" />
    <glyph glyph-name="SF090000" unicode="&#x2524;" horiz-adv-x="1451" 
d="M637 -621v1155h-660v175h660v1155h175v-2485h-175z" />
    <glyph glyph-name="SF060000" unicode="&#x252c;" horiz-adv-x="1451" 
d="M637 534h-660v175h1496v-175h-661v-1155h-175v1155z" />
    <glyph glyph-name="SF070000" unicode="&#x2534;" horiz-adv-x="1451" 
d="M1473 534h-1496v175h660v1155h175v-1155h661v-175z" />
    <glyph glyph-name="SF050000" unicode="&#x253c;" horiz-adv-x="1451" 
d="M637 534h-660v175h660v1155h175v-1155h661v-175h-661v-1155h-175v1155z" />
    <glyph glyph-name="SF430000" unicode="&#x2550;" horiz-adv-x="1451" 
d="M1473 724h-1496v175h1496v-175zM1473 344h-1496v175h1496v-175z" />
    <glyph glyph-name="SF240000" unicode="&#x2551;" horiz-adv-x="1451" 
d="M828 -621v2485h175v-2485h-175zM448 -621v2485h175v-2485h-175z" />
    <glyph glyph-name="SF510000" unicode="&#x2552;" horiz-adv-x="1451" 
d="M638 -621v1520h836v-175h-661v-205h661v-175h-661v-965h-175z" />
    <glyph glyph-name="SF520000" unicode="&#x2553;" horiz-adv-x="1451" 
d="M448 -621v1330h1026v-175h-471v-1155h-175v1140h-205v-1140h-175z" />
    <glyph glyph-name="SF390000" unicode="&#x2554;" horiz-adv-x="1451" 
d="M623 -621h-175v1520h1025v-175h-850v-1345zM1003 344v-965h-175v1140h645v-175h-470z" />
    <glyph glyph-name="SF220000" unicode="&#x2555;" horiz-adv-x="1451" 
d="M637 344h-660v175h660v205h-660v175h835v-1520h-175v965z" />
    <glyph glyph-name="SF210000" unicode="&#x2556;" horiz-adv-x="1451" 
d="M447 -621l1 1155h-471v175h1025v-1330h-175v1155h-205v-1155h-175z" />
    <glyph glyph-name="SF250000" unicode="&#x2557;" horiz-adv-x="1451" 
d="M827 -621v1345h-850v175h1025v-1520h-175zM447 344h-470v175h645v-1140h-175v965z" />
    <glyph glyph-name="SF500000" unicode="&#x2558;" horiz-adv-x="1451" 
d="M638 344v1520h175v-965h661v-175h-661v-205h661v-175h-836z" />
    <glyph glyph-name="SF490000" unicode="&#x2559;" horiz-adv-x="1451" 
d="M1474 534h-1026v1330h175v-1155h205v1155h175v-1155h471v-175z" />
    <glyph glyph-name="SF380000" unicode="&#x255a;" horiz-adv-x="1451" 
d="M623 1864v-1345h850v-175h-1025v1520h175zM1003 899h470v-175h-645v1140h175v-965z" />
    <glyph glyph-name="SF280000" unicode="&#x255b;" horiz-adv-x="1451" 
d="M812 344h-835v175h660v205h-660v175h660v965h175v-1520z" />
    <glyph glyph-name="SF270000" unicode="&#x255c;" horiz-adv-x="1451" 
d="M1002 534h-1025v175h470v1155h175v-1155h205v1155h175v-1330z" />
    <glyph glyph-name="SF260000" unicode="&#x255d;" horiz-adv-x="1451" 
d="M827 1864h175v-1520h-1025v175h850v1345zM447 899v965h175v-1140h-645v175h470z" />
    <glyph glyph-name="SF360000" unicode="&#x255e;" horiz-adv-x="1451" 
d="M638 -621v2485h175v-965h661v-175h-661v-205h661v-175h-661v-965h-175z" />
    <glyph glyph-name="SF370000" unicode="&#x255f;" horiz-adv-x="1451" 
d="M828 -621v2485h175v-1155h471v-175h-471v-1155h-175zM448 -621v2485h175v-2485h-175z" />
    <glyph glyph-name="SF420000" unicode="&#x2560;" horiz-adv-x="1451" 
d="M448 -621v2485h175v-2485h-175zM828 724v1140h175v-965h471v-175h-646zM828 -621v1140h646v-175h-471v-965h-175z" />
    <glyph glyph-name="SF190000" unicode="&#x2561;" horiz-adv-x="1451" 
d="M637 344h-660v175h661l-1 205h-660v175h660v965h175v-2485h-175v965z" />
    <glyph glyph-name="SF200000" unicode="&#x2562;" horiz-adv-x="1451" 
d="M447 -621l1 1155h-471v175h470v1155h175v-2485h-175zM827 -621v2485h175v-2485h-175z" />
    <glyph glyph-name="SF230000" unicode="&#x2563;" horiz-adv-x="1451" 
d="M827 -621v2485h175v-2485h-175zM622 1864v-1140h-645v175h470v965h175zM447 344h-470v175h645v-1140h-175v965z" />
    <glyph glyph-name="SF470000" unicode="&#x2564;" horiz-adv-x="1451" 
d="M1473 724h-1496v175h1496v-175zM637 344h-660v175h1496v-175h-661v-965h-175v965z" />
    <glyph glyph-name="SF480000" unicode="&#x2565;" horiz-adv-x="1451" 
d="M447 -621l1 1155h-471v175h1496v-175h-471v-1155h-175v1140h-205v-1140h-175z" />
    <glyph glyph-name="SF410000" unicode="&#x2566;" horiz-adv-x="1451" 
d="M1473 724h-1496v175h1496v-175zM447 344h-470v175h645v-1140h-175v965zM827 -621v1140h646v-175h-471v-965h-175z" />
    <glyph glyph-name="SF450000" unicode="&#x2567;" horiz-adv-x="1451" 
d="M1473 724h-1496v175h660v965h175v-965h661v-175zM1473 344h-1496v175h1496v-175z" />
    <glyph glyph-name="SF460000" unicode="&#x2568;" horiz-adv-x="1451" 
d="M1473 534h-1496v175h470v1155h175v-1155h205v1155h175v-1155h471v-175z" />
    <glyph glyph-name="SF400000" unicode="&#x2569;" horiz-adv-x="1451" 
d="M622 724h-645v175h470v965h175v-1140zM1473 724h-646v1140h175v-965h471v-175zM1473 344h-1496v175h1496v-175z" />
    <glyph glyph-name="SF540000" unicode="&#x256a;" horiz-adv-x="1451" 
d="M637 344h-660v175h660v205h-660v175h660v965h175v-965h661v-175h-661v-205h661v-175h-661v-965h-175v965z" />
    <glyph glyph-name="SF530000" unicode="&#x256b;" horiz-adv-x="1451" 
d="M447 -621l1 1155h-471v175h470v1155h175v-1155h205v1155h175v-1155h471v-175h-471v-1155h-175v1155h-205v-1155h-175z" />
    <glyph glyph-name="SF440000" unicode="&#x256c;" horiz-adv-x="1451" 
d="M1003 899h470v-175h-645v1140h175v-965zM447 899v965h175v-1140h-645v175h470zM447 344h-470v175h645v-1140h-175v965zM1003 344v-965h-175v1140h645v-175h-470z" />
    <glyph glyph-name="upblock" unicode="&#x2580;" horiz-adv-x="1451" 
d="M1473 621h-1496v1243h1496v-1243z" />
    <glyph glyph-name="dnblock" unicode="&#x2584;" horiz-adv-x="1451" 
d="M1473 -621h-1496v1242h1496v-1242z" />
    <glyph glyph-name="block" unicode="&#x2588;" horiz-adv-x="1451" 
d="M-23 -621v2485h1496v-2485h-1496z" />
    <glyph glyph-name="lfblock" unicode="&#x258c;" horiz-adv-x="1451" 
d="M-23 -621v2485h748v-2485h-748z" />
    <glyph glyph-name="rtblock" unicode="&#x2590;" horiz-adv-x="1451" 
d="M726 -621v2485h748v-2485h-748z" />
    <glyph glyph-name="ltshade" unicode="&#x2591;" horiz-adv-x="1451" 
d="M102 1864h125v-125h-125v125zM600 1864h125v-125h-125v125zM1099 1864h125v-125h-125v125zM351 1615h125v-125h-125v125zM850 1615h124v-125h-124v125zM1348 1615h125v-125h-125v125zM1099 1366h125v-125h-125v125zM600 1366h125v-125h-125v125zM102 1366h125v-125h-125
v125zM1348 1116h125v-124h-125v124zM850 1116h124v-124h-124v124zM351 1116h125v-124h-125v124zM102 867h125v-125h-125v125zM600 867h125v-125h-125v125zM1099 867h125v-125h-125v125zM1348 618h125v-125h-125v125zM850 618h124v-125h-124v125zM351 618h125v-125h-125v125z
M102 369h125v-125h-125v125zM600 369h125v-125h-125v125zM1099 369h125v-125h-125v125zM351 119h125v-124h-125v124zM850 119h124v-124h-124v124zM1348 119h125v-124h-125v124zM1099 -130h125v-125h-125v125zM600 -130h125v-125h-125v125zM102 -130h125v-125h-125v125z
M351 -379h125v-125h-125v125zM850 -379h124v-125h-124v125zM1348 -379h125v-125h-125v125z" />
    <glyph glyph-name="shade" unicode="&#x2592;" horiz-adv-x="1451" 
d="M103 1864h124v-125h-124v125zM352 1864h124v-125h-124v125zM601 1864h125v-125h-125v125zM850 1864h125v-125h-125v125zM1100 1864h124v-125h-124v125zM1349 1864h124v-125h-124v125zM-22 1615h125v-125h-125v125zM227 1615h125v-125h-125v125zM476 1615h125v-125h-125
v125zM726 1615h124v-125h-124v125zM975 1615h125v-125h-125v125zM1224 1615h125v-125h-125v125zM103 1366h124v-125h-124v125zM352 1366h124v-125h-124v125zM601 1366h125v-125h-125v125zM850 1366h125v-125h-125v125zM1100 1366h124v-125h-124v125zM1349 1366h124v-125
h-124v125zM227 1116h125v-124h-125v124zM476 1116h125v-124h-125v124zM726 1116h124v-124h-124v124zM975 1116h125v-124h-125v124zM1224 1116h125v-124h-125v124zM-22 1116h125v-124h-125v124zM103 867h124v-125h-124v125zM352 867h124v-125h-124v125zM601 867h125v-125
h-125v125zM850 867h125v-125h-125v125zM1100 867h124v-125h-124v125zM1349 867h124v-125h-124v125zM-22 618h125v-125h-125v125zM476 618h125v-125h-125v125zM726 618h124v-125h-124v125zM975 618h125v-125h-125v125zM1224 618h125v-125h-125v125zM227 618h125v-125h-125
v125zM1349 369h124v-125h-124v125zM1100 369h124v-125h-124v125zM850 369h125v-125h-125v125zM601 369h125v-125h-125v125zM352 369h124v-125h-124v125zM103 369h124v-125h-124v125zM-22 119h125v-124h-125v124zM227 119h125v-124h-125v124zM476 119h125v-124h-125v124z
M726 119h124v-124h-124v124zM975 119h125v-124h-125v124zM1224 119h125v-124h-125v124zM1349 -130h124v-125h-124v125zM1100 -130h124v-125h-124v125zM850 -130h125v-125h-125v125zM601 -130h125v-125h-125v125zM352 -130h124v-125h-124v125zM103 -130h124v-125h-124v125z
M-22 -379h125v-125h-125v125zM227 -379h125v-125h-125v125zM476 -379h125v-125h-125v125zM726 -379h124v-125h-124v125zM975 -379h125v-125h-125v125zM1224 -379h125v-125h-125v125z" />
    <glyph glyph-name="dkshade" unicode="&#x2593;" horiz-adv-x="1493" 
d="M1494 1490v-374h-124v-124h124v-374h-124v-125h124v-374h-124v-124h124v-374h-124v-125h124v-124h-1495v373h125v125h-125v374h125v125h-125v373h125v125h-125v374h125v125h-125v373h125v125h124v-125h125v125h124v-125h125v125h125v-125h124v125h125v-125h125v125h124
v-125h125v125h124v-249h-124v-125h124zM124 1615v-125h124v125h-124zM373 1615v-125h124v125h-124zM622 1615v-125h125v125h-125zM871 1615v-125h125v125h-125zM1121 1615v-125h124v125h-124zM1370 1366h-125v-125h125v125zM1121 1366h-125v-125h125v125zM871 1366h-124
v-125h124v125zM622 1366h-125v-125h125v125zM373 1366h-125v-125h125v125zM124 1116v-124h124v124h-124zM373 1116v-124h124v124h-124zM622 1116v-124h125v124h-125zM871 1116v-124h125v124h-125zM1121 1116v-124h124v124h-124zM373 867h-125v-125h125v125zM497 867v-125
h125v125h-125zM747 867v-125h124v125h-124zM996 867v-125h125v125h-125zM1245 867v-125h125v125h-125zM124 618v-125h124v125h-124zM622 618v-125h125v125h-125zM497 493v125h-124v-125h124zM871 618v-125h125v125h-125zM1121 618v-125h124v125h-124zM1370 244v125h-125
v-125h125zM1121 244v125h-125v-125h125zM871 244v125h-124v-125h124zM622 244v125h-125v-125h125zM373 244v125h-125v-125h125zM124 119v-124h124v124h-124zM373 119v-124h124v124h-124zM622 119v-124h125v124h-125zM871 119v-124h125v124h-125zM1121 119v-124h124v124h-124
zM1370 -255v125h-125v-125h125zM1121 -255v125h-125v-125h125zM871 -255v125h-124v-125h124zM622 -255v125h-125v-125h125zM373 -255v125h-125v-125h125zM124 -379v-125h124v125h-124zM373 -379v-125h124v125h-124zM622 -379v-125h125v125h-125zM871 -379v-125h125v125h-125
zM1121 -379v-125h124v125h-124z" />
    <glyph glyph-name="filledbox" unicode="&#x25a0;" horiz-adv-x="1237" 
d="M146 944h944v-944h-944v944z" />
    <glyph glyph-name="filledrect" unicode="&#x25ac;" horiz-adv-x="2048" 
d="M0 703h2047v-386h-2047v386z" />
    <glyph glyph-name="triagup" unicode="&#x25b2;" horiz-adv-x="2027" 
d="M304 0l710 1419l710 -1419h-1420z" />
    <glyph glyph-name="triagrt" unicode="&#x25ba;" horiz-adv-x="2027" 
d="M288 1417l1451 -724l-1451 -724v1448z" />
    <glyph glyph-name="triagdn" unicode="&#x25bc;" horiz-adv-x="2027" 
d="M1724 1388l-710 -1419l-710 1419h1420z" />
    <glyph glyph-name="triaglf" unicode="&#x25c4;" horiz-adv-x="2027" 
d="M1739 1417v-1448l-1451 724z" />
    <glyph glyph-name="circle" unicode="&#x25cb;" horiz-adv-x="1237" 
d="M619 1018q110 0 216 -57t165 -163t59 -220q0 -183 -129 -312t-311 -129q-183 0 -312 129t-129 312q0 115 59 220.5t165 162.5t217 57zM619 942q-93 0 -180 -47t-136 -135t-49 -182q0 -151 107 -258t258 -107t257.5 107t106.5 258q0 94 -49 182t-136 135t-179 47z" />
    <glyph glyph-name="invbullet" unicode="&#x25d8;" horiz-adv-x="1237" 
d="M128 0v980h980v-980h-980zM618 692q-84 0 -143 -59t-59 -143q0 -83 59.5 -142.5t142.5 -59.5q84 0 143 59.5t59 142.5q0 84 -59 143t-143 59z" />
    <glyph glyph-name="invcircle" unicode="&#x25d9;" horiz-adv-x="1237" 
d="M42 0v1155h1155v-1155h-1155zM619 1018q-111 0 -216.5 -57t-164.5 -163t-59 -221q0 -182 129 -311t311 -129q183 0 312 129t129 311q0 115 -59 221t-164.5 163t-217.5 57zM620 942q91 0 178.5 -47t136.5 -134.5t49 -183.5q0 -151 -106.5 -257.5t-257.5 -106.5
q-152 0 -258.5 106.5t-106.5 257.5q0 96 49 183.5t136.5 134.5t179.5 47z" />
    <glyph glyph-name="smileface" unicode="&#x263a;" horiz-adv-x="2091" 
d="M1046 1156q160 0 313 -82.5t239 -236t86 -319.5q0 -165 -84.5 -316.5t-236.5 -236t-317 -84.5q-166 0 -317.5 84.5t-236 236t-84.5 316.5q0 166 85.5 319.5t238.5 236t314 82.5zM1046 1063q-137 0 -267.5 -70.5t-204 -201.5t-73.5 -273q0 -141 72 -270.5t202 -201.5
t271 -72t271 72t202 201.5t72 270.5q0 142 -73.5 273t-204 201.5t-267.5 70.5zM801 731q34 0 57.5 -23.5t23.5 -57.5q0 -33 -23.5 -57t-57.5 -24q-33 0 -57 24t-24 57q0 34 24 57.5t57 23.5zM1290 731q34 0 57.5 -23.5t23.5 -57.5q0 -33 -23.5 -57t-57.5 -24q-33 0 -57 24
t-24 57q0 34 23.5 57.5t57.5 23.5zM752 313l62 36q79 -144 232 -144t231 144l63 -36q-50 -95 -123.5 -145t-170.5 -50q-98 0 -171 50t-123 145z" />
    <glyph glyph-name="invsmileface" unicode="&#x263b;" horiz-adv-x="2155" 
d="M1078 1156q160 0 313 -82.5t239 -236t86 -319.5q0 -165 -84.5 -316.5t-236.5 -236t-317 -84.5q-166 0 -317.5 84.5t-236 236t-84.5 316.5q0 166 85.5 319.5t238.5 236t314 82.5zM833 731q-33 0 -57 -23.5t-24 -57.5q0 -33 24 -57t57 -24q34 0 57.5 24t23.5 57
q0 34 -23.5 57.5t-57.5 23.5zM1322 731q-34 0 -57.5 -23.5t-23.5 -57.5q0 -33 24 -57t57 -24q34 0 57.5 24t23.5 57q0 34 -23.5 57.5t-57.5 23.5zM784 313q50 -95 123 -145t171 -50q97 0 170.5 50t123.5 145l-63 36q-78 -144 -231 -144t-232 144z" />
    <glyph glyph-name="sun" unicode="&#x263c;" horiz-adv-x="1877" 
d="M902 1621h76v-337q102 -7 181.5 -38.5t167.5 -102.5l290 284l52 -53l-286 -286q73 -95 103 -169q38 -96 40 -189h336v-69h-335q-19 -189 -143 -347l285 -291l-57 -50l-283 282q-98 -72 -171 -100.5t-180 -40.5v-337h-76v337q-112 15 -188.5 46t-156.5 92l-294 -278
l-51 51l285 286q-66 84 -100 166t-45 188h-336v69h336q9 106 42 185.5t102 163.5l-284 287l48 57l292 -282q101 70 179.5 100.5t170.5 38.5v337zM937 1211q-129 0 -252 -66t-191.5 -189.5t-68.5 -256.5t67.5 -255t189.5 -190t255 -68t255 68t190 190t68 255t-69 256.5
t-192 189.5t-252 66z" />
    <glyph glyph-name="female" unicode="&#x2640;" horiz-adv-x="1536" 
d="M796 461v-402h459v-59h-459v-439h-59v439h-460v59h460v402q-103 0 -225.5 65.5t-195 191t-72.5 265.5q0 136 69.5 261t193.5 194t261 69q136 0 260.5 -69.5t193.5 -194t69 -260.5q0 -209 -143.5 -360.5t-351.5 -161.5zM767 1451q-118 0 -230.5 -60.5t-175.5 -173.5
t-63 -235q0 -195 137.5 -332.5t331.5 -137.5q195 0 332.5 137.5t137.5 332.5q0 122 -63 235t-175.5 173.5t-231.5 60.5z" />
    <glyph glyph-name="male" unicode="&#x2642;" horiz-adv-x="1536" 
d="M1216 1620l36 -16l163 -666l-57 -15l-142 581l-358 -768q148 -75 224 -202t76 -272q0 -136 -69 -260.5t-193.5 -194t-261.5 -69.5q-136 0 -260.5 69.5t-193.5 194t-69 260.5q0 217 153.5 370t372.5 153q78 0 166 -27l360 771l-537 -265l-24 53zM634 731
q-118 0 -230.5 -60.5t-175.5 -173.5t-63 -235q0 -195 137.5 -332.5t331.5 -137.5q195 0 332.5 137.5t137.5 332.5q0 122 -63 235t-175.5 173.5t-231.5 60.5z" />
    <glyph glyph-name="spade" unicode="&#x2660;" horiz-adv-x="1088" 
d="M545 1231q26 -108 80 -193t192.5 -210.5t175.5 -193t37 -136.5q0 -95 -64 -159t-154 -64q-156 0 -255 190q1 -147 38.5 -233.5t119.5 -136t219 -58.5l7 -37h-792l7 37q184 0 285.5 107.5t97.5 320.5q-45 -95 -111.5 -142.5t-149.5 -47.5q-90 0 -155 65t-65 154
q0 74 32 133q45 83 157 174q140 115 217 229q56 83 81 201z" />
    <glyph glyph-name="club" unicode="&#x2663;" horiz-adv-x="1344" 
d="M1098 0h-848l8 34q165 35 219 69q81 51 132.5 151t51.5 210q0 16 -1 47q-61 -124 -148.5 -181t-178.5 -57q-116 0 -197 81t-81 199q0 116 74 195.5t168 79.5q60 0 163 -51q-42 69 -54.5 105t-12.5 77q0 115 79 193.5t198 78.5q117 0 197.5 -78.5t80.5 -189.5
q0 -88 -69 -186q84 40 101 45q27 8 61 8q100 0 173.5 -78.5t73.5 -194.5q0 -120 -80.5 -201.5t-193.5 -81.5q-62 0 -128.5 30.5t-116.5 81.5q-35 37 -87 125q4 -159 48.5 -251.5t136.5 -153.5q62 -41 223 -72z" />
    <glyph glyph-name="heart" unicode="&#x2665;" horiz-adv-x="1216" 
d="M610 -24q-31 118 -88.5 221.5t-222.5 321.5q-121 160 -149 203q-46 70 -66.5 128.5t-20.5 118.5q0 111 74 186t184 75q109 0 190 -78q61 -58 99 -173q36 127 113 189.5t170 62.5q109 0 184.5 -74t75.5 -176q0 -91 -43.5 -188t-170.5 -257q-164 -207 -231 -326t-98 -234z
" />
    <glyph glyph-name="diamond" unicode="&#x2666;" horiz-adv-x="1045" 
d="M521 1231q89 -151 229 -337.5t232 -289.5q-74 -78 -242 -302q-136 -182 -218 -326q-43 81 -178 269q-93 129 -280 359q101 115 260 328q118 158 197 299z" />
    <glyph glyph-name="musicalnote" unicode="&#x266a;" 
d="M486 1363h38q172 0 227 -14q79 -20 139 -77q45 -42 71 -118.5t26 -178.5v-103h-99v43q0 68 -28.5 115.5t-84.5 72.5q-73 32 -162 32h-28v-835q0 -121 -32 -188.5t-110 -108t-170 -40.5q-109 0 -172.5 61.5t-63.5 161.5q0 105 76 176.5t199 71.5q78 0 174 -46v975z" />
    <glyph glyph-name="musicalnotedbl" unicode="&#x266b;" horiz-adv-x="1536" 
d="M534 1271l796 248v-1108q0 -124 -31.5 -187t-107 -104t-170.5 -41q-109 0 -174 62.5t-65 161.5q0 100 77 172.5t199 72.5q40 0 70.5 -7t99.5 -36v724l-595 -185v-836q0 -121 -32 -188.5t-110 -107.5t-170 -40q-109 0 -172.5 61.5t-63.5 160.5q0 105 76 176.5t199 71.5
q78 0 174 -46v975z" />
    <glyph glyph-name="IJ" unicode="&#x132;" horiz-adv-x="1536" 
d="M505 37l-11 -37h-558l14 37q84 2 111 14q44 17 65 47q33 47 68 168l236 818q30 102 30 154q0 26 -13 44t-39.5 27.5t-103.5 9.5l12 37h524l-11 -37q-64 1 -95 -14q-45 -20 -68.5 -57t-60.5 -164l-235 -818q-32 -113 -32 -144q0 -25 12.5 -42.5t40 -27t114.5 -15.5z
M1161 1356h534l-11 -37q-103 -1 -145 -37.5t-88 -195.5l-172 -597q-49 -169 -99 -258q-67 -120 -180.5 -191t-254.5 -71q-116 0 -178 53.5t-62 129.5q0 60 37.5 100t89.5 40q45 0 73.5 -27t28.5 -66q0 -32 -26 -62q-33 -38 -33 -52q0 -21 19 -38t51 -17q46 0 95.5 22t93 67
t76 108t66.5 172l49 173l149 514q33 113 33 141q0 38 -30 62t-127 30z" />
    <glyph glyph-name="ij" unicode="&#x133;" horiz-adv-x="1025" 
d="M445 1302q42 0 71 -29t29 -71q0 -41 -29.5 -70.5t-70.5 -29.5t-70.5 29.5t-29.5 70.5q0 42 29 71t71 29zM458 905l-198 -701q-20 -71 -20 -85q0 -16 9.5 -26t22.5 -10q15 0 36 16q57 45 115 128l35 -23q-68 -104 -160 -175q-68 -53 -130 -53q-41 0 -67 24.5t-26 61.5
t25 123l130 448q32 110 32 138q0 22 -15.5 36t-42.5 14q-22 0 -91 -11v39zM921 1301q42 0 71.5 -29.5t29.5 -71.5t-29.5 -71.5t-71.5 -29.5t-71.5 29.5t-29.5 71.5t29.5 71.5t71.5 29.5zM937 905l-259 -895q-69 -240 -189.5 -346t-260.5 -106q-63 0 -95.5 29t-32.5 69
q0 31 24.5 54.5t56.5 23.5q29 0 51 -19q18 -15 18 -34q0 -26 -25 -45q-14 -11 -14 -18l2 -5q3 -4 9 -6t18 -2q81 0 138.5 51.5t102.5 205.5l224 768q33 113 33 125q0 24 -21.5 43t-54.5 19q-13 0 -30 -3l-38 -6v35z" />
    <glyph glyph-name="napostrophe" unicode="&#x149;" horiz-adv-x="1182" 
d="M141 982q75 33 122 86q36 40 36 76q0 19 -6 34q-4 8 -28 32t-27 33q-7 16 -7 39q0 43 29.5 74t69.5 31q41 0 72.5 -33t31.5 -83q0 -89 -70 -180t-203 -141zM612 905l-133 -455q187 279 286.5 367t191.5 88q50 0 82.5 -33t32.5 -86q0 -60 -29 -160l-122 -421
q-21 -73 -21 -89q0 -14 8 -23.5t17 -9.5q12 0 29 13q53 42 116 128l31 -19q-93 -133 -176 -190q-58 -39 -104 -39q-37 0 -59 22.5t-22 60.5q0 48 34 165l116 402q22 75 22 117q0 20 -13 32.5t-32 12.5q-28 0 -67 -24q-74 -45 -154 -148.5t-169 -264.5q-47 -85 -78 -186
l-50 -165h-150l182 626q32 113 32 136q0 22 -17.5 38.5t-43.5 16.5q-12 0 -42 -4l-38 -6l-6 36z" />
    <glyph glyph-name="minute" unicode="&#x2032;" horiz-adv-x="448" 
d="M269 803l31 296q13 126 26 170q19 63 53.5 90.5t77.5 27.5q36 0 57 -20t21 -51q0 -23 -10 -51q-13 -38 -74 -167l-138 -295h-44z" />
    <glyph glyph-name="second" unicode="&#x2033;" horiz-adv-x="853" 
d="M661 803l29 292q12 114 16 134q14 64 34 98q16 25 46.5 42.5t65.5 17.5t54.5 -19t19.5 -50q0 -26 -14 -66q-38 -105 -63 -156l-141 -293h-47zM294 803l31 296q13 127 26 171q19 62 54.5 89.5t77.5 27.5q35 0 55.5 -20t20.5 -50q0 -24 -10 -53q-14 -42 -73 -166l-139 -295
h-43z" />
    <glyph glyph-name="afii61248" unicode="&#x2105;" horiz-adv-x="1707" 
d="M728 852q-157 -189 -338 -189q-111 0 -173 63t-62 167q0 190 148.5 342t318.5 152q85 0 127 -35.5t42 -86.5q0 -48 -29 -83q-22 -26 -54 -26q-24 0 -40 16t-16 39q0 27 32 59q23 23 23 39q0 17 -14 27q-23 17 -65 17q-75 0 -150 -54t-133.5 -163.5t-58.5 -229.5
q0 -80 45 -126t123 -46q60 0 119 30t133 108zM1637 1387l-1434 -1441h-95l1434 1441h95zM1647 462q0 -117 -62.5 -232t-172.5 -182t-215 -67q-107 0 -174.5 68.5t-67.5 176.5q0 114 66 229.5t176 182.5t213 67t170 -67.5t67 -175.5zM1517 515q0 72 -35 111t-92 39
q-114 0 -210.5 -164.5t-96.5 -326.5q0 -73 37.5 -113.5t94.5 -40.5q110 0 206 163.5t96 331.5z" />
    <glyph glyph-name="afii61289" unicode="&#x2113;" horiz-adv-x="853" 
d="M30 477l228 156l94 328q63 217 148 321.5t214 104.5q76 0 123.5 -46t47.5 -113q0 -94 -68 -184q-114 -151 -393 -338l-119 -407q-21 -71 -21 -110q0 -65 34.5 -101.5t86.5 -36.5q59 0 131 55t142 186l37 -13q-82 -162 -178 -232.5t-186 -70.5t-148 59t-58 161
q0 58 22 129l72 242l-187 -125zM444 768q229 167 306 268t77 181q0 43 -25.5 68t-71.5 25q-54 0 -98 -43q-59 -58 -100 -197z" />
    <glyph glyph-name="H22073" unicode="&#x25a1;" horiz-adv-x="1237" 
d="M146 944h944v-944h-944v944zM222 868v-792h792v792h-792z" />
    <glyph glyph-name="H18543" unicode="&#x25aa;" horiz-adv-x="726" 
d="M594 909v-464h-463v463z" />
    <glyph glyph-name="H18551" unicode="&#x25ab;" horiz-adv-x="726" 
d="M594 909v-464h-463v463zM518 833l-311 -1v-311h311v312z" />
    <glyph glyph-name="H18533" unicode="&#x25cf;" horiz-adv-x="1237" 
d="M619 1018q110 0 216 -57t165 -163t59 -220q0 -183 -129 -312t-311 -129q-183 0 -312 129t-129 312q0 115 59 220.5t165 162.5t217 57z" />
    <glyph glyph-name="openbullet" unicode="&#x25e6;" horiz-adv-x="726" 
d="M363 928q104 0 177.5 -73.5t73.5 -177.5t-73.5 -177.5t-177.5 -73.5t-177.5 73.5t-73.5 177.5t73 177.5t178 73.5zM363 852q-73 0 -124 -51.5t-51 -123.5q0 -73 51.5 -124t123.5 -51t123.5 51t51.5 124q0 72 -51 123.5t-124 51.5z" />
    <glyph glyph-name="Amacron" unicode="&#x100;" horiz-adv-x="1251" 
d="M1055 1387l-103 -1128q-8 -79 -8 -104q0 -40 15 -61q19 -29 51.5 -43t109.5 -14l-11 -37h-534l11 37h23q65 0 106 28q29 19 45 63q11 31 21 146l16 172h-388l-138 -187q-47 -63 -59 -90.5t-12 -51.5q0 -32 26 -55t86 -25l-11 -37h-401l11 37q74 3 130.5 49.5t168.5 198.5
l810 1102h35zM857 1054l-393 -535h341zM779 1636h600l-35 -128h-601z" />
    <glyph glyph-name="amacron" unicode="&#x101;" 
d="M961 905l-195 -678l-22 -91q-3 -13 -3 -22q0 -16 10 -28q8 -9 20 -9q13 0 34 16q39 29 104 120l34 -24q-69 -104 -142 -158.5t-135 -54.5q-43 0 -64.5 21.5t-21.5 62.5q0 49 22 129l21 75q-131 -171 -241 -239q-79 -49 -155 -49q-73 0 -126 60.5t-53 166.5
q0 159 95.5 335.5t242.5 282.5q115 84 217 84q61 0 101.5 -32t61.5 -106l36 114zM605 853q-64 0 -136 -60q-102 -85 -181.5 -252t-79.5 -302q0 -68 34 -107.5t78 -39.5q109 0 237 161q171 214 171 439q0 85 -33 123t-90 38zM428 1257h600l-35 -128h-601z" />
    <glyph glyph-name="Ccircumflex" unicode="&#x108;" horiz-adv-x="1366" 
d="M1441 1387l-101 -439h-36l-4 110q-5 60 -23 107t-54 81.5t-91 54t-122 19.5q-179 0 -313 -98q-171 -125 -268 -353q-80 -188 -80 -381q0 -197 115 -314.5t299 -117.5q139 0 247.5 62t201.5 191h47q-110 -175 -244 -257.5t-321 -82.5q-166 0 -294 69.5t-195 195.5t-67 271
q0 222 119 432t326.5 330t418.5 120q99 0 222 -47q54 -20 78 -20t42 10t60 57h37zM1181 1768l75 -316h-21l-169 202l-319 -202h-27l311 316h150z" />
    <glyph glyph-name="ccircumflex" unicode="&#x109;" horiz-adv-x="909" 
d="M791 218q-104 -125 -210 -183.5t-224 -58.5q-142 0 -221.5 80t-79.5 215q0 153 85.5 301t230 240.5t283.5 92.5q109 0 163 -45.5t54 -111.5q0 -62 -38 -106q-28 -34 -69 -34q-31 0 -51.5 20t-20.5 50q0 19 7.5 35t31 38.5t28.5 32.5t5 21q0 21 -19 35q-29 20 -82 20
q-98 0 -194 -69t-164 -196q-82 -154 -82 -308q0 -102 58 -161.5t158 -59.5q77 0 152.5 38.5t169.5 139.5zM828 1387l75 -316h-21l-169 202l-319 -202h-27l311 316h150z" />
    <glyph glyph-name="Cdotaccent" unicode="&#x10a;" horiz-adv-x="1366" 
d="M1441 1387l-101 -439h-36l-4 110q-5 60 -23 107t-54 81.5t-91 54t-122 19.5q-179 0 -313 -98q-171 -125 -268 -353q-80 -188 -80 -381q0 -197 115 -314.5t299 -117.5q139 0 247.5 62t201.5 191h47q-110 -175 -244 -257.5t-321 -82.5q-166 0 -294 69.5t-195 195.5t-67 271
q0 222 119 432t326.5 330t418.5 120q99 0 222 -47q54 -20 78 -20t42 10t60 57h37zM1038 1721q44 0 75.5 -31.5t31.5 -75.5t-31.5 -75.5t-75.5 -31.5t-75.5 31.5t-31.5 75.5t31 75.5t76 31.5z" />
    <glyph glyph-name="cdotaccent" unicode="&#x10b;" horiz-adv-x="909" 
d="M791 218q-104 -125 -210 -183.5t-224 -58.5q-142 0 -221.5 80t-79.5 215q0 153 85.5 301t230 240.5t283.5 92.5q109 0 163 -45.5t54 -111.5q0 -62 -38 -106q-28 -34 -69 -34q-31 0 -51.5 20t-20.5 50q0 19 7.5 35t31 38.5t28.5 32.5t5 21q0 21 -19 35q-29 20 -82 20
q-98 0 -194 -69t-164 -196q-82 -154 -82 -308q0 -102 58 -161.5t158 -59.5q77 0 152.5 38.5t169.5 139.5zM670 1246q44 0 75.5 -31.5t31.5 -75.5t-31.5 -75.5t-75.5 -31.5t-75.5 31.5t-31.5 75.5t31 75.5t76 31.5z" />
    <glyph glyph-name="Emacron" unicode="&#x112;" horiz-adv-x="1251" 
d="M663 1283l-155 -536h127q136 0 197 41.5t105 153.5h37l-139 -492h-40q18 62 18 106q0 43 -17.5 69t-48 38.5t-128.5 12.5h-129l-131 -449q-19 -65 -19 -99q0 -26 25 -46q17 -14 85 -14h120q195 0 312.5 69t210.5 240h37l-128 -377h-1048l13 37q78 2 105 14q40 18 58 46
q27 41 64 172l238 818q28 99 28 151q0 38 -26.5 59.5t-103.5 21.5h-21l12 37h974l-84 -327h-37q7 46 7 77q0 53 -26 89q-34 46 -99 70q-48 18 -221 18h-172zM630 1636h600l-35 -128h-601z" />
    <glyph glyph-name="emacron" unicode="&#x113;" horiz-adv-x="909" 
d="M244 377q-7 -50 -7 -83q0 -89 63 -151.5t153 -62.5q72 0 138.5 29.5t197.5 130.5l21 -29q-237 -235 -452 -235q-146 0 -220 92t-74 203q0 149 92 305t231 242.5t286 86.5q106 0 157 -43t51 -102q0 -83 -66 -159q-87 -99 -256 -160q-112 -41 -315 -64zM251 426
q148 17 241 58q123 55 184.5 131.5t61.5 145.5q0 42 -26.5 68t-75.5 26q-102 0 -216.5 -108.5t-168.5 -320.5zM369 1257h600l-35 -128h-601z" />
    <glyph glyph-name="Ebreve" unicode="&#x114;" horiz-adv-x="1251" 
d="M663 1283l-155 -536h127q136 0 197 41.5t105 153.5h37l-139 -492h-40q18 62 18 106q0 43 -17.5 69t-48 38.5t-128.5 12.5h-129l-131 -449q-19 -65 -19 -99q0 -26 25 -46q17 -14 85 -14h120q195 0 312.5 69t210.5 240h37l-128 -377h-1048l13 37q78 2 105 14q40 18 58 46
q27 41 64 172l238 818q28 99 28 151q0 38 -26.5 59.5t-103.5 21.5h-21l12 37h974l-84 -327h-37q7 46 7 77q0 53 -26 89q-34 46 -99 70q-48 18 -221 18h-172zM1213 1787h30q-67 -148 -163.5 -221t-184.5 -73q-94 0 -156 71.5t-65 222.5h32q15 -73 64.5 -111.5t132.5 -38.5
q169 0 310 150z" />
    <glyph glyph-name="ebreve" unicode="&#x115;" horiz-adv-x="909" 
d="M244 377q-7 -50 -7 -83q0 -89 63 -151.5t153 -62.5q72 0 138.5 29.5t197.5 130.5l21 -29q-237 -235 -452 -235q-146 0 -220 92t-74 203q0 149 92 305t231 242.5t286 86.5q106 0 157 -43t51 -102q0 -83 -66 -159q-87 -99 -256 -160q-112 -41 -315 -64zM251 426
q148 17 241 58q123 55 184.5 131.5t61.5 145.5q0 42 -26.5 68t-75.5 26q-102 0 -216.5 -108.5t-168.5 -320.5zM975 1406h30q-67 -148 -163.5 -221t-184.5 -73q-94 0 -156 71.5t-65 222.5h32q15 -73 64.5 -111.5t132.5 -38.5q169 0 310 150z" />
    <glyph glyph-name="Edotaccent" unicode="&#x116;" horiz-adv-x="1251" 
d="M663 1283l-155 -536h127q136 0 197 41.5t105 153.5h37l-139 -492h-40q18 62 18 106q0 43 -17.5 69t-48 38.5t-128.5 12.5h-129l-131 -449q-19 -65 -19 -99q0 -26 25 -46q17 -14 85 -14h120q195 0 312.5 69t210.5 240h37l-128 -377h-1048l13 37q78 2 105 14q40 18 58 46
q27 41 64 172l238 818q28 99 28 151q0 38 -26.5 59.5t-103.5 21.5h-21l12 37h974l-84 -327h-37q7 46 7 77q0 53 -26 89q-34 46 -99 70q-48 18 -221 18h-172zM876 1721q44 0 75.5 -31.5t31.5 -75.5t-31.5 -75.5t-75.5 -31.5t-75.5 31.5t-31.5 75.5t31 75.5t76 31.5z" />
    <glyph glyph-name="edotaccent" unicode="&#x117;" horiz-adv-x="909" 
d="M244 377q-7 -50 -7 -83q0 -89 63 -151.5t153 -62.5q72 0 138.5 29.5t197.5 130.5l21 -29q-237 -235 -452 -235q-146 0 -220 92t-74 203q0 149 92 305t231 242.5t286 86.5q106 0 157 -43t51 -102q0 -83 -66 -159q-87 -99 -256 -160q-112 -41 -315 -64zM251 426
q148 17 241 58q123 55 184.5 131.5t61.5 145.5q0 42 -26.5 68t-75.5 26q-102 0 -216.5 -108.5t-168.5 -320.5zM670 1340q44 0 75.5 -31.5t31.5 -75.5t-31.5 -75.5t-75.5 -31.5t-75.5 31.5t-31.5 75.5t31 75.5t76 31.5z" />
    <glyph glyph-name="Gcircumflex" unicode="&#x11c;" horiz-adv-x="1479" 
d="M1474 1387l-101 -427h-38q9 75 9 111q0 98 -86.5 173.5t-238.5 75.5q-311 0 -508 -292q-157 -231 -157 -517q0 -190 97 -328t299 -138q50 0 94.5 9t134.5 40l99 349q21 72 21 115q0 36 -26 55q-42 29 -136 29h-28l11 39h564l-10 -39q-77 -1 -112 -18t-60 -58
q-17 -27 -55 -157l-100 -343q-137 -59 -221 -78.5t-177 -19.5q-214 0 -347 80.5t-196.5 213t-63.5 263.5q0 176 74 334.5t184.5 268t240.5 172.5q179 87 376 87q145 0 262 -48q47 -19 69 -19q25 0 42.5 11.5t45.5 55.5h38zM1223 1768l75 -316h-21l-169 202l-319 -202h-27
l311 316h150z" />
    <glyph glyph-name="gcircumflex" unicode="&#x11d;" 
d="M1067 843l-29 -104h-167q19 -54 19 -101q0 -132 -112 -235q-113 -103 -310 -114q-106 -32 -159 -76q-20 -16 -20 -33q0 -20 18 -36.5t91 -33.5l194 -45q161 -38 213 -90q51 -53 51 -122q0 -82 -60.5 -150t-177 -106.5t-257.5 -38.5q-124 0 -226 29.5t-146 79.5t-44 103
q0 43 28.5 89.5t71.5 76.5q27 19 153 90q-46 36 -46 79q0 40 40.5 85t171.5 99q-110 21 -174.5 92t-64.5 158q0 142 124.5 254t331.5 112q75 0 123 -15t93 -47h270zM720 686q0 80 -44.5 126t-116.5 46q-113 0 -186.5 -113.5t-73.5 -236.5q0 -77 47 -126t114 -49
q53 0 102.5 29t83.5 80t54 130t20 114zM241 0q-81 -37 -122.5 -95t-41.5 -114q0 -66 60 -109q86 -62 252 -62q143 0 244.5 48.5t101.5 125.5q0 39 -37.5 74t-145.5 57q-59 12 -311 75zM863 1387l75 -316h-21l-169 202l-319 -202h-27l311 316h150z" />
    <glyph glyph-name="Gdotaccent" unicode="&#x120;" horiz-adv-x="1479" 
d="M1474 1387l-101 -427h-38q9 75 9 111q0 98 -86.5 173.5t-238.5 75.5q-311 0 -508 -292q-157 -231 -157 -517q0 -190 97 -328t299 -138q50 0 94.5 9t134.5 40l99 349q21 72 21 115q0 36 -26 55q-42 29 -136 29h-28l11 39h564l-10 -39q-77 -1 -112 -18t-60 -58
q-17 -27 -55 -157l-100 -343q-137 -59 -221 -78.5t-177 -19.5q-214 0 -347 80.5t-196.5 213t-63.5 263.5q0 176 74 334.5t184.5 268t240.5 172.5q179 87 376 87q145 0 262 -48q47 -19 69 -19q25 0 42.5 11.5t45.5 55.5h38zM1054 1721q44 0 75.5 -31.5t31.5 -75.5
t-31.5 -75.5t-75.5 -31.5t-75.5 31.5t-31.5 75.5t31 75.5t76 31.5z" />
    <glyph glyph-name="gdotaccent" unicode="&#x121;" 
d="M1067 843l-29 -104h-167q19 -54 19 -101q0 -132 -112 -235q-113 -103 -310 -114q-106 -32 -159 -76q-20 -16 -20 -33q0 -20 18 -36.5t91 -33.5l194 -45q161 -38 213 -90q51 -53 51 -122q0 -82 -60.5 -150t-177 -106.5t-257.5 -38.5q-124 0 -226 29.5t-146 79.5t-44 103
q0 43 28.5 89.5t71.5 76.5q27 19 153 90q-46 36 -46 79q0 40 40.5 85t171.5 99q-110 21 -174.5 92t-64.5 158q0 142 124.5 254t331.5 112q75 0 123 -15t93 -47h270zM720 686q0 80 -44.5 126t-116.5 46q-113 0 -186.5 -113.5t-73.5 -236.5q0 -77 47 -126t114 -49
q53 0 102.5 29t83.5 80t54 130t20 114zM241 0q-81 -37 -122.5 -95t-41.5 -114q0 -66 60 -109q86 -62 252 -62q143 0 244.5 48.5t101.5 125.5q0 39 -37.5 74t-145.5 57q-59 12 -311 75zM657 1340q44 0 75.5 -31.5t31.5 -75.5t-31.5 -75.5t-75.5 -31.5t-75.5 31.5t-31.5 75.5
t31 75.5t76 31.5z" />
    <glyph glyph-name="Gcommaaccent" unicode="&#x122;" horiz-adv-x="1479" 
d="M1474 1387l-101 -427h-38q9 75 9 111q0 98 -86.5 173.5t-238.5 75.5q-311 0 -508 -292q-157 -231 -157 -517q0 -190 97 -328t299 -138q50 0 94.5 9t134.5 40l99 349q21 72 21 115q0 36 -26 55q-42 29 -136 29h-28l11 39h564l-10 -39q-77 -1 -112 -18t-60 -58
q-17 -27 -55 -157l-100 -343q-137 -59 -221 -78.5t-177 -19.5q-214 0 -347 80.5t-196.5 213t-63.5 263.5q0 176 74 334.5t184.5 268t240.5 172.5q179 87 376 87q145 0 262 -48q47 -19 69 -19q25 0 42.5 11.5t45.5 55.5h38zM496 -417q62 22 110.5 60.5t48.5 75.5q0 26 -34 54
q-35 30 -35 60q0 36 29.5 62.5t69.5 26.5q42 0 73.5 -28.5t31.5 -68.5q0 -76 -72 -152.5t-202 -116.5z" />
    <glyph glyph-name="gcommaaccent" unicode="&#x123;" 
d="M1067 843l-29 -104h-167q19 -54 19 -101q0 -132 -112 -235q-113 -103 -310 -114q-106 -32 -159 -76q-20 -16 -20 -33q0 -20 18 -36.5t91 -33.5l194 -45q161 -38 213 -90q51 -53 51 -122q0 -82 -60.5 -150t-177 -106.5t-257.5 -38.5q-124 0 -226 29.5t-146 79.5t-44 103
q0 43 28.5 89.5t71.5 76.5q27 19 153 90q-46 36 -46 79q0 40 40.5 85t171.5 99q-110 21 -174.5 92t-64.5 158q0 142 124.5 254t331.5 112q75 0 123 -15t93 -47h270zM720 686q0 80 -44.5 126t-116.5 46q-113 0 -186.5 -113.5t-73.5 -236.5q0 -77 47 -126t114 -49
q53 0 102.5 29t83.5 80t54 130t20 114zM241 0q-81 -37 -122.5 -95t-41.5 -114q0 -66 60 -109q86 -62 252 -62q143 0 244.5 48.5t101.5 125.5q0 39 -37.5 74t-145.5 57q-59 12 -311 75zM746 1447q-62 -22 -110.5 -60.5t-48.5 -75.5q0 -26 34 -54q35 -30 35 -60
q0 -36 -29.5 -62.5t-69.5 -26.5q-42 0 -73.5 28.5t-31.5 68.5q0 76 72 152.5t202 116.5z" />
    <glyph glyph-name="Hcircumflex" unicode="&#x124;" horiz-adv-x="1479" 
d="M505 751h626l99 335q28 98 28 152q0 26 -12.5 44.5t-38.5 27.5t-102 9l10 37h546l-12 -37q-69 1 -103 -14q-48 -21 -71 -54q-33 -47 -67 -165l-239 -819q-30 -102 -30 -146q0 -38 26.5 -57.5t126.5 -26.5l-11 -37h-528l14 37q78 2 104 14q40 18 58 46q26 39 64 170
l122 415h-629l-123 -415q-29 -100 -29 -146q0 -38 26 -57.5t126 -26.5l-8 -37h-532l13 37q79 2 105 14q40 18 59 46q26 41 64 170l240 819q29 100 29 152q0 26 -12.5 44.5t-39 27.5t-103.5 9l12 37h535l-11 -37q-67 1 -99 -14q-47 -20 -69 -53q-30 -44 -66 -166zM1201 1768
l75 -316h-21l-169 202l-319 -202h-27l311 316h150z" />
    <glyph glyph-name="hcircumflex" unicode="&#x125;" 
d="M601 1422l-281 -971q182 274 284 364t195 90q48 0 80 -33t32 -88q0 -66 -28 -160l-122 -419q-23 -76 -23 -84q0 -14 8.5 -23t19.5 -9q13 0 30 13q57 44 113 122l31 -19q-34 -53 -94.5 -116.5t-104 -88t-77.5 -24.5q-37 0 -60.5 23.5t-23.5 60.5q0 44 35 164l115 400
q22 75 22 118q0 20 -12.5 32t-32.5 12q-29 0 -66 -22q-68 -42 -157 -156q-24 -31 -160 -250q-42 -70 -69 -153l-64 -205h-150l329 1144l35 124q0 26 -21.5 46t-52.5 20q-18 0 -55 -6l-21 -3v39zM996 1768l75 -316h-21l-169 202l-319 -202h-27l311 316h150z" />
    <glyph glyph-name="Hbar" unicode="&#x126;" horiz-adv-x="1479" 
d="M1248 1156q10 51 10 80q0 44 -28.5 62.5t-124.5 20.5l10 37h546l-12 -37q-114 0 -155 -46t-63 -117h169l-24 -82h-171l-236 -807q-30 -102 -30 -145q0 -30 23 -55t130 -30l-11 -37h-528l14 37q100 2 138.5 32.5t87.5 197.5l122 415h-629l-123 -415q-29 -100 -29 -141
q0 -44 28.5 -64t123.5 -25l-8 -37h-532l13 37q105 2 144 38.5t84 191.5l236 807h-174l24 82h171q12 51 12 79q0 35 -23 59.5t-132 24.5l13 37h535l-12 -37q-105 0 -144.5 -39t-66.5 -124h622zM1226 1074h-626l-95 -323h626z" />
    <glyph glyph-name="hbar" unicode="&#x127;" 
d="M524 1156h304l-22 -82h-306l-180 -623q192 292 295.5 373t178.5 81q54 0 85.5 -34t31.5 -94q0 -59 -28 -153l-122 -419q-22 -75 -22 -86q0 -30 25 -30q48 0 145 135l31 -19q-159 -229 -276 -229q-42 0 -63 27t-21 61q0 41 35 160l115 400q22 75 22 115q0 47 -45 47
q-92 0 -248 -215.5t-209 -384.5l-59 -186h-150l310 1074h-169l22 82h170q30 105 30 127q0 50 -64 50q-20 0 -85 -8v39l316 58h30z" />
    <glyph glyph-name="Itilde" unicode="&#x128;" horiz-adv-x="682" 
d="M505 37l-11 -37h-558l14 37q84 2 111 14q44 17 65 47q33 47 68 168l236 818q30 102 30 154q0 26 -13 44t-39.5 27.5t-103.5 9.5l12 37h524l-11 -37q-64 1 -95 -14q-45 -20 -68.5 -57t-60.5 -164l-235 -818q-32 -113 -32 -144q0 -25 12.5 -42.5t40 -27t114.5 -15.5z
M926 1745h30q3 -126 -53 -194t-131 -68q-73 0 -168.5 61t-117.5 71q-17 8 -39 8q-37 0 -59.5 -26t-36.5 -110h-32q7 140 60 200t128 60q73 0 178.5 -70t144.5 -70q35 0 57 26q29 33 39 112z" />
    <glyph glyph-name="itilde" unicode="&#x129;" horiz-adv-x="569" 
d="M471 905l-198 -701q-20 -71 -20 -85q0 -16 9.5 -26t22.5 -10q15 0 36 16q57 45 115 128l35 -23q-68 -104 -160 -175q-68 -53 -130 -53q-41 0 -67 24.5t-26 61.5t25 123l130 448q32 110 32 138q0 22 -15.5 36t-42.5 14q-22 0 -91 -11v39zM757 1364h30q3 -126 -53 -194
t-131 -68q-73 0 -168.5 61t-117.5 71q-17 8 -39 8q-37 0 -59.5 -26t-36.5 -110h-32q7 140 60 200t128 60q73 0 178.5 -70t144.5 -70q35 0 57 26q29 33 39 112z" />
    <glyph glyph-name="Imacron" unicode="&#x12a;" horiz-adv-x="682" 
d="M505 37l-11 -37h-558l14 37q84 2 111 14q44 17 65 47q33 47 68 168l236 818q30 102 30 154q0 26 -13 44t-39.5 27.5t-103.5 9.5l12 37h524l-11 -37q-64 1 -95 -14q-45 -20 -68.5 -57t-60.5 -164l-235 -818q-32 -113 -32 -144q0 -25 12.5 -42.5t40 -27t114.5 -15.5z
M352 1636h600l-35 -128h-601z" />
    <glyph glyph-name="imacron" unicode="&#x12b;" horiz-adv-x="569" 
d="M471 905l-198 -701q-20 -71 -20 -85q0 -16 9.5 -26t22.5 -10q15 0 36 16q57 45 115 128l35 -23q-68 -104 -160 -175q-68 -53 -130 -53q-41 0 -67 24.5t-26 61.5t25 123l130 448q32 110 32 138q0 22 -15.5 36t-42.5 14q-22 0 -91 -11v39zM159 1257h600l-35 -128h-601z" />
    <glyph glyph-name="Ibreve" unicode="&#x12c;" horiz-adv-x="682" 
d="M505 37l-11 -37h-558l14 37q84 2 111 14q44 17 65 47q33 47 68 168l236 818q30 102 30 154q0 26 -13 44t-39.5 27.5t-103.5 9.5l12 37h524l-11 -37q-64 1 -95 -14q-45 -20 -68.5 -57t-60.5 -164l-235 -818q-32 -113 -32 -144q0 -25 12.5 -42.5t40 -27t114.5 -15.5z
M962 1787h30q-67 -148 -163.5 -221t-184.5 -73q-94 0 -156 71.5t-65 222.5h32q15 -73 64.5 -111.5t132.5 -38.5q169 0 310 150z" />
    <glyph glyph-name="ibreve" unicode="&#x12d;" horiz-adv-x="569" 
d="M471 905l-198 -701q-20 -71 -20 -85q0 -16 9.5 -26t22.5 -10q15 0 36 16q57 45 115 128l35 -23q-68 -104 -160 -175q-68 -53 -130 -53q-41 0 -67 24.5t-26 61.5t25 123l130 448q32 110 32 138q0 22 -15.5 36t-42.5 14q-22 0 -91 -11v39zM760 1406h30
q-67 -148 -163.5 -221t-184.5 -73q-94 0 -156 71.5t-65 222.5h32q15 -73 64.5 -111.5t132.5 -38.5q169 0 310 150z" />
    <glyph glyph-name="Iogonek" unicode="&#x12e;" horiz-adv-x="682" 
d="M505 37l-11 -37h-558l14 37q84 2 111 14q44 17 65 47q33 47 68 168l236 818q30 102 30 154q0 26 -13 44t-39.5 27.5t-103.5 9.5l12 37h524l-11 -37q-64 1 -95 -14q-45 -20 -68.5 -57t-60.5 -164l-235 -818q-32 -113 -32 -144q0 -25 12.5 -42.5t40 -27t114.5 -15.5z
M357 60l-75 -62q-85 -70 -132 -134.5t-47 -123.5q0 -76 78 -76q43 0 94 26l7 -29q-116 -90 -204 -90q-74 0 -104 47q-15 23 -17 51v11q0 62 53 133q32 42 71 77q63 56 157 116l84 54h35z" />
    <glyph glyph-name="iogonek" unicode="&#x12f;" horiz-adv-x="569" 
d="M458 1302q42 0 71 -29t29 -71q0 -41 -29.5 -70.5t-70.5 -29.5t-70.5 29.5t-29.5 70.5q0 42 29 71t71 29zM471 905l-198 -701q-20 -71 -20 -85q0 -16 9.5 -26t22.5 -10q15 0 36 16q57 45 115 128l35 -23q-68 -104 -160 -175q-68 -53 -130 -53q-41 0 -67 24.5t-26 61.5
t25 123l130 448q32 110 32 138q0 22 -15.5 36t-42.5 14q-22 0 -91 -11v39zM342 60l-75 -62q-85 -70 -132 -134.5t-47 -123.5q0 -76 78 -76q43 0 94 26l7 -29q-116 -90 -204 -90q-74 0 -104 47q-15 23 -17 51v11q0 62 53 133q32 42 71 77q63 56 157 116l84 54h35z" />
    <glyph glyph-name="Jcircumflex" unicode="&#x134;" horiz-adv-x="909" 
d="M586 1356h534l-11 -37q-103 -1 -145 -37.5t-88 -195.5l-172 -597q-49 -169 -99 -258q-67 -120 -180.5 -191t-254.5 -71q-116 0 -178 53.5t-62 129.5q0 60 37.5 100t89.5 40q45 0 73.5 -27t28.5 -66q0 -32 -26 -62q-33 -38 -33 -52q0 -21 19 -38t51 -17q46 0 95.5 22
t93 67t76 108t66.5 172l49 173l149 514q33 113 33 141q0 38 -30 62t-127 30zM1085 1768l75 -316h-21l-169 202l-319 -202h-27l311 316h150z" />
    <glyph glyph-name="jcircumflex" unicode="&#x135;" horiz-adv-x="569" 
d="M606 1387l75 -316h-21l-169 202l-319 -202h-27l311 316h150zM485 905l-259 -895q-66 -228 -184.5 -340t-263.5 -112q-65 0 -97.5 29t-32.5 69q0 32 24.5 54t57.5 22q28 0 47.5 -15t19.5 -37q0 -25 -27 -47q-12 -9 -12 -15q0 -13 32 -13q81 0 137.5 53t101.5 204l224 768
q31 109 31 136q0 51 -66 51q-25 0 -76 -9l-1 35l314 62h30z" />
    <glyph glyph-name="Kcommaaccent" unicode="&#x136;" horiz-adv-x="1366" 
d="M654 771l336 -519q90 -138 149 -176.5t155 -38.5l-11 -37h-578l9 37q69 7 97.5 33t28.5 59q0 30 -10 58q-8 20 -58 98l-275 431l-133 -449q-33 -108 -33 -145q0 -38 28 -58t138 -27l-16 -37h-536l13 37q78 2 105 14q40 18 59 46q26 41 64 170l239 819q27 94 27 151
q0 40 -25.5 61t-99.5 21h-20l12 37h509l-10 -37q-63 1 -94 -14q-43 -21 -63 -54t-59 -165l-105 -348l482 363q96 72 126 114q18 26 18 47q0 18 -18.5 35t-56.5 22l10 37h434l-9 -37q-71 -12 -119.5 -31.5t-99.5 -53.5q-15 -10 -195 -148zM376 -417q62 22 110.5 60.5
t48.5 75.5q0 26 -34 54q-35 30 -35 60q0 36 29.5 62.5t69.5 26.5q42 0 73.5 -28.5t31.5 -68.5q0 -76 -72 -152.5t-202 -116.5z" />
    <glyph glyph-name="kcommaaccent" unicode="&#x137;" horiz-adv-x="909" 
d="M586 1422l-284 -983l114 97q187 158 243 234q18 25 18 38q0 9 -6 17t-23.5 13t-61.5 5h-35l11 38h437l-10 -38q-75 -4 -129.5 -23.5t-105.5 -57.5q-101 -75 -133 -104l-86 -76q22 -72 54 -201q54 -214 73 -254t39 -40q17 0 40 17q52 38 111 121l35 -25
q-109 -137 -167 -180.5t-106 -43.5q-42 0 -65 33q-40 59 -133 465l-137 -119l-103 -355h-156l332 1141l28 97q5 25 5 44q0 24 -18.5 40t-53.5 16q-23 0 -73 -10v35zM156 -417q62 22 110.5 60.5t48.5 75.5q0 26 -34 54q-35 30 -35 60q0 36 29.5 62.5t69.5 26.5
q42 0 73.5 -28.5t31.5 -68.5q0 -76 -72 -152.5t-202 -116.5z" />
    <glyph glyph-name="kgreenlandic" unicode="&#x138;" horiz-adv-x="909" 
d="M435 905l-133 -466l128 109q248 210 248 260q0 35 -92 35h-35l11 38h437l-10 -38q-107 -6 -184.5 -48t-183.5 -137l-86 -76q22 -71 54 -201q49 -195 68.5 -244.5t44.5 -49.5q50 0 150 138l35 -25q-175 -224 -272 -224q-36 0 -60 27t-61 158.5t-78 312.5l-138 -119
l-102 -355h-156l181 624q34 115 34 138q0 58 -71 58q-25 0 -74 -10v35l315 60h30z" />
    <glyph glyph-name="Lcommaaccent" unicode="&#x13b;" horiz-adv-x="1139" 
d="M939 0h-1005l14 37q80 2 107 13q42 18 62 47q31 46 66 166l239 825q30 102 30 150q0 38 -27.5 59t-103.5 21q-17 0 -27 1l12 37h553l-8 -37q-93 0 -132 -18t-65 -59q-18 -27 -59 -168l-235 -811q-27 -92 -27 -128q0 -24 27 -46q17 -15 77 -15h131q143 0 227 36
q62 27 114 81q28 30 99 149l26 45h37zM296 -417q62 22 110.5 60.5t48.5 75.5q0 26 -34 54q-35 30 -35 60q0 36 29.5 62.5t69.5 26.5q42 0 73.5 -28.5t31.5 -68.5q0 -76 -72 -152.5t-202 -116.5z" />
    <glyph glyph-name="lcommaaccent" unicode="&#x13c;" horiz-adv-x="569" 
d="M609 1422l-342 -1190q-25 -89 -25 -109q0 -15 9.5 -25t23.5 -10q19 0 41 17q52 41 109 127l30 -31q-95 -134 -175 -187q-59 -38 -112 -38q-38 0 -63.5 26t-25.5 60q0 36 32 148l271 938q33 115 33 132q0 24 -19 39.5t-59 15.5q-23 0 -70 -7v37zM-74 -417
q62 22 110.5 60.5t48.5 75.5q0 26 -34 54q-35 30 -35 60q0 36 29.5 62.5t69.5 26.5q42 0 73.5 -28.5t31.5 -68.5q0 -76 -72 -152.5t-202 -116.5z" />
    <glyph glyph-name="Ncommaaccent" unicode="&#x145;" horiz-adv-x="1366" 
d="M587 1356l419 -1063l227 794q28 98 28 152q0 37 -26 58t-97 21q-12 0 -25 1l11 37h436l-12 -37q-68 1 -101 -14q-47 -21 -70 -54q-32 -47 -65 -164l-319 -1118h-36l-451 1144l-241 -845q-27 -96 -27 -147q0 -38 24.5 -57.5t116.5 -26.5l-10 -37h-426l14 37q80 2 107 14
q41 18 61 47q29 44 65 170l269 943q-39 60 -83.5 82.5t-138.5 25.5l11 37h339zM376 -417q62 22 110.5 60.5t48.5 75.5q0 26 -34 54q-35 30 -35 60q0 36 29.5 62.5t69.5 26.5q42 0 73.5 -28.5t31.5 -68.5q0 -76 -72 -152.5t-202 -116.5z" />
    <glyph glyph-name="ncommaaccent" unicode="&#x146;" 
d="M452 905l-133 -455q187 279 286.5 367t191.5 88q50 0 82.5 -33t32.5 -86q0 -60 -29 -160l-122 -421q-21 -73 -21 -89q0 -14 8 -23.5t17 -9.5q12 0 29 13q53 42 116 128l31 -19q-93 -133 -176 -190q-58 -39 -104 -39q-37 0 -59 22.5t-22 60.5q0 48 34 165l116 402
q22 75 22 117q0 20 -13 32.5t-32 12.5q-28 0 -67 -24q-74 -45 -154 -148.5t-169 -264.5q-47 -85 -78 -186l-50 -165h-150l182 626q32 113 32 136q0 22 -17.5 38.5t-43.5 16.5q-12 0 -42 -4l-38 -6l-6 36zM196 -417q62 22 110.5 60.5t48.5 75.5q0 26 -34 54q-35 30 -35 60
q0 36 29.5 62.5t69.5 26.5q42 0 73.5 -28.5t31.5 -68.5q0 -76 -72 -152.5t-202 -116.5z" />
    <glyph glyph-name="Eng" unicode="&#x14a;" horiz-adv-x="1426" 
d="M580 996q215 391 482 391q168 0 259.5 -127t91.5 -297q0 -209 -105 -471t-240 -392.5t-269 -130.5q-100 0 -167 68t-67 175q0 95 56.5 167t124.5 72q45 0 72.5 -30.5t27.5 -69.5q0 -83 -106 -134q-48 -23 -62.5 -38t-14.5 -46q0 -43 36 -71.5t88 -28.5q101 0 186.5 99
t161.5 385t76 493q0 119 -51.5 197.5t-157.5 78.5q-162 0 -310 -207t-216 -443l-106 -370q-32 -113 -32 -140q0 -43 31 -63.5t136 -25.5l-11 -37h-558l14 37q92 2 126.5 18t62 66t55.5 145l236 818q30 102 30 146q0 49 -31.5 69t-124.5 20l12 37h367z" />
    <glyph glyph-name="eng" unicode="&#x14b;" horiz-adv-x="987" 
d="M883 626l-176 -616q-64 -223 -182 -337.5t-267 -114.5q-64 0 -96.5 29t-32.5 70q0 33 26.5 55t55.5 22q23 0 45.5 -15.5t22.5 -38.5q0 -24 -22 -42q-17 -14 -17 -20q0 -13 28 -13q89 0 145 58t97 199l220 764q22 74 22 111q0 51 -44 51q-50 0 -135 -76.5t-191 -251
t-143 -295.5l-50 -165h-150l182 626q32 112 32 135q0 56 -59 56q-17 0 -82 -10l-6 36l316 62h30l-133 -455q192 291 294 373t180 82q58 0 88.5 -35t30.5 -89t-29 -155z" />
    <glyph glyph-name="Omacron" unicode="&#x14c;" horiz-adv-x="1479" 
d="M1009 1387q135 0 239 -58.5t163 -173t59 -237.5q0 -218 -126.5 -457.5t-330.5 -365.5t-422 -126q-157 0 -262.5 69.5t-156 183.5t-50.5 221q0 190 91.5 375.5t218.5 310t271 191.5t306 67zM975 1323q-100 0 -195.5 -49.5t-189.5 -162t-169 -294.5q-92 -224 -92 -423
q0 -142 73 -251.5t224 -109.5q91 0 178.5 45t182.5 154q119 137 200 349.5t81 396.5q0 136 -73 240.5t-220 104.5zM780 1636h600l-35 -128h-601z" />
    <glyph glyph-name="omacron" unicode="&#x14d;" 
d="M947 592q0 -150 -79.5 -297t-221.5 -233t-276 -86q-137 0 -223.5 87.5t-86.5 226.5q0 147 84.5 295t226 234t273.5 86t217.5 -87t85.5 -226zM781 661q0 93 -45.5 142.5t-117.5 49.5q-147 0 -270.5 -210.5t-123.5 -418.5q0 -95 48 -146.5t121 -51.5q141 0 264.5 209.5
t123.5 425.5zM421 1257h600l-35 -128h-601z" />
    <glyph glyph-name="Obreve" unicode="&#x14e;" horiz-adv-x="1479" 
d="M1009 1387q135 0 239 -58.5t163 -173t59 -237.5q0 -218 -126.5 -457.5t-330.5 -365.5t-422 -126q-157 0 -262.5 69.5t-156 183.5t-50.5 221q0 190 91.5 375.5t218.5 310t271 191.5t306 67zM975 1323q-100 0 -195.5 -49.5t-189.5 -162t-169 -294.5q-92 -224 -92 -423
q0 -142 73 -251.5t224 -109.5q91 0 178.5 45t182.5 154q119 137 200 349.5t81 396.5q0 136 -73 240.5t-220 104.5zM1364 1787h30q-67 -148 -163.5 -221t-184.5 -73q-94 0 -156 71.5t-65 222.5h32q15 -73 64.5 -111.5t132.5 -38.5q169 0 310 150z" />
    <glyph glyph-name="obreve" unicode="&#x14f;" 
d="M947 592q0 -150 -79.5 -297t-221.5 -233t-276 -86q-137 0 -223.5 87.5t-86.5 226.5q0 147 84.5 295t226 234t273.5 86t217.5 -87t85.5 -226zM781 661q0 93 -45.5 142.5t-117.5 49.5q-147 0 -270.5 -210.5t-123.5 -418.5q0 -95 48 -146.5t121 -51.5q141 0 264.5 209.5
t123.5 425.5zM1014 1406h30q-67 -148 -163.5 -221t-184.5 -73q-94 0 -156 71.5t-65 222.5h32q15 -73 64.5 -111.5t132.5 -38.5q169 0 310 150z" />
    <glyph glyph-name="Rcommaaccent" unicode="&#x156;" horiz-adv-x="1251" 
d="M851 0l-217 659q-76 -1 -156 15l-117 -410q-23 -80 -23 -135q0 -42 29 -66q22 -18 120 -26l-9 -37h-525l11 37q74 3 100 15q41 17 60 46q32 47 67 166l237 819q24 82 24 127q0 46 -37.5 78t-107.5 31l12 37h442q222 0 320 -84t98 -221q0 -131 -100.5 -239.5
t-275.5 -137.5l132 -397q48 -146 96 -190t155 -50l-11 -37h-324zM495 731q64 -9 114 -9q172 0 272 95.5t100 237.5q0 111 -62.5 170t-187.5 59q-32 0 -76 -8zM396 -417q62 22 110.5 60.5t48.5 75.5q0 26 -34 54q-35 30 -35 60q0 36 29.5 62.5t69.5 26.5q42 0 73.5 -28.5
t31.5 -68.5q0 -76 -72 -152.5t-202 -116.5z" />
    <glyph glyph-name="rcommaaccent" unicode="&#x157;" horiz-adv-x="797" 
d="M107 849l345 56l-144 -486q175 299 318 418q81 68 132 68q33 0 52 -19.5t19 -56.5q0 -66 -34 -126q-24 -45 -69 -45q-23 0 -39.5 15t-20.5 46q-2 19 -9 25q-8 8 -19 8q-17 0 -32 -8q-26 -14 -79 -78q-83 -98 -180 -254q-42 -66 -72 -149q-42 -114 -48 -137l-32 -126h-153
l185 621q32 108 32 154q0 18 -15 30q-20 16 -53 16q-21 0 -77 -9zM-104 -417q62 22 110.5 60.5t48.5 75.5q0 26 -34 54q-35 30 -35 60q0 36 29.5 62.5t69.5 26.5q42 0 73.5 -28.5t31.5 -68.5q0 -76 -72 -152.5t-202 -116.5z" />
    <glyph glyph-name="Scircumflex" unicode="&#x15c;" 
d="M14 -31l112 503h34q-7 -73 -7 -121q0 -137 87.5 -223t228.5 -86q131 0 199 80.5t68 185.5q0 68 -31 124q-47 83 -251 292q-99 100 -127 149q-46 81 -46 170q0 142 106 243t272 101q56 0 106 -11q31 -6 113 -40q58 -23 64 -25q14 -3 31 -3q29 0 50 15t49 64h38l-104 -450
h-34q4 60 4 97q0 121 -80 198t-211 77q-104 0 -169 -61t-65 -141q0 -70 41.5 -133.5t191 -207t193.5 -224t44 -171.5q0 -103 -54.5 -199.5t-156.5 -149.5t-223 -53q-60 0 -112 11t-166 54q-39 15 -65 15q-59 0 -92 -80h-38zM973 1768l75 -316h-21l-169 202l-319 -202h-27
l311 316h150z" />
    <glyph glyph-name="scircumflex" unicode="&#x15d;" horiz-adv-x="797" 
d="M743 905l-61 -307h-37q-5 134 -57 195t-129 61q-62 0 -98.5 -34t-36.5 -82q0 -33 14.5 -63t63.5 -84q130 -142 168 -214t38 -136q0 -104 -86.5 -184.5t-218.5 -80.5q-72 0 -166 34q-33 12 -51 12q-45 0 -68 -46h-37l61 324h37q6 -152 63 -215t156 -63q76 0 120.5 42.5
t44.5 104.5q0 40 -16 74q-28 60 -117.5 166t-115 159t-25.5 106q0 97 70.5 164t181.5 67q32 0 58 -5q14 -3 65.5 -22.5t68.5 -19.5q43 0 72 47h38zM746 1387l75 -316h-21l-169 202l-319 -202h-27l311 316h150z" />
    <glyph glyph-name="Tbar" unicode="&#x166;" horiz-adv-x="1139" 
d="M526 668h-339l24 82h339l153 525h-82q-171 0 -256.5 -70t-118.5 -209h-37l95 360h1030l-111 -360h-38q19 75 19 138q0 81 -41 111t-179 30h-107l-151 -525h338l-24 -82h-337l-101 -351q-44 -154 -44 -193q0 -87 155 -87h36l-12 -37h-590l11 37h26q109 0 147.5 49
t90.5 226z" />
    <glyph glyph-name="tbar" unicode="&#x167;" horiz-adv-x="570" 
d="M199 531h-150l24 81h150l59 206h-151l11 39q110 29 184.5 91.5t160.5 204.5h44l-78 -272h157l-17 -63h-156l-60 -206h157l-24 -81h-157l-88 -303q-28 -94 -28 -122q0 -36 26 -36q56 0 174 158l33 -25q-154 -227 -287 -227q-45 0 -72.5 29t-27.5 71q0 53 32 163z" />
    <glyph glyph-name="Utilde" unicode="&#x168;" horiz-adv-x="1479" 
d="M268 1356h573l-11 -37q-88 -2 -125.5 -16.5t-64 -51.5t-55.5 -137l-139 -480q-37 -128 -44 -168q-12 -64 -12 -119q0 -121 90 -204.5t241 -83.5q99 0 177 37.5t133.5 105t101.5 183t81 233.5l120 414q45 155 45 202q0 33 -30.5 56.5t-123.5 28.5l11 37h431l-11 -37
q-76 0 -109.5 -14.5t-58.5 -52t-56 -145.5l-147 -503q-71 -245 -134 -361.5t-182.5 -195t-296.5 -78.5q-204 0 -329 115.5t-125 264.5q0 59 11 126q8 44 39 152l134 461q28 100 28 147q0 37 -28.5 57.5t-143.5 26.5zM1362 1745h30q3 -126 -53 -194t-131 -68q-73 0 -168.5 61
t-117.5 71q-17 8 -39 8q-37 0 -59.5 -26t-36.5 -110h-32q7 140 60 200t128 60q73 0 178.5 -70t144.5 -70q35 0 57 26q29 33 39 112z" />
    <glyph glyph-name="utilde" unicode="&#x169;" 
d="M964 881l-174 -596q-39 -133 -39 -168q0 -18 6.5 -26.5t17.5 -8.5q17 0 37.5 15.5t103.5 123.5l30 -23q-79 -125 -162 -184q-55 -38 -106 -38q-39 0 -61 22t-22 57q0 34 13 90q16 74 91 322q-170 -279 -284.5 -385t-212.5 -106q-46 0 -78 32t-32 81q0 75 44 230l87 309
q32 111 32 138q0 12 -8.5 20.5t-18.5 8.5q-21 0 -42 -15t-95 -111l-31 22q75 116 159 171q64 43 118 43q37 0 60.5 -23.5t23.5 -60.5q0 -54 -40 -193l-94 -323q-39 -132 -39 -167q0 -19 12.5 -30.5t33.5 -11.5q33 0 86 33t141.5 146.5t146 213t122.5 316.5l22 76h152z
M974 1364h30q3 -126 -53 -194t-131 -68q-73 0 -168.5 61t-117.5 71q-17 8 -39 8q-37 0 -59.5 -26t-36.5 -110h-32q7 140 60 200t128 60q73 0 178.5 -70t144.5 -70q35 0 57 26q29 33 39 112z" />
    <glyph glyph-name="Umacron" unicode="&#x16a;" horiz-adv-x="1479" 
d="M268 1356h573l-11 -37q-88 -2 -125.5 -16.5t-64 -51.5t-55.5 -137l-139 -480q-37 -128 -44 -168q-12 -64 -12 -119q0 -121 90 -204.5t241 -83.5q99 0 177 37.5t133.5 105t101.5 183t81 233.5l120 414q45 155 45 202q0 33 -30.5 56.5t-123.5 28.5l11 37h431l-11 -37
q-76 0 -109.5 -14.5t-58.5 -52t-56 -145.5l-147 -503q-71 -245 -134 -361.5t-182.5 -195t-296.5 -78.5q-204 0 -329 115.5t-125 264.5q0 59 11 126q8 44 39 152l134 461q28 100 28 147q0 37 -28.5 57.5t-143.5 26.5zM782 1636h600l-35 -128h-601z" />
    <glyph glyph-name="umacron" unicode="&#x16b;" 
d="M964 881l-174 -596q-39 -133 -39 -168q0 -18 6.5 -26.5t17.5 -8.5q17 0 37.5 15.5t103.5 123.5l30 -23q-79 -125 -162 -184q-55 -38 -106 -38q-39 0 -61 22t-22 57q0 34 13 90q16 74 91 322q-170 -279 -284.5 -385t-212.5 -106q-46 0 -78 32t-32 81q0 75 44 230l87 309
q32 111 32 138q0 12 -8.5 20.5t-18.5 8.5q-21 0 -42 -15t-95 -111l-31 22q75 116 159 171q64 43 118 43q37 0 60.5 -23.5t23.5 -60.5q0 -54 -40 -193l-94 -323q-39 -132 -39 -167q0 -19 12.5 -30.5t33.5 -11.5q33 0 86 33t141.5 146.5t146 213t122.5 316.5l22 76h152z
M405 1257h600l-35 -128h-601z" />
    <glyph glyph-name="Ubreve" unicode="&#x16c;" horiz-adv-x="1479" 
d="M268 1356h573l-11 -37q-88 -2 -125.5 -16.5t-64 -51.5t-55.5 -137l-139 -480q-37 -128 -44 -168q-12 -64 -12 -119q0 -121 90 -204.5t241 -83.5q99 0 177 37.5t133.5 105t101.5 183t81 233.5l120 414q45 155 45 202q0 33 -30.5 56.5t-123.5 28.5l11 37h431l-11 -37
q-76 0 -109.5 -14.5t-58.5 -52t-56 -145.5l-147 -503q-71 -245 -134 -361.5t-182.5 -195t-296.5 -78.5q-204 0 -329 115.5t-125 264.5q0 59 11 126q8 44 39 152l134 461q28 100 28 147q0 37 -28.5 57.5t-143.5 26.5zM1379 1787h30q-67 -148 -163.5 -221t-184.5 -73
q-94 0 -156 71.5t-65 222.5h32q15 -73 64.5 -111.5t132.5 -38.5q169 0 310 150z" />
    <glyph glyph-name="ubreve" unicode="&#x16d;" 
d="M964 881l-174 -596q-39 -133 -39 -168q0 -18 6.5 -26.5t17.5 -8.5q17 0 37.5 15.5t103.5 123.5l30 -23q-79 -125 -162 -184q-55 -38 -106 -38q-39 0 -61 22t-22 57q0 34 13 90q16 74 91 322q-170 -279 -284.5 -385t-212.5 -106q-46 0 -78 32t-32 81q0 75 44 230l87 309
q32 111 32 138q0 12 -8.5 20.5t-18.5 8.5q-21 0 -42 -15t-95 -111l-31 22q75 116 159 171q64 43 118 43q37 0 60.5 -23.5t23.5 -60.5q0 -54 -40 -193l-94 -323q-39 -132 -39 -167q0 -19 12.5 -30.5t33.5 -11.5q33 0 86 33t141.5 146.5t146 213t122.5 316.5l22 76h152z
M988 1406h30q-67 -148 -163.5 -221t-184.5 -73q-94 0 -156 71.5t-65 222.5h32q15 -73 64.5 -111.5t132.5 -38.5q169 0 310 150z" />
    <glyph glyph-name="Uogonek" unicode="&#x172;" horiz-adv-x="1479" 
d="M268 1356h573l-11 -37q-88 -2 -125.5 -16.5t-64 -51.5t-55.5 -137l-139 -480q-37 -128 -44 -168q-12 -64 -12 -119q0 -121 90 -204.5t241 -83.5q99 0 177 37.5t133.5 105t101.5 183t81 233.5l120 414q45 155 45 202q0 33 -30.5 56.5t-123.5 28.5l11 37h431l-11 -37
q-76 0 -109.5 -14.5t-58.5 -52t-56 -145.5l-147 -503q-71 -245 -134 -361.5t-182.5 -195t-296.5 -78.5q-204 0 -329 115.5t-125 264.5q0 59 11 126q8 44 39 152l134 461q28 100 28 147q0 37 -28.5 57.5t-143.5 26.5zM900 60l-75 -62q-85 -70 -132 -134.5t-47 -123.5
q0 -76 78 -76q43 0 94 26l7 -29q-116 -90 -204 -90q-74 0 -104 47q-15 23 -17 51v11q0 62 53 133q32 42 71 77q63 56 157 116l84 54h35z" />
    <glyph glyph-name="uogonek" unicode="&#x173;" 
d="M964 881l-174 -596q-39 -133 -39 -168q0 -18 6.5 -26.5t17.5 -8.5q17 0 37.5 15.5t103.5 123.5l30 -23q-79 -125 -162 -184q-55 -38 -106 -38q-39 0 -61 22t-22 57q0 34 13 90q16 74 91 322q-170 -279 -284.5 -385t-212.5 -106q-46 0 -78 32t-32 81q0 75 44 230l87 309
q32 111 32 138q0 12 -8.5 20.5t-18.5 8.5q-21 0 -42 -15t-95 -111l-31 22q75 116 159 171q64 43 118 43q37 0 60.5 -23.5t23.5 -60.5q0 -54 -40 -193l-94 -323q-39 -132 -39 -167q0 -19 12.5 -30.5t33.5 -11.5q33 0 86 33t141.5 146.5t146 213t122.5 316.5l22 76h152z
M832 60l-75 -62q-85 -70 -132 -134.5t-47 -123.5q0 -76 78 -76q43 0 94 26l7 -29q-116 -90 -204 -90q-74 0 -104 47q-15 23 -17 51v11q0 62 53 133q32 42 71 77q63 56 157 116l84 54h35z" />
    <glyph glyph-name="Wcircumflex" unicode="&#x174;" horiz-adv-x="1706" 
d="M277 -31l117 1130q7 65 7 100q0 58 -33 88t-119 32l11 37h508l-11 -37q-102 1 -139.5 -36.5t-51.5 -183.5l-75 -732l515 795q1 20 1 34q0 56 -33 86t-142 37l8 37h549l-11 -37q-95 -1 -128 -16q-24 -11 -40.5 -35.5t-26.5 -83.5q-3 -17 -24.5 -232t-64.5 -585l429 652
q70 107 88 150t18 73q0 28 -24 49.5t-82 27.5l8 37h402l-10 -37q-53 -4 -94 -26t-97 -84q-32 -36 -132 -190l-681 -1050h-37l110 1050l-681 -1050h-34zM1322 1768l75 -316h-21l-169 202l-319 -202h-27l311 316h150z" />
    <glyph glyph-name="wcircumflex" unicode="&#x175;" horiz-adv-x="1366" 
d="M858 905l69 -750q174 204 278 383q61 105 61 152q0 22 -10 39q-4 9 -31.5 26.5t-38.5 36t-11 39.5q0 31 23 52.5t59 21.5q41 0 69.5 -30.5t28.5 -81.5q0 -52 -15 -97q-30 -86 -117 -222q-106 -163 -218.5 -302.5t-167.5 -195.5h-37l-65 692l-413 -692h-44q-7 427 -43 674
q-15 103 -50 135q-25 23 -76 23q-29 0 -74 -6v36l287 67q60 -167 78 -513q6 -131 10 -165l411 678h37zM1057 1387l75 -316h-21l-169 202l-319 -202h-27l311 316h150z" />
    <glyph glyph-name="Ycircumflex" unicode="&#x176;" horiz-adv-x="1139" 
d="M716 721l258 361q100 141 100 180q0 22 -21.5 36.5t-122.5 20.5l10 37h426l-8 -37q-62 -8 -85 -17q-36 -15 -71 -47q-47 -42 -136 -165l-332 -458l-100 -335q-37 -126 -37 -174q0 -31 11.5 -47t40.5 -26q38 -12 116 -13l-10 -37h-571l12 37q85 2 113 14q45 18 67 48
q34 46 70 165l119 396l-145 468q-39 124 -71.5 154t-113.5 37l10 37h501l-12 -37q-94 -7 -107 -12q-22 -7 -36 -28t-14 -49q0 -41 29 -140zM1053 1768l75 -316h-21l-169 202l-319 -202h-27l311 316h150z" />
    <glyph glyph-name="ycircumflex" unicode="&#x177;" horiz-adv-x="909" 
d="M327 905q34 -58 47 -108.5t26 -198.5l44 -492q60 72 174 228q55 76 136 207q49 80 60 112q6 16 6 33q0 11 -7 18t-36.5 16.5t-49 35t-19.5 58.5q0 41 24 66t60 25q44 0 75 -36.5t31 -100.5q0 -79 -54 -180.5t-208 -311.5t-373 -458q-151 -171 -224 -215.5t-125 -44.5
q-31 0 -54.5 23.5t-23.5 54.5q0 39 32.5 71t70.5 32q20 0 33 -9q8 -5 17.5 -28.5t17.5 -31.5q5 -5 12 -5q6 0 21 10q55 34 128 108q96 98 142 160l-56 634q-14 157 -42 191t-94 34q-21 0 -75 -6l-9 37zM804 1387l75 -316h-21l-169 202l-319 -202h-27l311 316h150z" />
    <glyph glyph-name="longs" unicode="&#x17f;" horiz-adv-x="569" 
d="M335 378q-119 -470 -262 -645t-292 -175q-54 0 -95 28t-41 72q0 37 28 58.5t59 21.5q27 0 46 -16.5t19 -39.5q0 -21 -25 -45q-12 -11 -12 -18q0 -20 34 -20q64 0 127.5 54.5t96 143t97.5 341.5l174 677q72 277 214 442.5t300 165.5q64 0 114 -36t50 -86q0 -32 -22 -58
t-60 -26q-31 0 -50.5 18t-19.5 43q0 18 16 44q10 17 10 28q0 30 -50 30q-203 0 -329 -499z" />
    <glyph glyph-name="Aringacute" unicode="&#x1fa;" horiz-adv-x="1251" 
d="M1055 1387l-103 -1128q-8 -79 -8 -104q0 -40 15 -61q19 -29 51.5 -43t109.5 -14l-11 -37h-534l11 37h23q65 0 106 28q29 19 45 63q11 31 21 146l16 172h-388l-138 -187q-47 -63 -59 -90.5t-12 -51.5q0 -32 26 -55t86 -25l-11 -37h-401l11 37q74 3 130.5 49.5t168.5 198.5
l810 1102h35zM857 1054l-393 -535h341zM1052 1721q79 0 134 -55t55 -134q0 -78 -55.5 -133.5t-133.5 -55.5t-133.5 55.5t-55.5 133.5q0 79 55 134t134 55zM1053 1657q-52 0 -88.5 -36.5t-36.5 -88.5q0 -51 36.5 -87.5t88.5 -36.5q51 0 87.5 36.5t36.5 87.5q0 52 -36 88.5
t-88 36.5zM1394 2096l-294 -343h-34l103 343h225z" />
    <glyph glyph-name="aringacute" unicode="&#x1fb;" 
d="M961 905l-195 -678l-22 -91q-3 -13 -3 -22q0 -16 10 -28q8 -9 20 -9q13 0 34 16q39 29 104 120l34 -24q-69 -104 -142 -158.5t-135 -54.5q-43 0 -64.5 21.5t-21.5 62.5q0 49 22 129l21 75q-131 -171 -241 -239q-79 -49 -155 -49q-73 0 -126 60.5t-53 166.5
q0 159 95.5 335.5t242.5 282.5q115 84 217 84q61 0 101.5 -32t61.5 -106l36 114zM605 853q-64 0 -136 -60q-102 -85 -181.5 -252t-79.5 -302q0 -68 34 -107.5t78 -39.5q109 0 237 161q171 214 171 439q0 85 -33 123t-90 38zM740 1421q79 0 134 -55t55 -134
q0 -78 -55.5 -133.5t-133.5 -55.5t-133.5 55.5t-55.5 133.5q0 79 55 134t134 55zM741 1357q-52 0 -88.5 -36.5t-36.5 -88.5q0 -51 36.5 -87.5t88.5 -36.5q51 0 87.5 36.5t36.5 87.5q0 52 -36 88.5t-88 36.5zM1058 1834l-294 -343h-34l103 343h225z" />
    <glyph glyph-name="AEacute" unicode="&#x1fc;" horiz-adv-x="1821" 
d="M1099 679l-135 -461q-18 -65 -18 -88q0 -21 21.5 -40t66.5 -19h120q345 0 497 307h39l-131 -378h-999l10 37q88 0 129 29q57 40 92 158l76 259h-417l-145 -179q-78 -97 -100 -139q-14 -27 -14 -55q0 -31 25 -51t89 -22l-11 -37h-402l10 37q62 5 113 37.5t165 174.5
l711 885q52 64 64 88t12 44q0 15 -9 27t-28 19t-69 7l14 37h987l-83 -323h-42q9 49 9 82q0 49 -25 83q-34 46 -100 71q-50 20 -206 20h-141l-156 -539h99q124 0 181 36q79 49 117 158h44l-144 -493h-41q18 69 18 111q0 64 -51 97q-33 20 -148 20h-94zM891 559l208 730
l-590 -730h382zM1557 1783l-294 -343h-34l103 343h225z" />
    <glyph glyph-name="aeacute" unicode="&#x1fd;" horiz-adv-x="1366" 
d="M917 889l-24 -97q129 113 255 113q86 0 137 -43.5t51 -102.5q0 -58 -38 -120.5t-102.5 -109.5t-175 -89.5t-233.5 -60.5q-12 -69 -12 -115q0 -89 46 -138t125 -49q68 0 136.5 36t158.5 131l26 -30q-88 -114 -194.5 -176t-200.5 -62q-111 0 -181.5 71t-70.5 181q0 29 4 72
q-137 -198 -196 -245q-98 -79 -203 -79q-75 0 -127.5 60.5t-52.5 170.5q0 154 99 333.5t245 284.5q111 80 208 80q67 0 106.5 -40t49.5 -137l34 140zM310 93q55 0 134 64q106 84 185 255.5t79 307.5q0 72 -28.5 105t-79.5 33q-127 0 -261.5 -229.5t-134.5 -396.5
q0 -58 39 -106q27 -33 67 -33zM797 428q214 46 313 145t99 186q0 37 -28 65t-64 28q-48 0 -113.5 -41.5t-113.5 -124.5t-93 -258zM1107 1402l-294 -343h-34l103 343h225z" />
    <glyph glyph-name="Oslashacute" unicode="&#x1fe;" horiz-adv-x="1479" 
d="M1323 1273l133 138l54 -55l-136 -138q97 -146 97 -300q0 -217 -128.5 -454t-337.5 -366t-412 -129q-177 0 -314 113l-152 -154l-55 48l156 162q-56 79 -80 149.5t-24 155.5q0 227 132.5 458.5t337 358.5t407.5 127q108 0 198 -35q61 -24 124 -79zM1225 1170
q-36 73 -87 106q-70 45 -164 45q-98 0 -178 -41q-109 -57 -207.5 -172t-178 -315t-79.5 -400q0 -55 18 -131zM1254 1093l-876 -910q80 -146 249 -146q93 0 179 44t189.5 163.5t188.5 330t85 404.5q0 47 -15 114zM1256 1783l-294 -343h-34l103 343h225z" />
    <glyph glyph-name="oslashacute" unicode="&#x1ff;" 
d="M961 965l40 -40l-122 -129q69 -99 69 -205q0 -152 -85.5 -302.5t-224 -231.5t-274.5 -81q-58 0 -102.5 17t-95.5 58l-122 -124l-39 42l122 124q-70 98 -70 194q0 144 87.5 295t231.5 237t278 86q51 0 92.5 -14.5t93.5 -52.5zM766 759q-36 55 -66.5 74t-80.5 19
q-83 0 -159 -68q-105 -93 -177 -278q-58 -149 -58 -273q0 -12 1 -36zM783 693l-541 -564q37 -62 69.5 -83t84.5 -21t102.5 28t111 105.5t117.5 225.5t57 274q0 8 -1 35zM908 1402l-294 -343h-34l103 343h225z" />
    <glyph glyph-name="anoteleia" unicode="&#x387;" horiz-adv-x="682" 
d="M435 906q42 0 72 -29.5t30 -71.5t-30 -72t-72 -30t-72 29.5t-30 72.5q0 42 30 71.5t72 29.5z" />
    <glyph glyph-name="Wgrave" unicode="&#x1e80;" horiz-adv-x="1706" 
d="M277 -31l117 1130q7 65 7 100q0 58 -33 88t-119 32l11 37h508l-11 -37q-102 1 -139.5 -36.5t-51.5 -183.5l-75 -732l515 795q1 20 1 34q0 56 -33 86t-142 37l8 37h549l-11 -37q-95 -1 -128 -16q-24 -11 -40.5 -35.5t-26.5 -83.5q-3 -17 -24.5 -232t-64.5 -585l429 652
q70 107 88 150t18 73q0 28 -24 49.5t-82 27.5l8 37h402l-10 -37q-53 -4 -94 -26t-97 -84q-32 -36 -132 -190l-681 -1050h-37l110 1050l-681 -1050h-34zM1102 1783l109 -344h-32l-298 344h221z" />
    <glyph glyph-name="wgrave" unicode="&#x1e81;" horiz-adv-x="1366" 
d="M858 905l69 -750q174 204 278 383q61 105 61 152q0 22 -10 39q-4 9 -31.5 26.5t-38.5 36t-11 39.5q0 31 23 52.5t59 21.5q41 0 69.5 -30.5t28.5 -81.5q0 -52 -15 -97q-30 -86 -117 -222q-106 -163 -218.5 -302.5t-167.5 -195.5h-37l-65 692l-413 -692h-44q-7 427 -43 674
q-15 103 -50 135q-25 23 -76 23q-29 0 -74 -6v36l287 67q60 -167 78 -513q6 -131 10 -165l411 678h37zM796 1402l109 -344h-32l-298 344h221z" />
    <glyph glyph-name="Wacute" unicode="&#x1e82;" horiz-adv-x="1706" 
d="M277 -31l117 1130q7 65 7 100q0 58 -33 88t-119 32l11 37h508l-11 -37q-102 1 -139.5 -36.5t-51.5 -183.5l-75 -732l515 795q1 20 1 34q0 56 -33 86t-142 37l8 37h549l-11 -37q-95 -1 -128 -16q-24 -11 -40.5 -35.5t-26.5 -83.5q-3 -17 -24.5 -232t-64.5 -585l429 652
q70 107 88 150t18 73q0 28 -24 49.5t-82 27.5l8 37h402l-10 -37q-53 -4 -94 -26t-97 -84q-32 -36 -132 -190l-681 -1050h-37l110 1050l-681 -1050h-34zM1400 1783l-294 -343h-34l103 343h225z" />
    <glyph glyph-name="wacute" unicode="&#x1e83;" horiz-adv-x="1366" 
d="M858 905l69 -750q174 204 278 383q61 105 61 152q0 22 -10 39q-4 9 -31.5 26.5t-38.5 36t-11 39.5q0 31 23 52.5t59 21.5q41 0 69.5 -30.5t28.5 -81.5q0 -52 -15 -97q-30 -86 -117 -222q-106 -163 -218.5 -302.5t-167.5 -195.5h-37l-65 692l-413 -692h-44q-7 427 -43 674
q-15 103 -50 135q-25 23 -76 23q-29 0 -74 -6v36l287 67q60 -167 78 -513q6 -131 10 -165l411 678h37zM1104 1402l-294 -343h-34l103 343h225z" />
    </font>
</defs>
</svg>
